  0
SECTION
  2
HEADER
  9
$ACADVER
  1
AC1015
  9
$ACADMAINTVER
 70
     6
  9
$DWGCODEPAGE
  3
ANSI_932
  9
$INSBASE
 10
0.0
 20
0.0
 30
0.0
  9
$EXTMIN
 10
-2.99374708938558
 20
-146.1450983195054
 30
0.0
  9
$EXTMAX
 10
87.00625291061435
 20
-17.97317896029287
 30
0.0
  9
$LIMMIN
 10
0.0
 20
0.0
  9
$LIMMAX
 10
12.0
 20
9.0
  9
$ORTHOMODE
 70
     0
  9
$REGENMODE
 70
     1
  9
$FILLMODE
 70
     1
  9
$QTEXTMODE
 70
     0
  9
$MIRRTEXT
 70
     1
  9
$LTSCALE
 40
1.0
  9
$ATTMODE
 70
     1
  9
$TEXTSIZE
 40
0.2
  9
$TRACEWID
 40
0.05
  9
$TEXTSTYLE
  7
Standard
  9
$CLAYER
  8
0
  9
$CELTYPE
  6
ByLayer
  9
$CECOLOR
 62
   256
  9
$CELTSCALE
 40
1.0
  9
$DISPSILH
 70
     0
  9
$DIMSCALE
 40
1.0
  9
$DIMASZ
 40
0.18
  9
$DIMEXO
 40
0.0625
  9
$DIMDLI
 40
0.38
  9
$DIMRND
 40
0.0
  9
$DIMDLE
 40
0.0
  9
$DIMEXE
 40
0.18
  9
$DIMTP
 40
0.0
  9
$DIMTM
 40
0.0
  9
$DIMTXT
 40
0.18
  9
$DIMCEN
 40
0.09
  9
$DIMTSZ
 40
0.0
  9
$DIMTOL
 70
     0
  9
$DIMLIM
 70
     0
  9
$DIMTIH
 70
     1
  9
$DIMTOH
 70
     1
  9
$DIMSE1
 70
     0
  9
$DIMSE2
 70
     0
  9
$DIMTAD
 70
     0
  9
$DIMZIN
 70
     0
  9
$DIMBLK
  1

  9
$DIMASO
 70
     1
  9
$DIMSHO
 70
     1
  9
$DIMPOST
  1

  9
$DIMAPOST
  1

  9
$DIMALT
 70
     0
  9
$DIMALTD
 70
     2
  9
$DIMALTF
 40
25.4
  9
$DIMLFAC
 40
1.0
  9
$DIMTOFL
 70
     0
  9
$DIMTVP
 40
0.0
  9
$DIMTIX
 70
     0
  9
$DIMSOXD
 70
     0
  9
$DIMSAH
 70
     0
  9
$DIMBLK1
  1

  9
$DIMBLK2
  1

  9
$DIMSTYLE
  2
Standard
  9
$DIMCLRD
 70
     0
  9
$DIMCLRE
 70
     0
  9
$DIMCLRT
 70
     0
  9
$DIMTFAC
 40
1.0
  9
$DIMGAP
 40
0.09
  9
$DIMJUST
 70
     0
  9
$DIMSD1
 70
     0
  9
$DIMSD2
 70
     0
  9
$DIMTOLJ
 70
     1
  9
$DIMTZIN
 70
     0
  9
$DIMALTZ
 70
     0
  9
$DIMALTTZ
 70
     0
  9
$DIMUPT
 70
     0
  9
$DIMDEC
 70
     4
  9
$DIMTDEC
 70
     4
  9
$DIMALTU
 70
     2
  9
$DIMALTTD
 70
     2
  9
$DIMTXSTY
  7
Standard
  9
$DIMAUNIT
 70
     0
  9
$DIMADEC
 70
     0
  9
$DIMALTRND
 40
0.0
  9
$DIMAZIN
 70
     0
  9
$DIMDSEP
 70
    46
  9
$DIMATFIT
 70
     3
  9
$DIMFRAC
 70
     0
  9
$DIMLDRBLK
  1

  9
$DIMLUNIT
 70
     2
  9
$DIMLWD
 70
    -2
  9
$DIMLWE
 70
    -2
  9
$DIMTMOVE
 70
     0
  9
$LUNITS
 70
     2
  9
$LUPREC
 70
     4
  9
$SKETCHINC
 40
0.1
  9
$FILLETRAD
 40
0.5
  9
$AUNITS
 70
     0
  9
$AUPREC
 70
     0
  9
$MENU
  1
.
  9
$ELEVATION
 40
0.0
  9
$PELEVATION
 40
0.0
  9
$THICKNESS
 40
0.0
  9
$LIMCHECK
 70
     0
  9
$CHAMFERA
 40
0.0
  9
$CHAMFERB
 40
0.0
  9
$CHAMFERC
 40
0.0
  9
$CHAMFERD
 40
0.0
  9
$SKPOLY
 70
     0
  9
$TDCREATE
 40
2459969.421070254
  9
$TDUCREATE
 40
2459969.046070254
  9
$TDUPDATE
 40
2459969.421072118
  9
$TDUUPDATE
 40
2459969.046072118
  9
$TDINDWG
 40
0.0000000116
  9
$TDUSRTIMER
 40
0.0000000116
  9
$USRTIMER
 70
     1
  9
$ANGBASE
 50
0.0
  9
$ANGDIR
 70
     0
  9
$PDMODE
 70
     0
  9
$PDSIZE
 40
0.0
  9
$PLINEWID
 40
0.0
  9
$SPLFRAME
 70
     0
  9
$SPLINETYPE
 70
     6
  9
$SPLINESEGS
 70
     8
  9
$HANDSEED
  5
42A
  9
$SURFTAB1
 70
     6
  9
$SURFTAB2
 70
     6
  9
$SURFTYPE
 70
     6
  9
$SURFU
 70
     6
  9
$SURFV
 70
     6
  9
$UCSBASE
  2

  9
$UCSNAME
  2

  9
$UCSORG
 10
0.0
 20
0.0
 30
0.0
  9
$UCSXDIR
 10
1.0
 20
0.0
 30
0.0
  9
$UCSYDIR
 10
0.0
 20
1.0
 30
0.0
  9
$UCSORTHOREF
  2

  9
$UCSORTHOVIEW
 70
     0
  9
$UCSORGTOP
 10
0.0
 20
0.0
 30
0.0
  9
$UCSORGBOTTOM
 10
0.0
 20
0.0
 30
0.0
  9
$UCSORGLEFT
 10
0.0
 20
0.0
 30
0.0
  9
$UCSORGRIGHT
 10
0.0
 20
0.0
 30
0.0
  9
$UCSORGFRONT
 10
0.0
 20
0.0
 30
0.0
  9
$UCSORGBACK
 10
0.0
 20
0.0
 30
0.0
  9
$PUCSBASE
  2

  9
$PUCSNAME
  2

  9
$PUCSORG
 10
0.0
 20
0.0
 30
0.0
  9
$PUCSXDIR
 10
1.0
 20
0.0
 30
0.0
  9
$PUCSYDIR
 10
0.0
 20
1.0
 30
0.0
  9
$PUCSORTHOREF
  2

  9
$PUCSORTHOVIEW
 70
     0
  9
$PUCSORGTOP
 10
0.0
 20
0.0
 30
0.0
  9
$PUCSORGBOTTOM
 10
0.0
 20
0.0
 30
0.0
  9
$PUCSORGLEFT
 10
0.0
 20
0.0
 30
0.0
  9
$PUCSORGRIGHT
 10
0.0
 20
0.0
 30
0.0
  9
$PUCSORGFRONT
 10
0.0
 20
0.0
 30
0.0
  9
$PUCSORGBACK
 10
0.0
 20
0.0
 30
0.0
  9
$USERI1
 70
     0
  9
$USERI2
 70
     0
  9
$USERI3
 70
     0
  9
$USERI4
 70
     0
  9
$USERI5
 70
     0
  9
$USERR1
 40
20.0
  9
$USERR2
 40
0.0
  9
$USERR3
 40
0.0
  9
$USERR4
 40
0.0
  9
$USERR5
 40
0.0
  9
$WORLDVIEW
 70
     1
  9
$SHADEDGE
 70
     3
  9
$SHADEDIF
 70
    70
  9
$TILEMODE
 70
     1
  9
$MAXACTVP
 70
    64
  9
$PINSBASE
 10
0.0
 20
0.0
 30
0.0
  9
$PLIMCHECK
 70
     0
  9
$PEXTMIN
 10
1.00000000000000E+20
 20
1.00000000000000E+20
 30
1.00000000000000E+20
  9
$PEXTMAX
 10
-1.00000000000000E+20
 20
-1.00000000000000E+20
 30
-1.00000000000000E+20
  9
$PLIMMIN
 10
0.0
 20
0.0
  9
$PLIMMAX
 10
12.0
 20
9.0
  9
$UNITMODE
 70
     0
  9
$VISRETAIN
 70
     1
  9
$PLINEGEN
 70
     0
  9
$PSLTSCALE
 70
     1
  9
$TREEDEPTH
 70
  3020
  9
$CMLSTYLE
  2
Standard
  9
$CMLJUST
 70
     0
  9
$CMLSCALE
 40
1.0
  9
$PROXYGRAPHICS
 70
     1
  9
$MEASUREMENT
 70
     1
  9
$CELWEIGHT
370
    -1
  9
$ENDCAPS
280
     0
  9
$JOINSTYLE
280
     0
  9
$LWDISPLAY
290
     0
  9
$INSUNITS
 70
     4
  9
$HYPERLINKBASE
  1

  9
$STYLESHEET
  1

  9
$XEDIT
290
     1
  9
$CEPSNTYPE
380
     0
  9
$PSTYLEMODE
290
     1
  9
$FINGERPRINTGUID
  2
{91F9B3FE-5B4B-40EA-A279-0FCF05D3C85A}
  9
$VERSIONGUID
  2
{FAEB1C32-E019-11D5-929B-00C0DF256EC4}
  9
$EXTNAMES
290
     1
  9
$PSVPSCALE
 40
0.0
  9
$OLESTARTUP
290
     0
  0
ENDSEC
  0
SECTION
  2
CLASSES
  0
CLASS
  1
ACDBDICTIONARYWDFLT
  2
AcDbDictionaryWithDefault
  3
ObjectDBX Classes
 90
        0
280
     0
281
     0
  0
CLASS
  1
VISUALSTYLE
  2
AcDbVisualStyle
  3
ObjectDBX Classes
 90
     4095
280
     0
281
     0
  0
CLASS
  1
MATERIAL
  2
AcDbMaterial
  3
ObjectDBX Classes
 90
     1153
280
     0
281
     0
  0
CLASS
  1
SCALE
  2
AcDbScale
  3
ObjectDBX Classes
 90
     1153
280
     0
281
     0
  0
CLASS
  1
TABLESTYLE
  2
AcDbTableStyle
  3
ObjectDBX Classes
 90
     4095
280
     0
281
     0
  0
CLASS
  1
MLEADERSTYLE
  2
AcDbMLeaderStyle
  3
ACDB_MLEADERSTYLE_CLASS
 90
     4095
280
     0
281
     0
  0
CLASS
  1
SUN
  2
AcDbSun
  3
SCENEOE
 90
     1153
280
     0
281
     0
  0
CLASS
  1
DICTIONARYVAR
  2
AcDbDictionaryVar
  3
ObjectDBX Classes
 90
        0
280
     0
281
     0
  0
CLASS
  1
ACDBPLACEHOLDER
  2
AcDbPlaceHolder
  3
ObjectDBX Classes
 90
        0
280
     0
281
     0
  0
CLASS
  1
LAYOUT
  2
AcDbLayout
  3
ObjectDBX Classes
 90
        0
280
     0
281
     0
  0
ENDSEC
  0
SECTION
  2
TABLES
  0
TABLE
  2
VPORT
  5
8
102
{ACAD_XDICTIONARY
360
3ED
102
}
330
0
100
AcDbSymbolTable
 70
     1
  0
VPORT
  5
29
330
8
100
AcDbSymbolTableRecord
100
AcDbViewportTableRecord
  2
*Active
 70
     0
 10
0.0
 20
0.0
 11
1.0
 21
1.0
 12
42.00625291061439
 22
-82.05913863989913
 13
0.0
 23
0.0
 14
0.5
 24
0.5
 15
0.5
 25
0.5
 16
0.0
 26
0.0
 36
1.0
 17
0.0
 27
0.0
 37
0.0
 40
140.9891112951338
 41
1.60267857142857
 42
50.0
 43
0.0
 44
0.0
 50
0.0
 51
0.0
 71
     0
 72
   100
 73
     1
 74
     3
 75
     0
 76
     0
 77
     0
 78
     0
281
     0
 65
     1
110
0.0
120
0.0
130
0.0
111
1.0
121
0.0
131
0.0
112
0.0
122
1.0
132
0.0
 79
     0
146
0.0
  0
ENDTAB
  0
TABLE
  2
LTYPE
  5
5
330
0
100
AcDbSymbolTable
 70
     8
  0
LTYPE
  5
14
330
5
100
AcDbSymbolTableRecord
100
AcDbLinetypeTableRecord
  2
ByBlock
 70
     0
  3

 72
    65
 73
     0
 40
0.0
  0
LTYPE
  5
15
330
5
100
AcDbSymbolTableRecord
100
AcDbLinetypeTableRecord
  2
ByLayer
 70
     0
  3

 72
    65
 73
     0
 40
0.0
  0
LTYPE
  5
16
330
5
100
AcDbSymbolTableRecord
100
AcDbLinetypeTableRecord
  2
Continuous
 70
     0
  3
Solid line
 72
    65
 73
     0
 40
0.0
  0
LTYPE
  5
6E
330
5
100
AcDbSymbolTableRecord
100
AcDbLinetypeTableRecord
  2
DASHED
 70
     0
  3
Dashed
 72
    65
 73
     2
 40
15.0
 49
7.0
 74
     0
 49
-8.0
 74
     0
  0
LTYPE
  5
6F
330
5
100
AcDbSymbolTableRecord
100
AcDbLinetypeTableRecord
  2
DOTTED
 70
     0
  3
Dotted
 72
    65
 73
     2
 40
1.0
 49
0.0
 74
     0
 49
-1.0
 74
     0
  0
LTYPE
  5
70
330
5
100
AcDbSymbolTableRecord
100
AcDbLinetypeTableRecord
  2
DOT_CENTER
 70
     0
  3
Dot_Center
 72
    65
 73
     4
 40
14.0
 49
12.0
 74
     0
 49
-1.0
 74
     0
 49
0.0
 74
     0
 49
-1.0
 74
     0
  0
LTYPE
  5
71
330
5
100
AcDbSymbolTableRecord
100
AcDbLinetypeTableRecord
  2
LONG_DASHED
 70
     0
  3
Long_Dashed
 72
    65
 73
     2
 40
15.0
 49
10.0
 74
     0
 49
-5.0
 74
     0
  0
LTYPE
  5
72
330
5
100
AcDbSymbolTableRecord
100
AcDbLinetypeTableRecord
  2
DASH_CENTER
 70
     0
  3
Dash_Center
 72
    65
 73
     4
 40
14.0
 49
11.0
 74
     0
 49
-1.0
 74
     0
 49
1.0
 74
     0
 49
-1.0
 74
     0
  0
LTYPE
  5
73
330
5
100
AcDbSymbolTableRecord
100
AcDbLinetypeTableRecord
  2
PHANTOM
 70
     0
  3
Phantom
 72
    65
 73
     6
 40
13.0
 49
10.0
 74
     0
 49
-1.0
 74
     0
 49
0.0
 74
     0
 49
-1.0
 74
     0
 49
0.0
 74
     0
 49
-1.0
 74
     0
  0
LTYPE
  5
74
330
5
100
AcDbSymbolTableRecord
100
AcDbLinetypeTableRecord
  2
CENTER_DASH_DASH
 70
     0
  3
Center_Dash_Dash
 72
    65
 73
     6
 40
14.0
 49
9.0
 74
     0
 49
-1.0
 74
     0
 49
1.0
 74
     0
 49
-1.0
 74
     0
 49
1.0
 74
     0
 49
-1.0
 74
     0
  0
ENDTAB
  0
TABLE
  2
LAYER
  5
2
330
0
100
AcDbSymbolTable
 70
     2
  0
LAYER
  5
10
330
2
100
AcDbSymbolTableRecord
100
AcDbLayerTableRecord
  2
0
 70
     0
 62
     7
  6
Continuous
370
    -3
390
F
  0
LAYER
  5
75
330
2
100
AcDbSymbolTableRecord
100
AcDbLayerTableRecord
  2
1
 70
     0
 62
     7
  6
Continuous
370
    -3
390
F
  0
ENDTAB
  0
TABLE
  2
STYLE
  5
3
330
0
100
AcDbSymbolTable
 70
     8
  0
STYLE
  5
11
330
3
100
AcDbSymbolTableRecord
100
AcDbTextStyleTableRecord
  2
Standard
 70
     0
 40
0.0
 41
1.0
 50
0.0
 71
     0
 42
0.2
  3
txt
  4

  0
STYLE
  5
7E
330
3
100
AcDbSymbolTableRecord
100
AcDbTextStyleTableRecord
  2
CONVERTER_11
 70
     0
 40
0.0
 41
0.73125
 50
10.0
 71
     0
 42
0.2
  3
txt.shx
  4

  0
STYLE
  5
80
330
3
100
AcDbSymbolTableRecord
100
AcDbTextStyleTableRecord
  2
CONVERTER_12
 70
     0
 40
0.0
 41
0.89
 50
10.0
 71
     0
 42
0.2
  3
MS Mincho.ttf
  4

1001
ACAD
1000
MS Mincho
1071
    32785
  0
STYLE
  5
84
330
3
100
AcDbSymbolTableRecord
100
AcDbTextStyleTableRecord
  2
CONVERTER_13
 70
     0
 40
0.0
 41
0.9
 50
10.0
 71
     0
 42
0.2
  3
txt.shx
  4

  0
STYLE
  5
8C
330
3
100
AcDbSymbolTableRecord
100
AcDbTextStyleTableRecord
  2
CONVERTER_14
 70
     0
 40
0.0
 41
0.84825
 50
10.0
 71
     0
 42
0.2
  3
txt.shx
  4

  0
STYLE
  5
151
330
3
100
AcDbSymbolTableRecord
100
AcDbTextStyleTableRecord
  2
CONVERTER_15
 70
     0
 40
0.0
 41
0.95
 50
10.0
 71
     0
 42
0.2
  3
complex.shx
  4

  0
STYLE
  5
153
330
3
100
AcDbSymbolTableRecord
100
AcDbTextStyleTableRecord
  2
CONVERTER_16
 70
     0
 40
0.0
 41
0.89
 50
0.0
 71
     0
 42
0.2
  3
msmincho.ttc
  4

1001
ACAD
1000
MS Mincho
1071
    32785
  0
STYLE
  5
182
330
3
100
AcDbSymbolTableRecord
100
AcDbTextStyleTableRecord
  2
CONVERTER_17
 70
     0
 40
0.0
 41
0.9
 50
0.0
 71
     0
 42
0.2
  3
txt.shx
  4

  0
ENDTAB
  0
TABLE
  2
VIEW
  5
6
330
0
100
AcDbSymbolTable
 70
     0
  0
ENDTAB
  0
TABLE
  2
UCS
  5
7
330
0
100
AcDbSymbolTable
 70
     0
  0
ENDTAB
  0
TABLE
  2
APPID
  5
9
330
0
100
AcDbSymbolTable
 70
     2
  0
APPID
  5
12
330
9
100
AcDbSymbolTableRecord
100
AcDbRegAppTableRecord
  2
ACAD
 70
     0
  0
APPID
  5
427
330
9
100
AcDbSymbolTableRecord
100
AcDbRegAppTableRecord
  2
ACAD_MLEADERVER
 70
     0
  0
ENDTAB
  0
TABLE
  2
DIMSTYLE
  5
A
330
0
100
AcDbSymbolTable
 70
    12
100
AcDbDimStyleTable
  0
DIMSTYLE
105
27
330
A
100
AcDbSymbolTableRecord
100
AcDbDimStyleTableRecord
  2
Standard
 70
     0
178
     0
340
11
  0
DIMSTYLE
105
353
102
{ACAD_REACTORS
330
354
102
}
330
A
100
AcDbSymbolTableRecord
100
AcDbDimStyleTableRecord
  2
ME10_DIM_10
 70
     0
  3
(<>)
 41
0.875
 42
0.5
 44
0.5
 73
     0
 74
     0
 77
     1
 78
     8
140
1.25
147
0.5
172
     1
173
     1
174
     1
175
     1
176
     2
177
     2
271
     3
178
     3
271
     3
340
84
343
34D
344
34D
  0
DIMSTYLE
105
360
102
{ACAD_REACTORS
330
361
102
}
330
A
100
AcDbSymbolTableRecord
100
AcDbDimStyleTableRecord
  2
ME10_DIM_11
 70
     0
  3
(HEX)
 41
0.875
 42
0.5
 44
0.5
 73
     0
 74
     0
 77
     1
 78
     8
140
1.25
147
0.5
172
     1
173
     1
174
     1
175
     1
176
     2
177
     2
271
     3
178
     3
271
     3
340
84
343
34D
344
34D
  0
DIMSTYLE
105
36D
102
{ACAD_REACTORS
330
36E
102
}
330
A
100
AcDbSymbolTableRecord
100
AcDbDimStyleTableRecord
  2
ME10_DIM_12
 70
     0
  3
{\Fgdt;n}<>
 41
0.875
 42
0.5
 44
0.5
 73
     0
 74
     0
 77
     1
 78
     8
140
1.25
147
0.5
172
     1
173
     1
174
     1
175
     1
176
     2
177
     2
271
     3
178
     3
271
     3
340
84
343
34D
344
34D
  0
DIMSTYLE
105
37C
102
{ACAD_REACTORS
330
37D
102
}
330
A
100
AcDbSymbolTableRecord
100
AcDbDimStyleTableRecord
  2
ME10_DIM_13
 70
     0
 41
0.875
 42
0.5
 44
0.5
 73
     0
 74
     0
 77
     1
 78
     8
140
1.25
147
0.5
172
     1
173
     1
174
     1
175
     1
176
     2
177
     2
271
     3
178
     3
271
     3
340
84
343
34D
344
34D
  0
DIMSTYLE
105
389
102
{ACAD_REACTORS
330
38A
102
}
330
A
100
AcDbSymbolTableRecord
100
AcDbDimStyleTableRecord
  2
ME10_DIM_14
 70
     0
  3
(<>)
 41
0.875
 42
0.5
 44
0.5
 73
     0
 74
     0
 77
     1
 78
     8
140
1.25
147
0.5
172
     1
173
     1
174
     1
175
     1
176
     2
177
     2
271
     3
178
     3
271
     3
340
84
343
34D
344
34D
  0
DIMSTYLE
105
396
102
{ACAD_REACTORS
330
397
102
}
330
A
100
AcDbSymbolTableRecord
100
AcDbDimStyleTableRecord
  2
ME10_DIM_15
 70
     0
  3
(<>)
 41
0.875
 42
0.5
 44
0.5
 73
     0
 74
     0
 77
     1
 78
     8
140
1.25
147
0.5
172
     1
173
     1
174
     1
175
     1
176
     2
177
     2
271
     3
178
     3
271
     3
340
84
343
34D
344
34D
  0
DIMSTYLE
105
3A5
102
{ACAD_REACTORS
330
3A6
102
}
330
A
100
AcDbSymbolTableRecord
100
AcDbDimStyleTableRecord
  2
ME10_DIM_16
 70
     0
 41
0.875
 42
0.5
 44
0.5
 73
     0
 74
     0
 77
     1
 78
     8
140
1.25
147
0.5
172
     1
173
     1
174
     1
175
     1
176
     2
177
     2
271
     3
178
     3
271
     3
340
84
343
34D
344
34D
  0
DIMSTYLE
105
3B4
102
{ACAD_REACTORS
330
3B5
102
}
330
A
100
AcDbSymbolTableRecord
100
AcDbDimStyleTableRecord
  2
ME10_DIM_17
 70
     0
 41
0.875
 42
0.5
 44
0.5
 73
     0
 74
     0
 77
     1
 78
     8
140
1.25
147
0.5
172
     1
173
     1
174
     1
175
     1
176
     2
177
     2
271
     3
178
     3
271
     3
340
84
343
34D
344
34D
  0
DIMSTYLE
105
3C1
102
{ACAD_REACTORS
330
3C2
102
}
330
A
100
AcDbSymbolTableRecord
100
AcDbDimStyleTableRecord
  2
ME10_DIM_18
 70
     0
  3
{\Fgdt;n}<>
 41
0.875
 42
0.5
 44
0.5
 73
     0
 74
     0
 77
     1
 78
     8
140
1.25
147
0.5
172
     1
173
     1
174
     1
175
     1
176
     2
177
     2
271
     3
178
     3
271
     3
340
84
343
34D
344
34D
  0
DIMSTYLE
105
3CE
102
{ACAD_REACTORS
330
3CF
102
}
330
A
100
AcDbSymbolTableRecord
100
AcDbDimStyleTableRecord
  2
ME10_DIM_19
 70
     0
  3
(Dｶｯﾄ)
 41
0.875
 42
0.5
 44
0.5
 73
     0
 74
     0
 77
     1
 78
     8
140
1.25
147
0.5
172
     1
173
     1
174
     1
175
     1
176
     2
177
     2
271
     3
178
     3
271
     3
340
84
343
34D
344
34D
  0
DIMSTYLE
105
3DB
102
{ACAD_REACTORS
330
3DC
102
}
330
A
100
AcDbSymbolTableRecord
100
AcDbDimStyleTableRecord
  2
ME10_DIM_20
 70
     0
 41
0.875
 42
0.5
 44
0.5
 47
0.1
 71
     1
 73
     0
 74
     0
 77
     1
 78
     8
140
1.25
146
0.7
147
0.5
172
     1
173
     1
174
     1
175
     1
176
     2
177
     2
271
     3
178
     3
271
     3
272
     1
340
84
343
34D
344
34D
  0
ENDTAB
  0
TABLE
  2
BLOCK_RECORD
  5
1
330
0
100
AcDbSymbolTable
 70
    16
  0
BLOCK_RECORD
  5
1F
330
1
100
AcDbSymbolTableRecord
100
AcDbBlockTableRecord
  2
*Model_Space
340
22
  0
BLOCK_RECORD
  5
1B
330
1
100
AcDbSymbolTableRecord
100
AcDbBlockTableRecord
  2
*Paper_Space
340
1E
  0
BLOCK_RECORD
  5
23
330
1
100
AcDbSymbolTableRecord
100
AcDbBlockTableRecord
  2
*Paper_Space0
340
26
  0
BLOCK_RECORD
  5
76
330
1
100
AcDbSymbolTableRecord
100
AcDbBlockTableRecord
  2
P_TEXT
340
0
102
{BLKREFS
331
7A
102
}
  0
BLOCK_RECORD
  5
79
330
1
100
AcDbSymbolTableRecord
100
AcDbBlockTableRecord
  2
FRAME
340
0
102
{BLKREFS
331
7D
102
}
  0
BLOCK_RECORD
  5
342
330
1
100
AcDbSymbolTableRecord
100
AcDbBlockTableRecord
  2
*D3
340
0
  0
BLOCK_RECORD
  5
34D
330
1
100
AcDbSymbolTableRecord
100
AcDbBlockTableRecord
  2
_OPEN30
340
0
  0
BLOCK_RECORD
  5
355
330
1
100
AcDbSymbolTableRecord
100
AcDbBlockTableRecord
  2
*D5
340
0
  0
BLOCK_RECORD
  5
362
330
1
100
AcDbSymbolTableRecord
100
AcDbBlockTableRecord
  2
*D6
340
0
  0
BLOCK_RECORD
  5
36F
330
1
100
AcDbSymbolTableRecord
100
AcDbBlockTableRecord
  2
*D7
340
0
  0
BLOCK_RECORD
  5
37E
330
1
100
AcDbSymbolTableRecord
100
AcDbBlockTableRecord
  2
*D8
340
0
  0
BLOCK_RECORD
  5
38B
330
1
100
AcDbSymbolTableRecord
100
AcDbBlockTableRecord
  2
*D9
340
0
  0
BLOCK_RECORD
  5
398
330
1
100
AcDbSymbolTableRecord
100
AcDbBlockTableRecord
  2
*D10
340
0
  0
BLOCK_RECORD
  5
3A7
330
1
100
AcDbSymbolTableRecord
100
AcDbBlockTableRecord
  2
*D11
340
0
  0
BLOCK_RECORD
  5
3B6
330
1
100
AcDbSymbolTableRecord
100
AcDbBlockTableRecord
  2
*D12
340
0
  0
BLOCK_RECORD
  5
3C3
330
1
100
AcDbSymbolTableRecord
100
AcDbBlockTableRecord
  2
*D13
340
0
  0
BLOCK_RECORD
  5
3D0
330
1
100
AcDbSymbolTableRecord
100
AcDbBlockTableRecord
  2
*D14
340
0
  0
BLOCK_RECORD
  5
3DD
330
1
100
AcDbSymbolTableRecord
100
AcDbBlockTableRecord
  2
*D15
340
0
102
{BLKREFS
331
3E5
102
}
  0
ENDTAB
  0
ENDSEC
  0
SECTION
  2
BLOCKS
  0
BLOCK
  5
20
330
1F
100
AcDbEntity
  8
0
100
AcDbBlockBegin
  2
*Model_Space
 70
     0
 10
0.0
 20
0.0
 30
0.0
  3
*Model_Space
  1

  0
ENDBLK
  5
21
330
1F
100
AcDbEntity
  8
0
100
AcDbBlockEnd
  0
BLOCK
  5
1C
330
1B
100
AcDbEntity
 67
     1
  8
0
100
AcDbBlockBegin
  2
*Paper_Space
 70
     0
 10
0.0
 20
0.0
 30
0.0
  3
*Paper_Space
  1

  0
ENDBLK
  5
1D
330
1B
100
AcDbEntity
 67
     1
  8
0
100
AcDbBlockEnd
  0
BLOCK
  5
24
330
23
100
AcDbEntity
  8
0
100
AcDbBlockBegin
  2
*Paper_Space0
 70
     0
 10
0.0
 20
0.0
 30
0.0
  3
*Paper_Space0
  1

  0
ENDBLK
  5
25
330
23
100
AcDbEntity
  8
0
100
AcDbBlockEnd
  0
BLOCK
  5
77
330
76
100
AcDbEntity
  8
0
100
AcDbBlockBegin
  2
P_TEXT
 70
     0
 10
174.0125058212287
 20
-287.0401966390108
 30
0.0
  3
P_TEXT
  1

  0
MTEXT
  5
7F
330
76
100
AcDbEntity
  8
1
 62
     3
100
AcDbMText
 10
89.41250582122873
 20
-285.5401966390108
 30
0.0
 40
2.0
 41
0.0
 71
     5
 72
     1
  1
23/01/24
  7
CONVERTER_11
 73
     1
 44
1.0
  0
MTEXT
  5
81
330
76
100
AcDbEntity
  8
1
 62
     3
100
AcDbMText
 10
89.41250582122873
 20
-280.5401966390108
 30
0.0
 40
3.0
 41
0.0
 71
     5
 72
     1
  1
桶田
  7
CONVERTER_12
 73
     1
 44
1.0
  0
MTEXT
  5
82
330
76
100
AcDbEntity
  8
1
 62
     3
100
AcDbMText
 10
63.41250582122873
 20
-280.5401966390108
 30
0.0
 40
3.0
 41
0.0
 71
     5
 72
     1
  1
近藤
  7
CONVERTER_12
 73
     1
 44
1.0
  0
MTEXT
  5
83
330
76
100
AcDbEntity
  8
1
 62
     3
100
AcDbMText
 10
63.41250582122873
 20
-285.5401966390108
 30
0.0
 40
2.0
 41
0.0
 71
     5
 72
     1
  1
23/01/24
  7
CONVERTER_11
 73
     1
 44
1.0
  0
MTEXT
  5
85
330
76
100
AcDbEntity
  8
1
 62
     3
100
AcDbMText
 10
95.31250582122873
 20
-274.0401966390108
 30
0.0
 40
3.0
 41
0.0
 71
     5
 72
     1
  1
1
  7
CONVERTER_13
 73
     1
 44
1.0
  0
MTEXT
  5
86
330
76
100
AcDbEntity
  8
1
 62
     3
100
AcDbMText
 10
82.51250582122873
 20
-274.0401966390108
 30
0.0
 40
3.0
 41
0.0
 71
     5
 72
     1
  1
2
  7
CONVERTER_13
 73
     1
 44
1.0
  0
MTEXT
  5
87
330
76
100
AcDbEntity
  8
1
 62
     3
100
AcDbMText
 10
37.41250582122873
 20
-285.5401966390108
 30
0.0
 40
2.0
 41
0.0
 71
     5
 72
     1
  1
23/01/23
  7
CONVERTER_11
 73
     1
 44
1.0
  0
MTEXT
  5
88
330
76
100
AcDbEntity
  8
1
 62
     3
100
AcDbMText
 10
11.51250582122873
 20
-285.5401966390108
 30
0.0
 40
2.0
 41
0.0
 71
     5
 72
     1
  1
75/12/10
  7
CONVERTER_11
 73
     1
 44
1.0
  0
MTEXT
  5
89
330
76
100
AcDbEntity
  8
1
 62
     3
100
AcDbMText
 10
11.51250582122873
 20
-280.5401966390108
 30
0.0
 40
3.0
 41
0.0
 71
     5
 72
     1
  1
川田
  7
CONVERTER_12
 73
     1
 44
1.0
  0
MTEXT
  5
8A
330
76
100
AcDbEntity
  8
1
 62
     3
100
AcDbMText
 10
37.41250582122873
 20
-280.5401966390108
 30
0.0
 40
3.0
 41
0.0
 71
     5
 72
     1
  1
森高
  7
CONVERTER_12
 73
     1
 44
1.0
  0
MTEXT
  5
8B
330
76
100
AcDbEntity
  8
1
 62
     3
100
AcDbMText
 10
138.7125058212287
 20
-271.0401966390108
 30
0.0
 40
5.0
 41
0.0
 71
     5
 72
     1
  1
BNC080(R0)(外観図)
  7
CONVERTER_12
 73
     1
 44
1.0
  0
MTEXT
  5
8D
330
76
100
AcDbEntity
  8
1
 62
     3
100
AcDbMText
 10
130.2125058212287
 20
-282.0401966390108
 30
0.0
 40
4.0
 41
0.0
 71
     5
 72
     1
  1
QC02080010
  7
CONVERTER_14
 73
     1
 44
1.0
  0
ENDBLK
  5
78
330
76
100
AcDbEntity
  8
0
100
AcDbBlockEnd
  0
BLOCK
  5
7B
330
79
100
AcDbEntity
  8
0
100
AcDbBlockBegin
  2
FRAME
 70
     0
 10
174.0125058212287
 20
-287.0401966390108
 30
0.0
  3
FRAME
  1

  0
INSERT
  5
7A
330
79
100
AcDbEntity
  8
1
100
AcDbBlockReference
  2
P_TEXT
 10
174.0125058212287
 20
-287.0401966390108
 30
0.0
  0
LINE
  5
8E
330
79
100
AcDbEntity
  8
1
  6
Continuous
 62
     4
100
AcDbLine
 10
-5.98749417877116
 20
-35.94635792058574
 30
0.0
 11
-5.98749417877116
 21
-259.9463579205859
 31
0.0
  0
LINE
  5
8F
102
{ACAD_REACTORS
330
197
102
}
330
79
100
AcDbEntity
  8
1
  6
Continuous
 62
     2
100
AcDbLine
 10
168.5125058212288
 20
-39.74635792058558
 30
0.0
 11
168.3097843378528
 21
-39.85551564240365
 31
0.0
  0
LINE
  5
90
102
{ACAD_REACTORS
330
197
102
}
330
79
100
AcDbEntity
  8
1
  6
Continuous
 62
     2
100
AcDbLine
 10
166.4125058212289
 20
-41.47442123291131
 30
0.0
 11
166.4125058212289
 21
-42.40020407443177
 31
0.0
  0
LINE
  5
91
102
{ACAD_REACTORS
330
197
102
}
330
79
100
AcDbEntity
  8
1
  6
Continuous
 62
     2
100
AcDbLine
 10
166.9742675433085
 20
-40.57464007023503
 30
0.0
 11
166.9384059981937
 21
-40.59395013298916
 31
0.0
  0
LINE
  5
92
102
{ACAD_REACTORS
330
197
102
}
330
79
100
AcDbEntity
  8
1
  6
Continuous
 62
     2
100
AcDbLine
 10
169.7125058212289
 20
-42.40020407443177
 30
0.0
 11
168.1762575853551
 21
-40.76941748558119
 31
0.0
  0
LINE
  5
93
102
{ACAD_REACTORS
330
197
102
}
330
79
100
AcDbEntity
  8
1
  6
Continuous
 62
     2
100
AcDbLine
 10
171.0125058212287
 20
-42.40020407443177
 30
0.0
 11
169.7125058212289
 21
-42.40020407443177
 31
0.0
  0
LINE
  5
94
102
{ACAD_REACTORS
330
197
102
}
330
79
100
AcDbEntity
  8
1
  6
Continuous
 62
     2
100
AcDbLine
 10
168.6703813504666
 20
-39.91394886700738
 30
0.0
 11
171.0125058212287
 21
-42.40020407443177
 31
0.0
  0
LINE
  5
95
102
{ACAD_REACTORS
330
197
102
}
330
79
100
AcDbEntity
  8
1
  6
Continuous
 62
     2
100
AcDbLine
 10
171.0125058212287
 20
-38.40020407443177
 30
0.0
 11
168.5125058212288
 21
-39.74635792058558
 31
0.0
  0
LINE
  5
96
102
{ACAD_REACTORS
330
197
102
}
330
79
100
AcDbEntity
  8
1
  6
Continuous
 62
     2
100
AcDbLine
 10
169.0125058212288
 20
-38.40020407443177
 30
0.0
 11
171.0125058212287
 21
-38.40020407443177
 31
0.0
  0
LINE
  5
97
102
{ACAD_REACTORS
330
197
102
}
330
79
100
AcDbEntity
  8
1
  6
Continuous
 62
     2
100
AcDbLine
 10
166.4125058212289
 20
-39.80020407443175
 30
0.0
 11
169.0125058212288
 21
-38.40020407443177
 31
0.0
  0
LINE
  5
98
102
{ACAD_REACTORS
330
197
102
}
330
79
100
AcDbEntity
  8
1
  6
Continuous
 62
     2
100
AcDbLine
 10
166.4125058212289
 20
-38.40020407443177
 30
0.0
 11
166.4125058212289
 21
-39.80020407443175
 31
0.0
  0
LINE
  5
99
102
{ACAD_REACTORS
330
197
102
}
330
79
100
AcDbEntity
  8
1
  6
Continuous
 62
     2
100
AcDbLine
 10
165.4125058212289
 20
-42.40020407443177
 30
0.0
 11
166.4125058212289
 21
-42.40020407443177
 31
0.0
  0
LINE
  5
9A
102
{ACAD_REACTORS
330
197
102
}
330
79
100
AcDbEntity
  8
1
  6
Continuous
 62
     2
100
AcDbLine
 10
165.4125058212289
 20
-39.20020407443184
 30
0.0
 11
165.4125058212289
 21
-42.40020407443177
 31
0.0
  0
LINE
  5
9B
102
{ACAD_REACTORS
330
197
102
}
330
79
100
AcDbEntity
  8
1
  6
Continuous
 62
     2
100
AcDbLine
 10
162.1125058212288
 20
-39.20020407443184
 30
0.0
 11
165.4125058212289
 21
-39.20020407443184
 31
0.0
  0
LINE
  5
9C
102
{ACAD_REACTORS
330
197
102
}
330
79
100
AcDbEntity
  8
1
  6
Continuous
 62
     2
100
AcDbLine
 10
164.8125058212289
 20
-41.60020407443182
 30
0.0
 11
162.1125058212288
 21
-41.60020407443182
 31
0.0
  0
LINE
  5
9D
102
{ACAD_REACTORS
330
197
102
}
330
79
100
AcDbEntity
  8
1
  6
Continuous
 62
     2
100
AcDbLine
 10
164.8125058212289
 20
-42.40020407443177
 30
0.0
 11
164.8125058212289
 21
-41.60020407443182
 31
0.0
  0
LINE
  5
9E
102
{ACAD_REACTORS
330
197
102
}
330
79
100
AcDbEntity
  8
1
  6
Continuous
 62
     2
100
AcDbLine
 10
161.8125058212289
 20
-38.40020407443177
 30
0.0
 11
166.4125058212289
 21
-38.40020407443177
 31
0.0
  0
LINE
  5
9F
102
{ACAD_REACTORS
330
196
102
}
330
79
100
AcDbEntity
  8
1
  6
Continuous
 62
     2
100
AcDbLine
 10
159.8125058212289
 20
-42.40020407443177
 30
0.0
 11
159.2125058212288
 21
-42.40020407443177
 31
0.0
  0
LINE
  5
A0
102
{ACAD_REACTORS
330
197
102
}
330
79
100
AcDbEntity
  8
1
  6
Continuous
 62
     2
100
AcDbLine
 10
164.8125058212289
 20
-42.40020407443177
 30
0.0
 11
161.8125058212289
 21
-42.40020407443177
 31
0.0
  0
LINE
  5
A1
102
{ACAD_REACTORS
330
196
102
}
330
79
100
AcDbEntity
  8
1
  6
Continuous
 62
     2
100
AcDbLine
 10
158.0125058212288
 20
-40.80020407443175
 30
0.0
 11
156.9725058212289
 21
-39.41353740776509
 31
0.0
  0
LINE
  5
A2
102
{ACAD_REACTORS
330
196
102
}
330
79
100
AcDbEntity
  8
1
  6
Continuous
 62
     2
100
AcDbLine
 10
155.6125058212288
 20
-40.80020407443175
 30
0.0
 11
158.0125058212288
 21
-40.80020407443175
 31
0.0
  0
LINE
  5
A3
102
{ACAD_REACTORS
330
196
102
}
330
79
100
AcDbEntity
  8
1
  6
Continuous
 62
     2
100
AcDbLine
 10
156.6525058212288
 20
-39.41353740776509
 30
0.0
 11
155.6125058212288
 21
-40.80020407443175
 31
0.0
  0
LINE
  5
A4
102
{ACAD_REACTORS
330
196
102
}
330
79
100
AcDbEntity
  8
1
  6
Continuous
 62
     2
100
AcDbLine
 10
154.4125058212289
 20
-42.40020407443177
 30
0.0
 11
153.4125058212289
 21
-42.40020407443177
 31
0.0
  0
LINE
  5
A5
102
{ACAD_REACTORS
330
196
102
}
330
79
100
AcDbEntity
  8
1
  6
Continuous
 62
     2
100
AcDbLine
 10
154.9375058212289
 20
-41.70020407443184
 30
0.0
 11
154.4125058212289
 21
-42.40020407443177
 31
0.0
  0
LINE
  5
A6
102
{ACAD_REACTORS
330
196
102
}
330
79
100
AcDbEntity
  8
1
  6
Continuous
 62
     2
100
AcDbLine
 10
158.6875058212289
 20
-41.70020407443184
 30
0.0
 11
154.9375058212289
 21
-41.70020407443184
 31
0.0
  0
LINE
  5
A7
102
{ACAD_REACTORS
330
196
102
}
330
79
100
AcDbEntity
  8
1
  6
Continuous
 62
     2
100
AcDbLine
 10
159.2125058212288
 20
-42.40020407443177
 30
0.0
 11
158.6875058212289
 21
-41.70020407443184
 31
0.0
  0
LINE
  5
A8
102
{ACAD_REACTORS
330
196
102
}
330
79
100
AcDbEntity
  8
1
  6
Continuous
 62
     2
100
AcDbLine
 10
160.2125058212288
 20
-42.40020407443177
 30
0.0
 11
159.8125058212289
 21
-42.40020407443177
 31
0.0
  0
LINE
  5
A9
102
{ACAD_REACTORS
330
196
102
}
330
79
100
AcDbEntity
  8
1
  6
Continuous
 62
     2
100
AcDbLine
 10
157.4525058212288
 20
-38.72020407443182
 30
0.0
 11
160.2125058212288
 21
-42.40020407443177
 31
0.0
  0
LINE
  5
AA
102
{ACAD_REACTORS
330
196
102
}
330
79
100
AcDbEntity
  8
1
  6
Continuous
 62
     2
100
AcDbLine
 10
153.4125058212289
 20
-42.40020407443177
 30
0.0
 11
156.1725058212288
 21
-38.72020407443182
 31
0.0
  0
LINE
  5
AB
102
{ACAD_REACTORS
330
195
102
}
330
79
100
AcDbEntity
  8
1
  6
Continuous
 62
     2
100
AcDbLine
 10
155.0125058212288
 20
-39.20020407443184
 30
0.0
 11
154.3125058212289
 21
-39.20020407443184
 31
0.0
  0
LINE
  5
AC
102
{ACAD_REACTORS
330
195
102
}
330
79
100
AcDbEntity
  8
1
  6
Continuous
 62
     2
100
AcDbLine
 10
155.0125058212288
 20
-38.40020407443177
 30
0.0
 11
155.0125058212288
 21
-39.20020407443184
 31
0.0
  0
LINE
  5
AD
102
{ACAD_REACTORS
330
195
102
}
330
79
100
AcDbEntity
  8
1
  6
Continuous
 62
     2
100
AcDbLine
 10
154.3125058212289
 20
-38.40020407443177
 30
0.0
 11
155.0125058212288
 21
-38.40020407443177
 31
0.0
  0
LINE
  5
AE
102
{ACAD_REACTORS
330
195
102
}
330
79
100
AcDbEntity
  8
1
  6
Continuous
 62
     2
100
AcDbLine
 10
151.5125058212288
 20
-42.40020407443177
 30
0.0
 11
152.6125058212288
 21
-42.40020407443177
 31
0.0
  0
LINE
  5
AF
102
{ACAD_REACTORS
330
195
102
}
330
79
100
AcDbEntity
  8
1
  6
Continuous
 62
     2
100
AcDbLine
 10
151.5125058212288
 20
-39.20020407443184
 30
0.0
 11
151.5125058212288
 21
-42.40020407443177
 31
0.0
  0
LINE
  5
B0
102
{ACAD_REACTORS
330
195
102
}
330
79
100
AcDbEntity
  8
1
  6
Continuous
 62
     2
100
AcDbLine
 10
146.4125058212289
 20
-39.20020407443184
 30
0.0
 11
151.5125058212288
 21
-39.20020407443184
 31
0.0
  0
LINE
  5
B1
102
{ACAD_REACTORS
330
195
102
}
330
79
100
AcDbEntity
  8
1
  6
Continuous
 62
     2
100
AcDbLine
 10
149.2125058212288
 20
-40.00020407443179
 30
0.0
 11
146.4125058212289
 21
-40.00020407443179
 31
0.0
  0
LINE
  5
B2
102
{ACAD_REACTORS
330
195
102
}
330
79
100
AcDbEntity
  8
1
  6
Continuous
 62
     2
100
AcDbLine
 10
145.0125058212288
 20
-42.40020407443177
 30
0.0
 11
149.2125058212288
 21
-42.40020407443177
 31
0.0
  0
LINE
  5
B3
102
{ACAD_REACTORS
330
195
102
}
330
79
100
AcDbEntity
  8
1
  6
Continuous
 62
     2
100
AcDbLine
 10
145.0125058212288
 20
-41.60020407443182
 30
0.0
 11
145.0125058212288
 21
-42.40020407443177
 31
0.0
  0
LINE
  5
B4
102
{ACAD_REACTORS
330
195
102
}
330
79
100
AcDbEntity
  8
1
  6
Continuous
 62
     2
100
AcDbLine
 10
149.0125058212288
 20
-41.60020407443182
 30
0.0
 11
145.0125058212288
 21
-41.60020407443182
 31
0.0
  0
LINE
  5
B5
102
{ACAD_REACTORS
330
195
102
}
330
79
100
AcDbEntity
  8
1
  6
Continuous
 62
     2
100
AcDbLine
 10
146.2125058212288
 20
-40.80020407443175
 30
0.0
 11
149.0125058212288
 21
-40.80020407443175
 31
0.0
  0
LINE
  5
B6
102
{ACAD_REACTORS
330
195
102
}
330
79
100
AcDbEntity
  8
1
  6
Continuous
 62
     2
100
AcDbLine
 10
154.3125058212289
 20
-38.40020407443177
 30
0.0
 11
146.2125058212288
 21
-38.40020407443177
 31
0.0
  0
LINE
  5
B7
102
{ACAD_REACTORS
330
195
102
}
330
79
100
AcDbEntity
  8
1
  6
Continuous
 62
     2
100
AcDbLine
 10
152.6125058212288
 20
-39.20020407443184
 30
0.0
 11
154.3125058212289
 21
-39.20020407443184
 31
0.0
  0
LINE
  5
B8
102
{ACAD_REACTORS
330
195
102
}
330
79
100
AcDbEntity
  8
1
  6
Continuous
 62
     2
100
AcDbLine
 10
152.6125058212288
 20
-42.40020407443177
 30
0.0
 11
152.6125058212288
 21
-39.20020407443184
 31
0.0
  0
LINE
  5
B9
330
79
100
AcDbEntity
  8
1
  6
Continuous
 62
     4
100
AcDbLine
 10
174.0125058212287
 20
-276.9463579205859
 30
0.0
 11
174.0125058212287
 21
-264.9463579205859
 31
0.0
  0
LINE
  5
BA
330
79
100
AcDbEntity
  8
1
  6
Continuous
 62
     7
100
AcDbLine
 10
-5.98749417877116
 20
-276.9463579205859
 30
0.0
 11
3.01250582122884
 21
-276.9463579205859
 31
0.0
  0
LINE
  5
BB
330
79
100
AcDbEntity
  8
1
  6
Continuous
 62
     4
100
AcDbLine
 10
174.0125058212287
 20
-264.9463579205859
 30
0.0
 11
174.0125058212287
 21
-259.9463579205859
 31
0.0
  0
LINE
  5
BC
330
79
100
AcDbEntity
  8
1
  6
Continuous
 62
     7
100
AcDbLine
 10
-5.98749417877116
 20
-264.9463579205859
 30
0.0
 11
3.01250582122884
 21
-264.9463579205859
 31
0.0
  0
LINE
  5
BD
330
79
100
AcDbEntity
  8
1
  6
Continuous
 62
     4
100
AcDbLine
 10
174.0125058212287
 20
-254.9463579205859
 30
0.0
 11
174.0125058212287
 21
-35.94635792058574
 31
0.0
  0
LINE
  5
BE
330
79
100
AcDbEntity
  8
1
  6
Continuous
 62
     7
100
AcDbLine
 10
-5.98749417877116
 20
-254.9463579205859
 30
0.0
 11
3.01250582122884
 21
-254.9463579205859
 31
0.0
  0
LINE
  5
BF
330
79
100
AcDbEntity
  8
1
  6
Continuous
 62
     4
100
AcDbLine
 10
-5.98749417877116
 20
-286.9463579205859
 30
0.0
 11
3.01250582122884
 21
-286.9463579205859
 31
0.0
  0
LINE
  5
C0
330
79
100
AcDbEntity
  8
1
  6
Continuous
 62
     4
100
AcDbLine
 10
174.0125058212287
 20
-35.94635792058574
 30
0.0
 11
-5.98749417877116
 21
-35.94635792058574
 31
0.0
  0
LINE
  5
C1
330
79
100
AcDbEntity
  8
1
  6
Continuous
 62
     4
100
AcDbLine
 10
174.0125058212287
 20
-286.9463579205859
 30
0.0
 11
174.0125058212287
 21
-276.9463579205859
 31
0.0
  0
LINE
  5
C2
330
79
100
AcDbEntity
  8
1
  6
Continuous
 62
     7
100
AcDbLine
 10
99.01250582122884
 20
-264.9463579205859
 30
0.0
 11
99.01250582122884
 21
-270.9463579205859
 31
0.0
  0
LINE
  5
C3
330
79
100
AcDbEntity
  8
1
  6
Continuous
 62
     7
100
AcDbLine
 10
99.01250582122884
 20
-264.9463579205859
 30
0.0
 11
104.0125058212288
 21
-264.9463579205859
 31
0.0
  0
LINE
  5
C4
330
79
100
AcDbEntity
  8
1
  6
Continuous
 62
     4
100
AcDbLine
 10
99.01250582122884
 20
-286.9463579205859
 30
0.0
 11
174.0125058212287
 21
-286.9463579205859
 31
0.0
  0
LINE
  5
C5
330
79
100
AcDbEntity
  8
1
  6
Continuous
 62
     2
100
AcDbLine
 10
-5.98749417877116
 20
-259.9463579205859
 30
0.0
 11
174.0125058212287
 21
-259.9463579205859
 31
0.0
  0
LINE
  5
C6
330
79
100
AcDbEntity
  8
1
  6
Continuous
 62
     4
100
AcDbLine
 10
174.0125058212287
 20
-259.9463579205859
 30
0.0
 11
174.0125058212287
 21
-254.9463579205859
 31
0.0
  0
LINE
  5
C7
330
79
100
AcDbEntity
  8
1
  6
Continuous
 62
     2
100
AcDbLine
 10
152.0125058212288
 20
-254.9463579205859
 30
0.0
 11
152.0125058212288
 21
-264.9463579205859
 31
0.0
  0
LINE
  5
C8
330
79
100
AcDbEntity
  8
1
  6
Continuous
 62
     2
100
AcDbLine
 10
152.0125058212288
 20
-254.9463579205859
 30
0.0
 11
174.0125058212287
 21
-254.9463579205859
 31
0.0
  0
LINE
  5
C9
330
79
100
AcDbEntity
  8
1
  6
Continuous
 62
     7
100
AcDbLine
 10
152.0125058212288
 20
-264.9463579205859
 30
0.0
 11
174.0125058212287
 21
-264.9463579205859
 31
0.0
  0
LINE
  5
CA
330
79
100
AcDbEntity
  8
1
  6
Continuous
 62
     2
100
AcDbLine
 10
144.0125058212288
 20
-254.9463579205859
 30
0.0
 11
144.0125058212288
 21
-264.9463579205859
 31
0.0
  0
LINE
  5
CB
330
79
100
AcDbEntity
  8
1
  6
Continuous
 62
     2
100
AcDbLine
 10
144.0125058212288
 20
-254.9463579205859
 30
0.0
 11
152.0125058212288
 21
-254.9463579205859
 31
0.0
  0
LINE
  5
CC
330
79
100
AcDbEntity
  8
1
  6
Continuous
 62
     7
100
AcDbLine
 10
144.0125058212288
 20
-264.9463579205859
 30
0.0
 11
152.0125058212288
 21
-264.9463579205859
 31
0.0
  0
LINE
  5
CD
330
79
100
AcDbEntity
  8
1
  6
Continuous
 62
     2
100
AcDbLine
 10
132.0125058212288
 20
-254.9463579205859
 30
0.0
 11
132.0125058212288
 21
-264.9463579205859
 31
0.0
  0
LINE
  5
CE
330
79
100
AcDbEntity
  8
1
  6
Continuous
 62
     2
100
AcDbLine
 10
132.0125058212288
 20
-254.9463579205859
 30
0.0
 11
144.0125058212288
 21
-254.9463579205859
 31
0.0
  0
LINE
  5
CF
330
79
100
AcDbEntity
  8
1
  6
Continuous
 62
     7
100
AcDbLine
 10
132.0125058212288
 20
-264.9463579205859
 30
0.0
 11
144.0125058212288
 21
-264.9463579205859
 31
0.0
  0
LINE
  5
D0
330
79
100
AcDbEntity
  8
1
  6
Continuous
 62
     2
100
AcDbLine
 10
104.0125058212288
 20
-254.9463579205859
 30
0.0
 11
104.0125058212288
 21
-264.9463579205859
 31
0.0
  0
LINE
  5
D1
330
79
100
AcDbEntity
  8
1
  6
Continuous
 62
     2
100
AcDbLine
 10
104.0125058212288
 20
-254.9463579205859
 30
0.0
 11
132.0125058212288
 21
-254.9463579205859
 31
0.0
  0
LINE
  5
D2
330
79
100
AcDbEntity
  8
1
  6
Continuous
 62
     7
100
AcDbLine
 10
104.0125058212288
 20
-264.9463579205859
 30
0.0
 11
132.0125058212288
 21
-264.9463579205859
 31
0.0
  0
LINE
  5
D3
330
79
100
AcDbEntity
  8
1
  6
Continuous
 62
     2
100
AcDbLine
 10
74.01250582122884
 20
-254.9463579205859
 30
0.0
 11
74.01250582122884
 21
-264.9463579205859
 31
0.0
  0
LINE
  5
D4
330
79
100
AcDbEntity
  8
1
  6
Continuous
 62
     2
100
AcDbLine
 10
74.01250582122884
 20
-254.9463579205859
 30
0.0
 11
104.0125058212288
 21
-254.9463579205859
 31
0.0
  0
LINE
  5
D5
330
79
100
AcDbEntity
  8
1
  6
Continuous
 62
     7
100
AcDbLine
 10
74.01250582122884
 20
-264.9463579205859
 30
0.0
 11
99.01250582122884
 21
-264.9463579205859
 31
0.0
  0
LINE
  5
D6
330
79
100
AcDbEntity
  8
1
  6
Continuous
 62
     7
100
AcDbLine
 10
66.01250582122884
 20
-254.9463579205859
 30
0.0
 11
66.01250582122884
 21
-264.9463579205859
 31
0.0
  0
LINE
  5
D7
330
79
100
AcDbEntity
  8
1
  6
Continuous
 62
     2
100
AcDbLine
 10
66.01250582122884
 20
-254.9463579205859
 30
0.0
 11
74.01250582122884
 21
-254.9463579205859
 31
0.0
  0
LINE
  5
D8
330
79
100
AcDbEntity
  8
1
  6
Continuous
 62
     7
100
AcDbLine
 10
66.01250582122884
 20
-264.9463579205859
 30
0.0
 11
74.01250582122884
 21
-264.9463579205859
 31
0.0
  0
LINE
  5
D9
330
79
100
AcDbEntity
  8
1
  6
Continuous
 62
     2
100
AcDbLine
 10
58.01250582122884
 20
-254.9463579205859
 30
0.0
 11
58.01250582122884
 21
-264.9463579205859
 31
0.0
  0
LINE
  5
DA
330
79
100
AcDbEntity
  8
1
  6
Continuous
 62
     7
100
AcDbLine
 10
58.01250582122884
 20
-254.9463579205859
 30
0.0
 11
66.01250582122884
 21
-254.9463579205859
 31
0.0
  0
LINE
  5
DB
330
79
100
AcDbEntity
  8
1
  6
Continuous
 62
     7
100
AcDbLine
 10
58.01250582122884
 20
-264.9463579205859
 30
0.0
 11
66.01250582122884
 21
-264.9463579205859
 31
0.0
  0
LINE
  5
DC
330
79
100
AcDbEntity
  8
1
  6
Continuous
 62
     2
100
AcDbLine
 10
3.01250582122884
 20
-254.9463579205859
 30
0.0
 11
3.01250582122884
 21
-264.9463579205859
 31
0.0
  0
LINE
  5
DD
330
79
100
AcDbEntity
  8
1
  6
Continuous
 62
     7
100
AcDbLine
 10
3.01250582122884
 20
-254.9463579205859
 30
0.0
 11
17.01250582122884
 21
-254.9463579205859
 31
0.0
  0
LINE
  5
DE
330
79
100
AcDbEntity
  8
1
  6
Continuous
 62
     7
100
AcDbLine
 10
3.01250582122884
 20
-264.9463579205859
 30
0.0
 11
17.01250582122884
 21
-264.9463579205859
 31
0.0
  0
LINE
  5
DF
330
79
100
AcDbEntity
  8
1
  6
Continuous
 62
     2
100
AcDbLine
 10
17.01250582122884
 20
-254.9463579205859
 30
0.0
 11
17.01250582122884
 21
-264.9463579205859
 31
0.0
  0
LINE
  5
E0
330
79
100
AcDbEntity
  8
1
  6
Continuous
 62
     7
100
AcDbLine
 10
17.01250582122884
 20
-254.9463579205859
 30
0.0
 11
58.01250582122884
 21
-254.9463579205859
 31
0.0
  0
LINE
  5
E1
330
79
100
AcDbEntity
  8
1
  6
Continuous
 62
     7
100
AcDbLine
 10
99.01250582122884
 20
-270.9463579205859
 30
0.0
 11
99.01250582122884
 21
-286.9463579205859
 31
0.0
  0
LINE
  5
E2
330
79
100
AcDbEntity
  8
1
  6
Continuous
 62
     7
100
AcDbLine
 10
17.01250582122884
 20
-264.9463579205859
 30
0.0
 11
58.01250582122884
 21
-264.9463579205859
 31
0.0
  0
LINE
  5
E3
330
79
100
AcDbEntity
  8
1
  6
Continuous
 62
     7
100
AcDbLine
 10
81.01250582122884
 20
-276.9463579205859
 30
0.0
 11
81.01250582122884
 21
-286.9463579205859
 31
0.0
  0
LINE
  5
E4
330
79
100
AcDbEntity
  8
1
  6
Continuous
 62
     7
100
AcDbLine
 10
81.01250582122884
 20
-276.9463579205859
 30
0.0
 11
174.0125058212287
 21
-276.9463579205859
 31
0.0
  0
LINE
  5
E5
330
79
100
AcDbEntity
  8
1
  6
Continuous
 62
     4
100
AcDbLine
 10
81.01250582122884
 20
-286.9463579205859
 30
0.0
 11
99.01250582122884
 21
-286.9463579205859
 31
0.0
  0
LINE
  5
E6
330
79
100
AcDbEntity
  8
1
  6
Continuous
 62
     7
100
AcDbLine
 10
72.01250582122884
 20
-276.9463579205859
 30
0.0
 11
72.01250582122884
 21
-286.9463579205859
 31
0.0
  0
LINE
  5
E7
330
79
100
AcDbEntity
  8
1
  6
Continuous
 62
     7
100
AcDbLine
 10
72.01250582122884
 20
-276.9463579205859
 30
0.0
 11
81.01250582122884
 21
-276.9463579205859
 31
0.0
  0
LINE
  5
E8
330
79
100
AcDbEntity
  8
1
  6
Continuous
 62
     4
100
AcDbLine
 10
72.01250582122884
 20
-286.9463579205859
 30
0.0
 11
81.01250582122884
 21
-286.9463579205859
 31
0.0
  0
LINE
  5
E9
330
79
100
AcDbEntity
  8
1
  6
Continuous
 62
     7
100
AcDbLine
 10
55.01250582122884
 20
-276.9463579205859
 30
0.0
 11
55.01250582122884
 21
-286.9463579205859
 31
0.0
  0
LINE
  5
EA
330
79
100
AcDbEntity
  8
1
  6
Continuous
 62
     7
100
AcDbLine
 10
55.01250582122884
 20
-276.9463579205859
 30
0.0
 11
64.01250582122884
 21
-276.9463579205859
 31
0.0
  0
LINE
  5
EB
330
79
100
AcDbEntity
  8
1
  6
Continuous
 62
     4
100
AcDbLine
 10
55.01250582122884
 20
-286.9463579205859
 30
0.0
 11
72.01250582122884
 21
-286.9463579205859
 31
0.0
  0
LINE
  5
EC
330
79
100
AcDbEntity
  8
1
  6
Continuous
 62
     7
100
AcDbLine
 10
46.01250582122884
 20
-276.9463579205859
 30
0.0
 11
46.01250582122884
 21
-286.9463579205859
 31
0.0
  0
LINE
  5
ED
330
79
100
AcDbEntity
  8
1
  6
Continuous
 62
     7
100
AcDbLine
 10
46.01250582122884
 20
-276.9463579205859
 30
0.0
 11
55.01250582122884
 21
-276.9463579205859
 31
0.0
  0
LINE
  5
EE
330
79
100
AcDbEntity
  8
1
  6
Continuous
 62
     4
100
AcDbLine
 10
46.01250582122884
 20
-286.9463579205859
 30
0.0
 11
55.01250582122884
 21
-286.9463579205859
 31
0.0
  0
LINE
  5
EF
330
79
100
AcDbEntity
  8
1
  6
Continuous
 62
     7
100
AcDbLine
 10
29.01250582122884
 20
-276.9463579205859
 30
0.0
 11
29.01250582122884
 21
-286.9463579205859
 31
0.0
  0
LINE
  5
F0
330
79
100
AcDbEntity
  8
1
  6
Continuous
 62
     7
100
AcDbLine
 10
29.01250582122884
 20
-276.9463579205859
 30
0.0
 11
46.01250582122884
 21
-276.9463579205859
 31
0.0
  0
LINE
  5
F1
330
79
100
AcDbEntity
  8
1
  6
Continuous
 62
     4
100
AcDbLine
 10
29.01250582122884
 20
-286.9463579205859
 30
0.0
 11
46.01250582122884
 21
-286.9463579205859
 31
0.0
  0
LINE
  5
F2
330
79
100
AcDbEntity
  8
1
  6
Continuous
 62
     7
100
AcDbLine
 10
20.01250582122884
 20
-276.9463579205859
 30
0.0
 11
20.01250582122884
 21
-286.9463579205859
 31
0.0
  0
LINE
  5
F3
330
79
100
AcDbEntity
  8
1
  6
Continuous
 62
     7
100
AcDbLine
 10
20.01250582122884
 20
-276.9463579205859
 30
0.0
 11
29.01250582122884
 21
-276.9463579205859
 31
0.0
  0
LINE
  5
F4
330
79
100
AcDbEntity
  8
1
  6
Continuous
 62
     4
100
AcDbLine
 10
20.01250582122884
 20
-286.9463579205859
 30
0.0
 11
29.01250582122884
 21
-286.9463579205859
 31
0.0
  0
LINE
  5
F5
330
79
100
AcDbEntity
  8
1
  6
Continuous
 62
     7
100
AcDbLine
 10
3.01250582122884
 20
-276.9463579205859
 30
0.0
 11
3.01250582122884
 21
-286.9463579205859
 31
0.0
  0
LINE
  5
F6
330
79
100
AcDbEntity
  8
1
  6
Continuous
 62
     7
100
AcDbLine
 10
3.01250582122884
 20
-276.9463579205859
 30
0.0
 11
20.01250582122884
 21
-276.9463579205859
 31
0.0
  0
LINE
  5
F7
330
79
100
AcDbEntity
  8
1
  6
Continuous
 62
     4
100
AcDbLine
 10
3.01250582122884
 20
-286.9463579205859
 30
0.0
 11
20.01250582122884
 21
-286.9463579205859
 31
0.0
  0
LINE
  5
F8
330
79
100
AcDbEntity
  8
1
  6
Continuous
 62
     2
100
AcDbLine
 10
29.01250582122884
 20
-276.9463579205859
 30
0.0
 11
29.01250582122884
 21
-270.9463579205859
 31
0.0
  0
LINE
  5
F9
330
79
100
AcDbEntity
  8
1
  6
Continuous
 62
     2
100
AcDbLine
 10
29.01250582122884
 20
-270.9463579205859
 30
0.0
 11
64.01250582122884
 21
-270.9463579205859
 31
0.0
  0
LINE
  5
FA
330
79
100
AcDbEntity
  8
1
  6
Continuous
 62
     2
100
AcDbLine
 10
64.01250582122884
 20
-270.9463579205859
 30
0.0
 11
64.01250582122884
 21
-276.9463579205859
 31
0.0
  0
LINE
  5
FB
330
79
100
AcDbEntity
  8
1
  6
Continuous
 62
     2
100
AcDbLine
 10
64.01250582122884
 20
-270.9463579205859
 30
0.0
 11
99.01250582122884
 21
-270.9463579205859
 31
0.0
  0
LINE
  5
FC
330
79
100
AcDbEntity
  8
1
  6
Continuous
 62
     7
100
AcDbLine
 10
64.01250582122884
 20
-276.9463579205859
 30
0.0
 11
72.01250582122884
 21
-276.9463579205859
 31
0.0
  0
LINE
  5
FD
330
79
100
AcDbEntity
  8
1
  6
Continuous
 62
     2
100
AcDbLine
 10
3.01250582122884
 20
-264.9463579205859
 30
0.0
 11
3.01250582122884
 21
-270.9463579205859
 31
0.0
  0
LINE
  5
FE
330
79
100
AcDbEntity
  8
1
  6
Continuous
 62
     2
100
AcDbLine
 10
3.01250582122884
 20
-270.9463579205859
 30
0.0
 11
29.01250582122884
 21
-270.9463579205859
 31
0.0
  0
LINE
  5
FF
330
79
100
AcDbEntity
  8
1
  6
Continuous
 62
     2
100
AcDbLine
 10
91.69762507581754
 20
-272.1554100033948
 30
0.0
 11
86.16298367197555
 21
-275.9536933197568
 31
0.0
  0
LINE
  5
100
330
79
100
AcDbEntity
  8
1
  6
Continuous
 62
     2
100
AcDbLine
 10
4.49615301184804
 20
-283.9463579205859
 30
0.0
 11
18.47824787378647
 21
-283.9463579205859
 31
0.0
  0
LINE
  5
101
330
79
100
AcDbEntity
  8
1
  6
Continuous
 62
     2
100
AcDbLine
 10
30.65231322771558
 20
-283.9463579205859
 30
0.0
 11
44.27280218805208
 21
-283.9463579205859
 31
0.0
  0
LINE
  5
102
330
79
100
AcDbEntity
  8
1
  6
Continuous
 62
     2
100
AcDbLine
 10
56.80847344358301
 20
-283.9463579205859
 30
0.0
 11
70.18789180285171
 21
-283.9463579205859
 31
0.0
  0
LINE
  5
103
330
79
100
AcDbEntity
  8
1
  6
Continuous
 62
     2
100
AcDbLine
 10
83.08516895998457
 20
-283.9463579205859
 30
0.0
 11
97.067263821923
 21
-283.9463579205859
 31
0.0
  0
LINE
  5
104
330
79
100
AcDbEntity
  8
1
  6
Continuous
 62
     2
100
AcDbLine
 10
50.01250582122884
 20
-254.9463579205859
 30
0.0
 11
50.01250582122884
 21
-264.9463579205859
 31
0.0
  0
LINE
  5
105
330
79
100
AcDbEntity
  8
1
  6
Continuous
 62
     4
100
AcDbLine
 10
-5.98749417877116
 20
-259.9463579205859
 30
0.0
 11
-5.98749417877116
 21
-270.9463579205859
 31
0.0
  0
LINE
  5
106
330
79
100
AcDbEntity
  8
1
  6
Continuous
 62
     2
100
AcDbLine
 10
-5.98749417877116
 20
-270.9463579205859
 30
0.0
 11
3.01250582122884
 21
-270.9463579205859
 31
0.0
  0
LINE
  5
107
330
79
100
AcDbEntity
  8
1
  6
Continuous
 62
     4
100
AcDbLine
 10
-5.98749417877116
 20
-270.9463579205859
 30
0.0
 11
-5.98749417877116
 21
-286.9463579205859
 31
0.0
  0
LINE
  5
108
330
79
100
AcDbEntity
  8
1
  6
Continuous
 62
     7
100
AcDbLine
 10
132.0125058212288
 20
-234.9463579205859
 30
0.0
 11
144.0125058212288
 21
-234.9463579205859
 31
0.0
  0
LINE
  5
109
330
79
100
AcDbEntity
  8
1
  6
Continuous
 62
     7
100
AcDbLine
 10
104.0125058212288
 20
-234.9463579205859
 30
0.0
 11
132.0125058212288
 21
-234.9463579205859
 31
0.0
  0
LINE
  5
10A
330
79
100
AcDbEntity
  8
1
  6
Continuous
 62
     7
100
AcDbLine
 10
66.01250582122884
 20
-234.9463579205859
 30
0.0
 11
74.01250582122884
 21
-234.9463579205859
 31
0.0
  0
LINE
  5
10B
330
79
100
AcDbEntity
  8
1
  6
Continuous
 62
     7
100
AcDbLine
 10
144.0125058212288
 20
-234.9463579205859
 30
0.0
 11
152.0125058212288
 21
-234.9463579205859
 31
0.0
  0
LINE
  5
10C
330
79
100
AcDbEntity
  8
1
  6
Continuous
 62
     7
100
AcDbLine
 10
152.0125058212288
 20
-234.9463579205859
 30
0.0
 11
174.0125058212287
 21
-234.9463579205859
 31
0.0
  0
LINE
  5
10D
330
79
100
AcDbEntity
  8
1
  6
Continuous
 62
     7
100
AcDbLine
 10
66.01250582122884
 20
-234.9463579205859
 30
0.0
 11
66.01250582122884
 21
-254.9463579205859
 31
0.0
  0
LINE
  5
10E
330
79
100
AcDbEntity
  8
1
  6
Continuous
 62
     2
100
AcDbLine
 10
104.0125058212288
 20
-254.9463579205859
 30
0.0
 11
104.0125058212288
 21
-234.9463579205859
 31
0.0
  0
LINE
  5
10F
330
79
100
AcDbEntity
  8
1
  6
Continuous
 62
     2
100
AcDbLine
 10
132.0125058212288
 20
-254.9463579205859
 30
0.0
 11
132.0125058212288
 21
-234.9463579205859
 31
0.0
  0
LINE
  5
110
330
79
100
AcDbEntity
  8
1
  6
Continuous
 62
     2
100
AcDbLine
 10
144.0125058212288
 20
-254.9463579205859
 30
0.0
 11
144.0125058212288
 21
-234.9463579205859
 31
0.0
  0
LINE
  5
111
330
79
100
AcDbEntity
  8
1
  6
Continuous
 62
     2
100
AcDbLine
 10
152.0125058212288
 20
-254.9463579205859
 30
0.0
 11
152.0125058212288
 21
-234.9463579205859
 31
0.0
  0
LINE
  5
112
330
79
100
AcDbEntity
  8
1
  6
Continuous
 62
     2
100
AcDbLine
 10
66.01250582122884
 20
-249.9463579205859
 30
0.0
 11
74.01250582122884
 21
-249.9463579205859
 31
0.0
  0
LINE
  5
113
330
79
100
AcDbEntity
  8
1
  6
Continuous
 62
     2
100
AcDbLine
 10
74.01250582122884
 20
-249.9463579205859
 30
0.0
 11
104.0125058212288
 21
-249.9463579205859
 31
0.0
  0
LINE
  5
114
330
79
100
AcDbEntity
  8
1
  6
Continuous
 62
     2
100
AcDbLine
 10
104.0125058212288
 20
-249.9463579205859
 30
0.0
 11
132.0125058212288
 21
-249.9463579205859
 31
0.0
  0
LINE
  5
115
330
79
100
AcDbEntity
  8
1
  6
Continuous
 62
     2
100
AcDbLine
 10
132.0125058212288
 20
-249.9463579205859
 30
0.0
 11
144.0125058212288
 21
-249.9463579205859
 31
0.0
  0
LINE
  5
116
330
79
100
AcDbEntity
  8
1
  6
Continuous
 62
     2
100
AcDbLine
 10
144.0125058212288
 20
-249.9463579205859
 30
0.0
 11
152.0125058212288
 21
-249.9463579205859
 31
0.0
  0
LINE
  5
117
330
79
100
AcDbEntity
  8
1
  6
Continuous
 62
     2
100
AcDbLine
 10
152.0125058212288
 20
-249.9463579205859
 30
0.0
 11
174.0125058212287
 21
-249.9463579205859
 31
0.0
  0
LINE
  5
118
330
79
100
AcDbEntity
  8
1
  6
Continuous
 62
     2
100
AcDbLine
 10
152.0125058212288
 20
-244.9463579205859
 30
0.0
 11
174.0125058212287
 21
-244.9463579205859
 31
0.0
  0
LINE
  5
119
330
79
100
AcDbEntity
  8
1
  6
Continuous
 62
     2
100
AcDbLine
 10
144.0125058212288
 20
-244.9463579205859
 30
0.0
 11
152.0125058212288
 21
-244.9463579205859
 31
0.0
  0
LINE
  5
11A
330
79
100
AcDbEntity
  8
1
  6
Continuous
 62
     2
100
AcDbLine
 10
74.01250582122884
 20
-244.9463579205859
 30
0.0
 11
104.0125058212288
 21
-244.9463579205859
 31
0.0
  0
LINE
  5
11B
330
79
100
AcDbEntity
  8
1
  6
Continuous
 62
     2
100
AcDbLine
 10
66.01250582122884
 20
-244.9463579205859
 30
0.0
 11
74.01250582122884
 21
-244.9463579205859
 31
0.0
  0
LINE
  5
11C
330
79
100
AcDbEntity
  8
1
  6
Continuous
 62
     2
100
AcDbLine
 10
66.01250582122884
 20
-239.9463579205859
 30
0.0
 11
74.01250582122884
 21
-239.9463579205859
 31
0.0
  0
LINE
  5
11D
330
79
100
AcDbEntity
  8
1
  6
Continuous
 62
     2
100
AcDbLine
 10
74.01250582122884
 20
-239.9463579205859
 30
0.0
 11
104.0125058212288
 21
-239.9463579205859
 31
0.0
  0
LINE
  5
11E
330
79
100
AcDbEntity
  8
1
  6
Continuous
 62
     2
100
AcDbLine
 10
104.0125058212288
 20
-239.9463579205859
 30
0.0
 11
132.0125058212288
 21
-239.9463579205859
 31
0.0
  0
LINE
  5
11F
330
79
100
AcDbEntity
  8
1
  6
Continuous
 62
     2
100
AcDbLine
 10
132.0125058212288
 20
-239.9463579205859
 30
0.0
 11
144.0125058212288
 21
-239.9463579205859
 31
0.0
  0
LINE
  5
120
330
79
100
AcDbEntity
  8
1
  6
Continuous
 62
     2
100
AcDbLine
 10
144.0125058212288
 20
-239.9463579205859
 30
0.0
 11
152.0125058212288
 21
-239.9463579205859
 31
0.0
  0
LINE
  5
121
330
79
100
AcDbEntity
  8
1
  6
Continuous
 62
     2
100
AcDbLine
 10
152.0125058212288
 20
-239.9463579205859
 30
0.0
 11
174.0125058212287
 21
-239.9463579205859
 31
0.0
  0
LINE
  5
122
330
79
100
AcDbEntity
  8
1
  6
Continuous
 62
     2
100
AcDbLine
 10
132.0125058212288
 20
-244.9463579205859
 30
0.0
 11
144.0125058212288
 21
-244.9463579205859
 31
0.0
  0
LINE
  5
123
330
79
100
AcDbEntity
  8
1
  6
Continuous
 62
     2
100
AcDbLine
 10
104.0125058212288
 20
-244.9463579205859
 30
0.0
 11
132.0125058212288
 21
-244.9463579205859
 31
0.0
  0
LINE
  5
124
330
79
100
AcDbEntity
  8
1
  6
Continuous
 62
     7
100
AcDbLine
 10
74.01250582122884
 20
-234.9463579205859
 30
0.0
 11
104.0125058212288
 21
-234.9463579205859
 31
0.0
  0
LINE
  5
125
330
79
100
AcDbEntity
  8
1
  6
Continuous
 62
     2
100
AcDbLine
 10
74.01250582122884
 20
-254.9463579205859
 30
0.0
 11
74.01250582122884
 21
-234.9463579205859
 31
0.0
  0
LINE
  5
126
330
79
100
AcDbEntity
  8
1
  6
Continuous
 62
     7
100
AcDbLine
 10
-3.98749417877116
 20
-42.94635792058574
 30
0.0
 11
-3.98749417877116
 21
-47.94635792058574
 31
0.0
  0
LINE
  5
127
330
79
100
AcDbEntity
  8
1
  6
Continuous
 62
     7
100
AcDbLine
 10
-3.98749417877116
 20
-47.94635792058574
 30
0.0
 11
24.01250582122884
 21
-47.94635792058574
 31
0.0
  0
LINE
  5
128
330
79
100
AcDbEntity
  8
1
  6
Continuous
 62
     7
100
AcDbLine
 10
-3.98749417877116
 20
-47.94635792058574
 30
0.0
 11
-3.98749417877116
 21
-52.94635792058574
 31
0.0
  0
LINE
  5
129
330
79
100
AcDbEntity
  8
1
  6
Continuous
 62
     2
100
AcDbLine
 10
-3.98749417877116
 20
-52.94635792058574
 30
0.0
 11
24.01250582122884
 21
-52.94635792058574
 31
0.0
  0
LINE
  5
12A
330
79
100
AcDbEntity
  8
1
  6
Continuous
 62
     7
100
AcDbLine
 10
-3.98749417877116
 20
-52.94635792058574
 30
0.0
 11
-3.98749417877116
 21
-57.94635792058574
 31
0.0
  0
LINE
  5
12B
330
79
100
AcDbEntity
  8
1
  6
Continuous
 62
     2
100
AcDbLine
 10
-3.98749417877116
 20
-57.94635792058574
 30
0.0
 11
24.01250582122884
 21
-57.94635792058574
 31
0.0
  0
LINE
  5
12C
330
79
100
AcDbEntity
  8
1
  6
Continuous
 62
     7
100
AcDbLine
 10
-3.98749417877116
 20
-57.94635792058574
 30
0.0
 11
-3.98749417877116
 21
-62.94635792058574
 31
0.0
  0
LINE
  5
12D
330
79
100
AcDbEntity
  8
1
  6
Continuous
 62
     7
100
AcDbLine
 10
-3.98749417877116
 20
-62.94635792058574
 30
0.0
 11
24.01250582122884
 21
-62.94635792058574
 31
0.0
  0
LINE
  5
12E
330
79
100
AcDbEntity
  8
1
  6
Continuous
 62
     7
100
AcDbLine
 10
-3.98749417877116
 20
-42.94635792058574
 30
0.0
 11
-3.98749417877116
 21
-37.94635792058574
 31
0.0
  0
LINE
  5
12F
330
79
100
AcDbEntity
  8
1
  6
Continuous
 62
     7
100
AcDbLine
 10
-3.98749417877116
 20
-37.94635792058574
 30
0.0
 11
39.01250582122884
 21
-37.94635792058574
 31
0.0
  0
LINE
  5
130
330
79
100
AcDbEntity
  8
1
  6
Continuous
 62
     7
100
AcDbLine
 10
24.01250582122884
 20
-42.94635792058574
 30
0.0
 11
-3.98749417877116
 21
-42.94635792058574
 31
0.0
  0
LINE
  5
131
330
79
100
AcDbEntity
  8
1
  6
Continuous
 62
     7
100
AcDbLine
 10
39.01250582122884
 20
-42.94635792058574
 30
0.0
 11
24.01250582122884
 21
-42.94635792058574
 31
0.0
  0
LINE
  5
132
330
79
100
AcDbEntity
  8
1
  6
Continuous
 62
     7
100
AcDbLine
 10
39.01250582122884
 20
-47.94635792058574
 30
0.0
 11
39.01250582122884
 21
-42.94635792058574
 31
0.0
  0
LINE
  5
133
330
79
100
AcDbEntity
  8
1
  6
Continuous
 62
     7
100
AcDbLine
 10
39.01250582122884
 20
-52.94635792058574
 30
0.0
 11
39.01250582122884
 21
-47.94635792058574
 31
0.0
  0
LINE
  5
134
330
79
100
AcDbEntity
  8
1
  6
Continuous
 62
     7
100
AcDbLine
 10
39.01250582122884
 20
-57.94635792058574
 30
0.0
 11
39.01250582122884
 21
-52.94635792058574
 31
0.0
  0
LINE
  5
135
330
79
100
AcDbEntity
  8
1
  6
Continuous
 62
     7
100
AcDbLine
 10
39.01250582122884
 20
-62.94635792058574
 30
0.0
 11
39.01250582122884
 21
-57.94635792058574
 31
0.0
  0
LINE
  5
136
330
79
100
AcDbEntity
  8
1
  6
Continuous
 62
     7
100
AcDbLine
 10
24.01250582122884
 20
-47.94635792058574
 30
0.0
 11
39.01250582122884
 21
-47.94635792058574
 31
0.0
  0
LINE
  5
137
330
79
100
AcDbEntity
  8
1
  6
Continuous
 62
     7
100
AcDbLine
 10
39.01250582122884
 20
-37.94635792058574
 30
0.0
 11
39.01250582122884
 21
-42.94635792058574
 31
0.0
  0
LINE
  5
138
330
79
100
AcDbEntity
  8
1
  6
Continuous
 62
     7
100
AcDbLine
 10
24.01250582122884
 20
-42.94635792058574
 30
0.0
 11
24.01250582122884
 21
-47.94635792058574
 31
0.0
  0
LINE
  5
139
330
79
100
AcDbEntity
  8
1
  6
Continuous
 62
     2
100
AcDbLine
 10
24.01250582122884
 20
-47.94635792058574
 30
0.0
 11
24.01250582122884
 21
-52.94635792058574
 31
0.0
  0
LINE
  5
13A
330
79
100
AcDbEntity
  8
1
  6
Continuous
 62
     7
100
AcDbLine
 10
24.01250582122884
 20
-62.94635792058574
 30
0.0
 11
39.01250582122884
 21
-62.94635792058574
 31
0.0
  0
LINE
  5
13B
330
79
100
AcDbEntity
  8
1
  6
Continuous
 62
     2
100
AcDbLine
 10
24.01250582122884
 20
-57.94635792058574
 30
0.0
 11
39.01250582122884
 21
-57.94635792058574
 31
0.0
  0
LINE
  5
13C
330
79
100
AcDbEntity
  8
1
  6
Continuous
 62
     2
100
AcDbLine
 10
24.01250582122884
 20
-57.94635792058574
 30
0.0
 11
24.01250582122884
 21
-62.94635792058574
 31
0.0
  0
LINE
  5
13D
330
79
100
AcDbEntity
  8
1
  6
Continuous
 62
     2
100
AcDbLine
 10
24.01250582122884
 20
-52.94635792058574
 30
0.0
 11
39.01250582122884
 21
-52.94635792058574
 31
0.0
  0
LINE
  5
13E
330
79
100
AcDbEntity
  8
1
  6
Continuous
 62
     2
100
AcDbLine
 10
24.01250582122884
 20
-52.94635792058574
 30
0.0
 11
24.01250582122884
 21
-57.94635792058574
 31
0.0
  0
ARC
  5
13F
102
{ACAD_REACTORS
330
196
102
}
330
79
100
AcDbEntity
  8
1
  6
Continuous
 62
     2
100
AcDbCircle
 10
156.8125058212289
 20
-39.20020407443184
 30
0.0
 40
0.7999999999999318
100
AcDbArc
 50
36.86989764584931
 51
90.0
  0
ARC
  5
140
102
{ACAD_REACTORS
330
196
102
}
330
79
100
AcDbEntity
  8
1
  6
Continuous
 62
     2
100
AcDbCircle
 10
156.8125058212289
 20
-39.20020407443184
 30
0.0
 40
0.8000000000000682
100
AcDbArc
 50
90.0
 51
143.1301023541592
  0
ARC
  5
141
102
{ACAD_REACTORS
330
197
102
}
330
79
100
AcDbEntity
  8
1
  6
Continuous
 62
     2
100
AcDbCircle
 10
168.4520142847632
 20
-40.11965697238014
 30
0.0
 40
0.2999999999999453
100
AcDbArc
 50
43.29018595585738
 51
118.3007557660066
  0
ARC
  5
142
102
{ACAD_REACTORS
330
197
102
}
330
79
100
AcDbEntity
  8
1
  6
Continuous
 62
     2
100
AcDbCircle
 10
167.4125058212289
 20
-41.47442123291131
 30
0.0
 40
1.000000000000069
100
AcDbArc
 50
118.3007557660163
 51
180.0
  0
ARC
  5
143
102
{ACAD_REACTORS
330
197
102
}
330
79
100
AcDbEntity
  8
1
  6
Continuous
 62
     2
100
AcDbCircle
 10
167.4483673663436
 20
-41.45511117015718
 30
0.0
 40
1.000000000000006
100
AcDbArc
 50
43.29018595585617
 51
118.3007557660106
  0
ARC
  5
144
102
{ACAD_REACTORS
330
197
102
}
330
79
100
AcDbEntity
  8
1
  6
Continuous
 62
     2
100
AcDbCircle
 10
162.1125058212288
 20
-40.40020407443177
 30
0.0
 40
1.199999999999903
100
AcDbArc
 50
180.0
 51
270.0
  0
ARC
  5
145
102
{ACAD_REACTORS
330
197
102
}
330
79
100
AcDbEntity
  8
1
  6
Continuous
 62
     2
100
AcDbCircle
 10
162.1125058212288
 20
-40.40020407443177
 30
0.0
 40
1.199999999999932
100
AcDbArc
 50
90.0
 51
180.0
  0
ARC
  5
146
102
{ACAD_REACTORS
330
197
102
}
330
79
100
AcDbEntity
  8
1
  6
Continuous
 62
     2
100
AcDbCircle
 10
161.8125058212289
 20
-40.40020407443177
 30
0.0
 40
2.0
100
AcDbArc
 50
180.0
 51
270.0
  0
ARC
  5
147
102
{ACAD_REACTORS
330
197
102
}
330
79
100
AcDbEntity
  8
1
  6
Continuous
 62
     2
100
AcDbCircle
 10
161.8125058212289
 20
-40.40020407443177
 30
0.0
 40
2.0
100
AcDbArc
 50
90.0
 51
180.0
  0
ARC
  5
148
102
{ACAD_REACTORS
330
196
102
}
330
79
100
AcDbEntity
  8
1
  6
Continuous
 62
     2
100
AcDbCircle
 10
156.8125058212289
 20
-39.5335374077651
 30
0.0
 40
0.2000000000000043
100
AcDbArc
 50
36.86989764584727
 51
143.1301023541723
  0
ARC
  5
149
102
{ACAD_REACTORS
330
195
102
}
330
79
100
AcDbEntity
  8
1
  6
Continuous
 62
     2
100
AcDbCircle
 10
149.2125058212288
 20
-41.20020407443184
 30
0.0
 40
1.199999999999932
100
AcDbArc
 50
270.0
 51
0.0
  0
ARC
  5
14A
102
{ACAD_REACTORS
330
195
102
}
330
79
100
AcDbEntity
  8
1
  6
Continuous
 62
     2
100
AcDbCircle
 10
149.2125058212288
 20
-41.20020407443184
 30
0.0
 40
1.200000000000102
100
AcDbArc
 50
0.0
 51
90.0
  0
ARC
  5
14B
102
{ACAD_REACTORS
330
195
102
}
330
79
100
AcDbEntity
  8
1
  6
Continuous
 62
     2
100
AcDbCircle
 10
149.0125058212288
 20
-41.20020407443184
 30
0.0
 40
0.3999999999999844
100
AcDbArc
 50
270.0
 51
0.0
  0
ARC
  5
14C
102
{ACAD_REACTORS
330
195
102
}
330
79
100
AcDbEntity
  8
1
  6
Continuous
 62
     2
100
AcDbCircle
 10
149.0125058212288
 20
-41.20020407443184
 30
0.0
 40
0.4000000000000909
100
AcDbArc
 50
0.0
 51
90.0
  0
ARC
  5
14D
102
{ACAD_REACTORS
330
195
102
}
330
79
100
AcDbEntity
  8
1
  6
Continuous
 62
     2
100
AcDbCircle
 10
146.4125058212289
 20
-39.60020407443182
 30
0.0
 40
0.4000000000000909
100
AcDbArc
 50
180.0
 51
270.0
  0
ARC
  5
14E
102
{ACAD_REACTORS
330
195
102
}
330
79
100
AcDbEntity
  8
1
  6
Continuous
 62
     2
100
AcDbCircle
 10
146.4125058212289
 20
-39.60020407443182
 30
0.0
 40
0.3999999999999844
100
AcDbArc
 50
90.0
 51
180.0
  0
ARC
  5
14F
102
{ACAD_REACTORS
330
195
102
}
330
79
100
AcDbEntity
  8
1
  6
Continuous
 62
     2
100
AcDbCircle
 10
146.2125058212288
 20
-39.60020407443182
 30
0.0
 40
1.199999999999989
100
AcDbArc
 50
180.0
 51
270.0
  0
ARC
  5
150
102
{ACAD_REACTORS
330
195
102
}
330
79
100
AcDbEntity
  8
1
  6
Continuous
 62
     2
100
AcDbCircle
 10
146.2125058212288
 20
-39.60020407443182
 30
0.0
 40
1.200000000000053
100
AcDbArc
 50
90.0
 51
180.0
  0
TEXT
  5
152
330
79
100
AcDbEntity
  8
1
 62
     3
100
AcDbText
 10
38.79524419939412
 20
-291.5901966390108
 30
0.0
 40
3.5
  1
STACK ELECTRONICS CO., LTD.
 41
0.95
 51
10.0
  7
CONVERTER_15
100
AcDbText
  0
MTEXT
  5
154
330
79
100
AcDbEntity
  8
1
 62
     3
100
AcDbMText
 10
46.51250582122884
 20
-273.9463579205859
 30
0.0
 40
2.5
 41
0.0
 71
     5
 72
     1
  1
単　位　ｍｍ
  7
CONVERTER_16
 73
     1
 44
1.0
  0
MTEXT
  5
155
330
79
100
AcDbEntity
  8
1
 62
     3
100
AcDbMText
 10
11.51250582122884
 20
-273.9463579205859
 30
0.0
 40
2.5
 41
0.0
 71
     5
 72
     1
  1
第　三　角　図　法
  7
CONVERTER_16
 73
     1
 44
1.0
  0
MTEXT
  5
156
330
79
100
AcDbEntity
  8
1
 62
     3
100
AcDbMText
 10
-1.48749417877116
 20
-262.4463579205859
 30
0.0
 40
2.5
 41
0.0
 71
     5
 72
     1
  1
符号
  7
CONVERTER_16
 73
     1
 44
1.0
  0
MTEXT
  5
157
330
79
100
AcDbEntity
  8
1
 62
     3
100
AcDbMText
 10
10.01250582122884
 20
-262.4463579205859
 30
0.0
 40
2.5
 41
0.0
 71
     5
 72
     1
  1
年　月　日
  7
CONVERTER_16
 73
     1
 44
1.0
  0
MTEXT
  5
158
330
79
100
AcDbEntity
  8
1
 62
     3
100
AcDbMText
 10
33.51250582122884
 20
-262.4463579205859
 30
0.0
 40
2.5
 41
0.0
 71
     5
 72
     1
  1
改　訂　記　事
  7
CONVERTER_16
 73
     1
 44
1.0
  0
TEXT
  5
159
330
79
100
AcDbEntity
  8
1
 62
     3
100
AcDbText
 10
100.3116972622272
 20
-280.6509435526119
 30
0.0
 40
2.5
  1
図面番号
 41
0.89
  7
CONVERTER_16
100
AcDbText
  0
TEXT
  5
15A
330
79
100
AcDbEntity
  8
1
 62
     3
100
AcDbText
 10
100.3116972622272
 20
-268.5319484649669
 30
0.0
 40
2.5
  1
製品名
 41
0.89
  7
CONVERTER_16
100
AcDbText
  0
MTEXT
  5
15B
330
79
100
AcDbEntity
  8
1
 62
     3
100
AcDbMText
 10
62.01250582122884
 20
-262.4463579205859
 30
0.0
 40
2.5
 41
0.0
 71
     5
 72
     1
  1
承認
  7
CONVERTER_16
 73
     1
 44
1.0
  0
MTEXT
  5
15C
330
79
100
AcDbEntity
  8
1
 62
     3
100
AcDbMText
 10
70.01250582122884
 20
-262.4463579205859
 30
0.0
 40
2.5
 41
0.0
 71
     5
 72
     1
  1
符号
  7
CONVERTER_16
 73
     1
 44
1.0
  0
MTEXT
  5
15D
330
79
100
AcDbEntity
  8
1
 62
     3
100
AcDbMText
 10
89.01250582122884
 20
-262.4463579205859
 30
0.0
 40
2.5
 41
0.0
 71
     5
 72
     1
  1
部  品  名
  7
CONVERTER_16
 73
     1
 44
1.0
  0
MTEXT
  5
15E
330
79
100
AcDbEntity
  8
1
 62
     3
100
AcDbMText
 10
118.0125058212288
 20
-262.4463579205859
 30
0.0
 40
2.5
 41
0.0
 71
     5
 72
     1
  1
材　　質
  7
CONVERTER_16
 73
     1
 44
1.0
  0
MTEXT
  5
15F
330
79
100
AcDbEntity
  8
1
 62
     3
100
AcDbMText
 10
138.0125058212288
 20
-262.4463579205859
 30
0.0
 40
2.5
 41
0.0
 71
     5
 72
     1
  1
処　　理
  7
CONVERTER_16
 73
     1
 44
1.0
  0
MTEXT
  5
160
330
79
100
AcDbEntity
  8
1
 62
     3
100
AcDbMText
 10
148.0125058212288
 20
-262.4463579205859
 30
0.0
 40
2.5
 41
0.0
 71
     5
 72
     1
  1
数量
  7
CONVERTER_16
 73
     1
 44
1.0
  0
MTEXT
  5
161
330
79
100
AcDbEntity
  8
1
 62
     3
100
AcDbMText
 10
163.0125058212288
 20
-262.4463579205859
 30
0.0
 40
2.5
 41
0.0
 71
     5
 72
     1
  1
備　　考
  7
CONVERTER_16
 73
     1
 44
1.0
  0
MTEXT
  5
162
330
79
100
AcDbEntity
  8
1
 62
     3
100
AcDbMText
 10
69.01250582122884
 20
-273.9463579205859
 30
0.0
 40
2.5
 41
0.0
 71
     5
 72
     1
  1
尺　度
  7
CONVERTER_16
 73
     1
 44
1.0
  0
MTEXT
  5
163
330
79
100
AcDbEntity
  8
1
 62
     3
100
AcDbMText
 10
-1.48749417877116
 20
-281.9463579205859
 30
0.0
 40
3.0
 41
0.0
 71
     5
 72
     1
  1
設計
  7
CONVERTER_16
 73
     1
 44
1.0
  0
MTEXT
  5
164
330
79
100
AcDbEntity
  8
1
 62
     3
100
AcDbMText
 10
24.51250582122884
 20
-281.9463579205859
 30
0.0
 40
3.0
 41
0.0
 71
     5
 72
     1
  1
製図
  7
CONVERTER_16
 73
     1
 44
1.0
  0
MTEXT
  5
165
330
79
100
AcDbEntity
  8
1
 62
     3
100
AcDbMText
 10
50.51250582122884
 20
-281.9463579205859
 30
0.0
 40
3.0
 41
0.0
 71
     5
 72
     1
  1
検図
  7
CONVERTER_16
 73
     1
 44
1.0
  0
MTEXT
  5
166
330
79
100
AcDbEntity
  8
1
 62
     3
100
AcDbMText
 10
76.51250582122884
 20
-281.9463579205859
 30
0.0
 40
3.0
 41
0.0
 71
     5
 72
     1
  1
承認
  7
CONVERTER_16
 73
     1
 44
1.0
  0
MTEXT
  5
167
330
79
100
AcDbEntity
  8
1
 62
     3
100
AcDbMText
 10
-1.48749417877116
 20
-267.9463579205859
 30
0.0
 40
2.5
 41
0.0
 71
     5
 72
     1
  1
形式
  7
CONVERTER_16
 73
     1
 44
1.0
  0
MTEXT
  5
168
330
79
100
AcDbEntity
  8
1
 62
     3
100
AcDbMText
 10
54.01250582122884
 20
-262.4463579205859
 30
0.0
 40
2.5
 41
0.0
 71
     5
 72
     1
  1
担当
  7
CONVERTER_16
 73
     1
 44
1.0
  0
MTEXT
  5
169
330
79
100
AcDbEntity
  8
1
 62
     3
100
AcDbMText
 10
70.01250582122884
 20
-257.4463579205859
 30
0.0
 40
2.5
 41
0.0
 71
     5
 72
     1
  1
1
  7
CONVERTER_13
 73
     1
 44
1.0
  0
MTEXT
  5
16A
330
79
100
AcDbEntity
  8
1
 62
     3
100
AcDbMText
 10
89.01250582122884
 20
-257.4463579205859
 30
0.0
 40
2.5
 41
0.0
 71
     5
 72
     1
  1
シェル
  7
CONVERTER_12
 73
     1
 44
1.0
  0
MTEXT
  5
16B
330
79
100
AcDbEntity
  8
1
 62
     3
100
AcDbMText
 10
118.0125058212288
 20
-257.4463579205859
 30
0.0
 40
2.5
 41
0.0
 71
     5
 72
     1
  1
黄銅
  7
CONVERTER_12
 73
     1
 44
1.0
  0
MTEXT
  5
16C
330
79
100
AcDbEntity
  8
1
 62
     3
100
AcDbMText
 10
138.0125058212288
 20
-257.4463579205859
 30
0.0
 40
2.5
 41
0.0
 71
     5
 72
     1
  1
Ni
  7
CONVERTER_13
 73
     1
 44
1.0
  0
MTEXT
  5
16D
330
79
100
AcDbEntity
  8
1
 62
     3
100
AcDbMText
 10
148.0125058212288
 20
-257.4463579205859
 30
0.0
 40
2.5
 41
0.0
 71
     5
 72
     1
  1
1
  7
CONVERTER_13
 73
     1
 44
1.0
  0
MTEXT
  5
16E
330
79
100
AcDbEntity
  8
1
 62
     3
100
AcDbMText
 10
163.0125058212288
 20
-257.4463579205859
 30
0.0
 40
2.5
 41
0.0
 71
     5
 72
     1
  1
--
  7
CONVERTER_13
 73
     1
 44
1.0
  0
MTEXT
  5
16F
330
79
100
AcDbEntity
  8
1
 62
     3
100
AcDbMText
 10
163.0125058212288
 20
-252.4463579205859
 30
0.0
 40
2.5
 41
0.0
 71
     5
 72
     1
  1
--
  7
CONVERTER_13
 73
     1
 44
1.0
  0
MTEXT
  5
170
330
79
100
AcDbEntity
  8
1
 62
     3
100
AcDbMText
 10
148.0125058212288
 20
-252.4463579205859
 30
0.0
 40
2.5
 41
0.0
 71
     5
 72
     1
  1
1
  7
CONVERTER_13
 73
     1
 44
1.0
  0
MTEXT
  5
171
330
79
100
AcDbEntity
  8
1
 62
     3
100
AcDbMText
 10
138.0125058212288
 20
-252.4463579205859
 30
0.0
 40
2.5
 41
0.0
 71
     5
 72
     1
  1
--
  7
CONVERTER_13
 73
     1
 44
1.0
  0
MTEXT
  5
172
330
79
100
AcDbEntity
  8
1
 62
     3
100
AcDbMText
 10
118.0125058212288
 20
-252.4463579205859
 30
0.0
 40
2.5
 41
0.0
 71
     5
 72
     1
  1
ポリアセタール樹脂
  7
CONVERTER_12
 73
     1
 44
1.0
  0
MTEXT
  5
173
330
79
100
AcDbEntity
  8
1
 62
     3
100
AcDbMText
 10
89.01250582122884
 20
-252.4463579205859
 30
0.0
 40
2.5
 41
0.0
 71
     5
 72
     1
  1
絶縁体
  7
CONVERTER_12
 73
     1
 44
1.0
  0
MTEXT
  5
174
330
79
100
AcDbEntity
  8
1
 62
     3
100
AcDbMText
 10
70.01250582122884
 20
-252.4463579205859
 30
0.0
 40
2.5
 41
0.0
 71
     5
 72
     1
  1
2
  7
CONVERTER_13
 73
     1
 44
1.0
  0
MTEXT
  5
175
330
79
100
AcDbEntity
  8
1
 62
     3
100
AcDbMText
 10
70.01250582122884
 20
-247.4463579205859
 30
0.0
 40
2.5
 41
0.0
 71
     5
 72
     1
  1
3
  7
CONVERTER_13
 73
     1
 44
1.0
  0
MTEXT
  5
176
330
79
100
AcDbEntity
  8
1
 62
     3
100
AcDbMText
 10
89.01250582122884
 20
-247.4463579205859
 30
0.0
 40
2.5
 41
0.0
 71
     5
 72
     1
  1
中心コンタクト
  7
CONVERTER_12
 73
     1
 44
1.0
  0
MTEXT
  5
177
330
79
100
AcDbEntity
  8
1
 62
     3
100
AcDbMText
 10
118.0125058212288
 20
-247.4463579205859
 30
0.0
 40
2.5
 41
0.0
 71
     5
 72
     1
  1
リン青銅
  7
CONVERTER_12
 73
     1
 44
1.0
  0
MTEXT
  5
178
330
79
100
AcDbEntity
  8
1
 62
     3
100
AcDbMText
 10
138.0125058212288
 20
-247.4463579205859
 30
0.0
 40
2.5
 41
0.0
 71
     5
 72
     1
  1
Ag
  7
CONVERTER_13
 73
     1
 44
1.0
  0
MTEXT
  5
179
330
79
100
AcDbEntity
  8
1
 62
     3
100
AcDbMText
 10
148.0125058212288
 20
-247.4463579205859
 30
0.0
 40
2.5
 41
0.0
 71
     5
 72
     1
  1
1
  7
CONVERTER_13
 73
     1
 44
1.0
  0
MTEXT
  5
17A
330
79
100
AcDbEntity
  8
1
 62
     3
100
AcDbMText
 10
163.0125058212288
 20
-247.4463579205859
 30
0.0
 40
2.5
 41
0.0
 71
     5
 72
     1
  1
--
  7
CONVERTER_13
 73
     1
 44
1.0
  0
MTEXT
  5
17B
330
79
100
AcDbEntity
  8
1
 62
     3
100
AcDbMText
 10
70.01250582122884
 20
-242.4463579205859
 30
0.0
 40
2.5
 41
0.0
 71
     5
 72
     1
  1
4
  7
CONVERTER_13
 73
     1
 44
1.0
  0
MTEXT
  5
17C
330
79
100
AcDbEntity
  8
1
 62
     3
100
AcDbMText
 10
70.01250582122884
 20
-237.4463579205859
 30
0.0
 40
2.5
 41
0.0
 71
     5
 72
     1
  1
5
  7
CONVERTER_13
 73
     1
 44
1.0
  0
MTEXT
  5
17D
330
79
100
AcDbEntity
  8
1
 62
     3
100
AcDbMText
 10
89.01250582122884
 20
-242.4463579205859
 30
0.0
 40
2.5
 41
0.0
 71
     5
 72
     1
  1
内歯付座金
  7
CONVERTER_12
 73
     1
 44
1.0
  0
MTEXT
  5
17E
330
79
100
AcDbEntity
  8
1
 62
     3
100
AcDbMText
 10
118.0125058212288
 20
-242.4463579205859
 30
0.0
 40
2.5
 41
0.0
 71
     5
 72
     1
  1
ばね鋼
  7
CONVERTER_12
 73
     1
 44
1.0
  0
MTEXT
  5
17F
330
79
100
AcDbEntity
  8
1
 62
     3
100
AcDbMText
 10
138.0125058212288
 20
-242.4463579205859
 30
0.0
 40
2.5
 41
0.0
 71
     5
 72
     1
  1
Ni
  7
CONVERTER_13
 73
     1
 44
1.0
  0
MTEXT
  5
180
330
79
100
AcDbEntity
  8
1
 62
     3
100
AcDbMText
 10
148.0125058212288
 20
-242.4463579205859
 30
0.0
 40
2.5
 41
0.0
 71
     5
 72
     1
  1
1
  7
CONVERTER_13
 73
     1
 44
1.0
  0
MTEXT
  5
181
330
79
100
AcDbEntity
  8
1
 62
     3
100
AcDbMText
 10
163.0125058212288
 20
-242.4463579205859
 30
0.0
 40
2.5
 41
0.0
 71
     5
 72
     1
  1
t=0.5
  7
CONVERTER_13
 73
     1
 44
1.0
  0
MTEXT
  5
183
330
79
100
AcDbEntity
  8
1
 62
     3
100
AcDbMText
 10
51.01250582122884
 20
-267.9463579205859
 30
0.0
 40
2.5
 41
0.0
 71
     5
 72
     1
  1
BNC-BR(Dｶｯﾄ)
  7
CONVERTER_17
 73
     1
 44
1.0
  0
MTEXT
  5
184
330
79
100
AcDbEntity
  8
1
 62
     3
100
AcDbMText
 10
163.0125058212288
 20
-237.4463579205859
 30
0.0
 40
2.5
 41
0.0
 71
     5
 72
     1
  1
t=2.0
  7
CONVERTER_13
 73
     1
 44
1.0
  0
MTEXT
  5
185
330
79
100
AcDbEntity
  8
1
 62
     3
100
AcDbMText
 10
148.0125058212288
 20
-237.4463579205859
 30
0.0
 40
2.5
 41
0.0
 71
     5
 72
     1
  1
1
  7
CONVERTER_13
 73
     1
 44
1.0
  0
MTEXT
  5
186
330
79
100
AcDbEntity
  8
1
 62
     3
100
AcDbMText
 10
138.0125058212288
 20
-237.4463579205859
 30
0.0
 40
2.5
 41
0.0
 71
     5
 72
     1
  1
Ni
  7
CONVERTER_13
 73
     1
 44
1.0
  0
MTEXT
  5
187
330
79
100
AcDbEntity
  8
1
 62
     3
100
AcDbMText
 10
118.0125058212288
 20
-237.4463579205859
 30
0.0
 40
2.5
 41
0.0
 71
     5
 72
     1
  1
黄銅
  7
CONVERTER_12
 73
     1
 44
1.0
  0
MTEXT
  5
188
330
79
100
AcDbEntity
  8
1
 62
     3
100
AcDbMText
 10
89.01250582122884
 20
-237.4463579205859
 30
0.0
 40
2.5
 41
0.0
 71
     5
 72
     1
  1
六角ナット
  7
CONVERTER_12
 73
     1
 44
1.0
  0
TEXT
  5
189
330
79
100
AcDbEntity
  8
1
 62
     3
100
AcDbText
 10
1.23309405652344
 20
-41.62282850882178
 30
0.0
 40
2.5
  1
指定無き公差は、下記による
 41
0.89
  7
CONVERTER_16
100
AcDbText
  0
TEXT
  5
18A
330
79
100
AcDbEntity
  8
1
 62
     3
100
AcDbText
 10
4.90956464475767
 20
-46.47576968529296
 30
0.0
 40
2.5
  1
基準寸法
 41
0.89
  7
CONVERTER_16
100
AcDbText
  0
TEXT
  5
18B
330
79
100
AcDbEntity
  8
1
 62
     3
100
AcDbText
 10
1.527211703582
 20
-51.47576968529296
 30
0.0
 40
2.0
  1
4.0mm 未満
 41
0.89
  7
CONVERTER_16
100
AcDbText
  0
TEXT
  5
18C
330
79
100
AcDbEntity
  8
1
 62
     3
100
AcDbText
 10
1.42647640946416
 20
-56.45297556764575
 30
0.0
 40
2.0
  1
4.0～16.0mm
 41
0.89
  7
CONVERTER_16
100
AcDbText
  0
TEXT
  5
18D
330
79
100
AcDbEntity
  8
1
 62
     3
100
AcDbText
 10
1.25735876240469
 20
-61.41915203823277
 30
0.0
 40
2.0
  1
16.0～63.0mm
 41
0.89
  7
CONVERTER_16
100
AcDbText
  0
TEXT
  5
18E
330
79
100
AcDbEntity
  8
1
 62
     3
100
AcDbText
 10
27.85074111534595
 20
-46.47576968529296
 30
0.0
 40
2.5
  1
許容差
 41
0.89
  7
CONVERTER_16
100
AcDbText
  0
TEXT
  5
18F
330
79
100
AcDbEntity
  8
1
 62
     3
100
AcDbText
 10
25.64485876240542
 20
-56.32871086176323
 30
0.0
 40
2.0
  1
+0.2mm
 41
0.9
  7
CONVERTER_17
100
AcDbText
  0
TEXT
  5
190
330
79
100
AcDbEntity
  8
1
 62
     3
100
AcDbText
 10
25.79191758593515
 20
-61.47576968529296
 30
0.0
 40
2.0
  1
+0.3mm
 41
0.9
  7
CONVERTER_17
100
AcDbText
  0
TEXT
  5
191
330
79
100
AcDbEntity
  8
1
 62
     3
100
AcDbText
 10
25.7801528800519
 20
-51.50959321470322
 30
0.0
 40
2.0
  1
+0.1mm
 41
0.9
  7
CONVERTER_17
100
AcDbText
  0
TEXT
  5
192
330
79
100
AcDbEntity
  8
1
 62
     3
100
AcDbText
 10
25.80699111534614
 20
-52.44562262646826
 30
0.0
 40
2.0
  1
-
 41
0.9
  7
CONVERTER_17
100
AcDbText
  0
TEXT
  5
193
330
79
100
AcDbEntity
  8
1
 62
     3
100
AcDbText
 10
25.58052052711082
 20
-57.31474027352755
 30
0.0
 40
2.0
  1
-
 41
0.9
  7
CONVERTER_17
100
AcDbText
  0
TEXT
  5
194
330
79
100
AcDbEntity
  8
1
 62
     3
100
AcDbText
 10
25.80699111534614
 20
-62.41032850882124
 30
0.0
 40
2.0
  1
-
 41
0.9
  7
CONVERTER_17
100
AcDbText
  0
HATCH
  5
195
330
79
100
AcDbEntity
  8
1
  6
Continuous
 62
     2
100
AcDbHatch
 10
0.0
 20
0.0
 30
0.0
210
0.0
220
0.0
230
1.0
  2
_USER
 70
     0
 71
     1
 91
        1
 92
        1
 93
       22
 72
     1
 10
154.3125058212289
 20
-38.40020407443177
 11
146.2125058212288
 21
-38.40020407443177
 72
     2
 10
146.2125058212288
 20
-39.60020407443182
 40
1.200000000000053
 50
90.0
 51
180.0
 73
     1
 72
     2
 10
146.2125058212288
 20
-39.60020407443182
 40
1.199999999999989
 50
180.0
 51
270.0
 73
     1
 72
     1
 10
146.2125058212288
 20
-40.80020407443175
 11
149.0125058212288
 21
-40.80020407443175
 72
     2
 10
149.0125058212288
 20
-41.20020407443184
 40
0.4000000000000909
 50
270.0
 51
360.0
 73
     0
 72
     2
 10
149.0125058212288
 20
-41.20020407443184
 40
0.3999999999999844
 50
0.0
 51
90.0
 73
     0
 72
     1
 10
149.0125058212288
 20
-41.60020407443182
 11
145.0125058212288
 21
-41.60020407443182
 72
     1
 10
145.0125058212288
 20
-41.60020407443182
 11
145.0125058212288
 21
-42.40020407443177
 72
     1
 10
145.0125058212288
 20
-42.40020407443177
 11
149.2125058212288
 21
-42.40020407443177
 72
     2
 10
149.2125058212288
 20
-41.20020407443184
 40
1.199999999999932
 50
270.0
 51
360.0
 73
     1
 72
     2
 10
149.2125058212288
 20
-41.20020407443184
 40
1.200000000000102
 50
0.0
 51
90.0
 73
     1
 72
     1
 10
149.2125058212288
 20
-40.00020407443179
 11
146.4125058212289
 21
-40.00020407443179
 72
     2
 10
146.4125058212289
 20
-39.60020407443182
 40
0.4000000000000909
 50
90.0
 51
180.0
 73
     0
 72
     2
 10
146.4125058212289
 20
-39.60020407443182
 40
0.3999999999999844
 50
180.0
 51
270.0
 73
     0
 72
     1
 10
146.4125058212289
 20
-39.20020407443184
 11
151.5125058212288
 21
-39.20020407443184
 72
     1
 10
151.5125058212288
 20
-39.20020407443184
 11
151.5125058212288
 21
-42.40020407443177
 72
     1
 10
151.5125058212288
 20
-42.40020407443177
 11
152.6125058212288
 21
-42.40020407443177
 72
     1
 10
152.6125058212288
 20
-42.40020407443177
 11
152.6125058212288
 21
-39.20020407443184
 72
     1
 10
152.6125058212288
 20
-39.20020407443184
 11
154.3125058212289
 21
-39.20020407443184
 72
     1
 10
154.3125058212289
 20
-39.20020407443184
 11
155.0125058212288
 21
-39.20020407443184
 72
     1
 10
155.0125058212288
 20
-39.20020407443184
 11
155.0125058212288
 21
-38.40020407443177
 72
     1
 10
155.0125058212288
 20
-38.40020407443177
 11
154.3125058212289
 21
-38.40020407443177
 97
       22
330
B6
330
150
330
14F
330
B5
330
14C
330
14B
330
B4
330
B3
330
B2
330
149
330
14A
330
B1
330
14D
330
14E
330
B0
330
AF
330
AE
330
B8
330
B7
330
AB
330
AC
330
AD
 75
     1
 76
     0
 52
45.0
 41
0.1
 77
     0
 78
     1
 53
45.0
 43
0.0
 44
0.0
 45
-0.0707106781186548
 46
0.0707106781186548
 79
     0
 98
        1
 10
0.0
 20
0.0
  0
HATCH
  5
196
330
79
100
AcDbEntity
  8
1
  6
Continuous
 62
     2
100
AcDbHatch
 10
0.0
 20
0.0
 30
0.0
210
0.0
220
0.0
230
1.0
  2
_USER
 70
     0
 71
     1
 91
        2
 92
        1
 93
       10
 72
     1
 10
159.8125058212289
 20
-42.40020407443177
 11
159.2125058212288
 21
-42.40020407443177
 72
     1
 10
159.2125058212288
 20
-42.40020407443177
 11
158.6875058212289
 21
-41.70020407443184
 72
     1
 10
158.6875058212289
 20
-41.70020407443184
 11
154.9375058212289
 21
-41.70020407443184
 72
     1
 10
154.9375058212289
 20
-41.70020407443184
 11
154.4125058212289
 21
-42.40020407443177
 72
     1
 10
154.4125058212289
 20
-42.40020407443177
 11
153.4125058212289
 21
-42.40020407443177
 72
     1
 10
153.4125058212289
 20
-42.40020407443177
 11
156.1725058212288
 21
-38.72020407443182
 72
     2
 10
156.8125058212289
 20
-39.20020407443184
 40
0.8000000000000682
 50
216.8698976458408
 51
270.0
 73
     0
 72
     2
 10
156.8125058212289
 20
-39.20020407443184
 40
0.7999999999999318
 50
270.0
 51
323.1301023541507
 73
     0
 72
     1
 10
157.4525058212288
 20
-38.72020407443182
 11
160.2125058212288
 21
-42.40020407443177
 72
     1
 10
160.2125058212288
 20
-42.40020407443177
 11
159.8125058212289
 21
-42.40020407443177
 97
       10
330
A9
330
13F
330
140
330
AA
330
A4
330
A5
330
A6
330
A7
330
9F
330
A8
 92
       16
 93
        4
 72
     2
 10
156.8125058212289
 20
-39.5335374077651
 40
0.2000000000000043
 50
36.86989764584727
 51
143.1301023541723
 73
     1
 72
     1
 10
156.6525058212288
 20
-39.41353740776509
 11
155.6125058212288
 21
-40.80020407443175
 72
     1
 10
155.6125058212288
 20
-40.80020407443175
 11
158.0125058212288
 21
-40.80020407443175
 72
     1
 10
158.0125058212288
 20
-40.80020407443175
 11
156.9725058212289
 21
-39.41353740776509
 97
        4
330
148
330
A3
330
A2
330
A1
 75
     1
 76
     0
 52
45.0
 41
0.1
 77
     0
 78
     1
 53
45.0
 43
0.0
 44
0.0
 45
-0.0707106781186548
 46
0.0707106781186548
 79
     0
 98
        1
 10
0.0
 20
0.0
  0
HATCH
  5
197
330
79
100
AcDbEntity
  8
1
  6
Continuous
 62
     2
100
AcDbHatch
 10
0.0
 20
0.0
 30
0.0
210
0.0
220
0.0
230
1.0
  2
_USER
 70
     0
 71
     1
 91
        1
 92
        1
 93
       24
 72
     1
 10
171.0125058212287
 20
-38.40020407443177
 11
168.5125058212288
 21
-39.74635792058558
 72
     1
 10
168.5125058212288
 20
-39.74635792058558
 11
168.3097843378528
 21
-39.85551564240365
 72
     2
 10
168.4520142847632
 20
-40.11965697238014
 40
0.2999999999999453
 50
241.6992442339934
 51
316.7098140441426
 73
     0
 72
     1
 10
168.6703813504666
 20
-39.91394886700738
 11
171.0125058212287
 21
-42.40020407443177
 72
     1
 10
171.0125058212287
 20
-42.40020407443177
 11
169.7125058212289
 21
-42.40020407443177
 72
     1
 10
169.7125058212289
 20
-42.40020407443177
 11
168.1762575853551
 21
-40.76941748558119
 72
     2
 10
167.4483673663436
 20
-41.45511117015718
 40
1.000000000000006
 50
43.29018595585617
 51
118.3007557660106
 73
     1
 72
     1
 10
166.9742675433085
 20
-40.57464007023503
 11
166.9384059981937
 21
-40.59395013298916
 72
     2
 10
167.4125058212289
 20
-41.47442123291131
 40
1.000000000000069
 50
118.3007557660163
 51
180.0
 73
     1
 72
     1
 10
166.4125058212289
 20
-41.47442123291131
 11
166.4125058212289
 21
-42.40020407443177
 72
     1
 10
166.4125058212289
 20
-42.40020407443177
 11
165.4125058212289
 21
-42.40020407443177
 72
     1
 10
165.4125058212289
 20
-42.40020407443177
 11
165.4125058212289
 21
-39.20020407443184
 72
     1
 10
165.4125058212289
 20
-39.20020407443184
 11
162.1125058212288
 21
-39.20020407443184
 72
     2
 10
162.1125058212288
 20
-40.40020407443177
 40
1.199999999999932
 50
90.0
 51
180.0
 73
     1
 72
     2
 10
162.1125058212288
 20
-40.40020407443177
 40
1.199999999999903
 50
180.0
 51
270.0
 73
     1
 72
     1
 10
162.1125058212288
 20
-41.60020407443182
 11
164.8125058212289
 21
-41.60020407443182
 72
     1
 10
164.8125058212289
 20
-41.60020407443182
 11
164.8125058212289
 21
-42.40020407443177
 72
     1
 10
164.8125058212289
 20
-42.40020407443177
 11
161.8125058212289
 21
-42.40020407443177
 72
     2
 10
161.8125058212289
 20
-40.40020407443177
 40
2.0
 50
90.0
 51
180.0
 73
     0
 72
     2
 10
161.8125058212289
 20
-40.40020407443177
 40
2.0
 50
180.0
 51
270.0
 73
     0
 72
     1
 10
161.8125058212289
 20
-38.40020407443177
 11
166.4125058212289
 21
-38.40020407443177
 72
     1
 10
166.4125058212289
 20
-38.40020407443177
 11
166.4125058212289
 21
-39.80020407443175
 72
     1
 10
166.4125058212289
 20
-39.80020407443175
 11
169.0125058212288
 21
-38.40020407443177
 72
     1
 10
169.0125058212288
 20
-38.40020407443177
 11
171.0125058212287
 21
-38.40020407443177
 97
       24
330
97
330
98
330
9E
330
147
330
146
330
A0
330
9D
330
9C
330
144
330
145
330
9B
330
9A
330
99
330
90
330
142
330
91
330
143
330
92
330
93
330
94
330
141
330
8F
330
95
330
96
 75
     1
 76
     0
 52
45.0
 41
0.1
 77
     0
 78
     1
 53
45.0
 43
0.0
 44
0.0
 45
-0.0707106781186548
 46
0.0707106781186548
 79
     0
 98
        1
 10
0.0
 20
0.0
  0
ENDBLK
  5
7C
330
79
100
AcDbEntity
  8
0
100
AcDbBlockEnd
  0
BLOCK
  5
34B
330
342
100
AcDbEntity
  8
0
100
AcDbBlockBegin
  2
*D3
 70
     1
 10
0.0
 20
0.0
 30
0.0
  3
*D3
  1

  0
LINE
  5
343
330
342
100
AcDbEntity
  8
1
  6
Continuous
 62
     2
100
AcDbLine
 10
43.1212542972828
 20
-60.50999447935391
 30
0.0
 11
35.12125429728282
 21
-60.50999447935391
 31
0.0
  0
LINE
  5
344
330
342
100
AcDbEntity
  8
1
  6
Continuous
 62
     2
100
AcDbLine
 10
43.1212542972828
 20
-56.50999447935827
 30
0.0
 11
43.1212542972828
 21
-61.00999447935391
 31
0.0
  0
LINE
  5
345
330
342
100
AcDbEntity
  8
1
  6
Continuous
 62
     2
100
AcDbLine
 10
35.12125429728282
 20
-53.46999447935833
 30
0.0
 11
35.12125429728282
 21
-61.00999447935391
 31
0.0
  0
LINE
  5
346
330
342
100
AcDbEntity
  8
1
 62
     2
100
AcDbLine
 10
43.1212542972828
 20
-60.50999447935391
 30
0.0
 11
42.2462542972828
 21
-60.74445002273114
 31
0.0
  0
LINE
  5
347
330
342
100
AcDbEntity
  8
1
 62
     2
100
AcDbLine
 10
43.1212542972828
 20
-60.50999447935391
 30
0.0
 11
42.2462542972828
 21
-60.27553893597668
 31
0.0
  0
LINE
  5
348
330
342
100
AcDbEntity
  8
1
 62
     2
100
AcDbLine
 10
35.12125429728282
 20
-60.50999447935391
 30
0.0
 11
35.99625429728282
 21
-60.27553893597668
 31
0.0
  0
LINE
  5
349
330
342
100
AcDbEntity
  8
1
 62
     2
100
AcDbLine
 10
35.12125429728282
 20
-60.50999447935391
 30
0.0
 11
35.99625429728282
 21
-60.74445002273114
 31
0.0
  0
MTEXT
  5
34A
330
342
100
AcDbEntity
  8
1
 62
     3
100
AcDbMText
 10
37.347260880721
 20
-60.00999696402402
 30
0.0
 40
1.25
 41
0.0
 71
     7
 72
     1
  1
\C3;(\C3;8\C3;)
  7
CONVERTER_13
 11
0.9999999999970619
 21
2.424068405545306E-6
 31
0.0
 73
     1
 44
0.45454545454545
  0
ENDBLK
  5
34C
330
342
100
AcDbEntity
  8
0
100
AcDbBlockEnd
  0
BLOCK
  5
34E
330
34D
100
AcDbEntity
  8
0
100
AcDbBlockBegin
  2
_OPEN30
 70
     0
 10
0.0
 20
0.0
 30
0.0
  3
_OPEN30
  1

  0
LINE
  5
350
330
34D
100
AcDbEntity
  8
0
  6
ByBlock
 62
     0
370
    -2
100
AcDbLine
 10
-1.0
 20
0.267949
 30
0.0
 11
0.0
 21
0.0
 31
0.0
  0
LINE
  5
351
330
34D
100
AcDbEntity
  8
0
  6
ByBlock
 62
     0
370
    -2
100
AcDbLine
 10
0.0
 20
0.0
 30
0.0
 11
-1.0
 21
-0.267949
 31
0.0
  0
LINE
  5
352
330
34D
100
AcDbEntity
  8
0
  6
ByBlock
 62
     0
370
    -2
100
AcDbLine
 10
0.0
 20
0.0
 30
0.0
 11
-1.0
 21
0.0
 31
0.0
  0
ENDBLK
  5
34F
330
34D
100
AcDbEntity
  8
0
100
AcDbBlockEnd
  0
BLOCK
  5
35E
330
355
100
AcDbEntity
  8
0
100
AcDbBlockBegin
  2
*D5
 70
     1
 10
0.0
 20
0.0
 30
0.0
  3
*D5
  1

  0
LINE
  5
356
330
355
100
AcDbEntity
  8
1
  6
Continuous
 62
     2
100
AcDbLine
 10
62.15499999999837
 20
-80.60000032670791
 30
0.0
 11
74.15499999999835
 21
-80.60000032670791
 31
0.0
  0
LINE
  5
357
330
355
100
AcDbEntity
  8
1
  6
Continuous
 62
     2
100
AcDbLine
 10
62.15499999999837
 20
-87.69890265766395
 30
0.0
 11
62.15499999999837
 21
-80.10000032670791
 31
0.0
  0
LINE
  5
358
330
355
100
AcDbEntity
  8
1
  6
Continuous
 62
     2
100
AcDbLine
 10
74.15499999999835
 20
-87.69890265766395
 30
0.0
 11
74.15499999999835
 21
-80.10000032670791
 31
0.0
  0
LINE
  5
359
330
355
100
AcDbEntity
  8
1
 62
     2
100
AcDbLine
 10
62.15499999999837
 20
-80.60000032670791
 30
0.0
 11
63.02999999999837
 21
-80.36554478333068
 31
0.0
  0
LINE
  5
35A
330
355
100
AcDbEntity
  8
1
 62
     2
100
AcDbLine
 10
62.15499999999837
 20
-80.60000032670791
 30
0.0
 11
63.02999999999837
 21
-80.83445587008515
 31
0.0
  0
LINE
  5
35B
330
355
100
AcDbEntity
  8
1
 62
     2
100
AcDbLine
 10
74.15499999999835
 20
-80.60000032670791
 30
0.0
 11
73.27999999999835
 21
-80.83445587008515
 31
0.0
  0
LINE
  5
35C
330
355
100
AcDbEntity
  8
1
 62
     2
100
AcDbLine
 10
74.15499999999835
 20
-80.60000032670791
 30
0.0
 11
73.27999999999835
 21
-80.36554478333068
 31
0.0
  0
MTEXT
  5
35D
330
355
100
AcDbEntity
  8
1
 62
     3
100
AcDbMText
 10
64.80945842220709
 20
-80.10000032670791
 30
0.0
 40
1.25
 41
0.0
 71
     7
 72
     1
  1
\C3;12\C3;(HEX)
  7
CONVERTER_13
 11
0.9999999999970619
 21
2.424068405545306E-6
 31
0.0
 73
     1
 44
0.45454545454545
  0
ENDBLK
  5
35F
330
355
100
AcDbEntity
  8
0
100
AcDbBlockEnd
  0
BLOCK
  5
36B
330
362
100
AcDbEntity
  8
0
100
AcDbBlockBegin
  2
*D6
 70
     1
 10
0.0
 20
0.0
 30
0.0
  3
*D6
  1

  0
LINE
  5
363
330
362
100
AcDbEntity
  8
1
  6
Continuous
 62
     2
100
AcDbLine
 10
59.62125429728284
 20
-43.00999447935827
 30
0.0
 11
59.62125429728284
 21
-56.00999447935827
 31
0.0
  0
LINE
  5
364
330
362
100
AcDbEntity
  8
1
  6
Continuous
 62
     2
100
AcDbLine
 10
44.62125429728283
 20
-43.00999447935827
 30
0.0
 11
60.12125429728284
 21
-43.00999447935827
 31
0.0
  0
LINE
  5
365
330
362
100
AcDbEntity
  8
1
  6
Continuous
 62
     2
100
AcDbLine
 10
44.62125429728283
 20
-56.00999447935827
 30
0.0
 11
60.12125429728284
 21
-56.00999447935827
 31
0.0
  0
LINE
  5
366
330
362
100
AcDbEntity
  8
1
 62
     2
100
AcDbLine
 10
59.62125429728284
 20
-43.00999447935827
 30
0.0
 11
59.85570984066007
 21
-43.88499447935827
 31
0.0
  0
LINE
  5
367
330
362
100
AcDbEntity
  8
1
 62
     2
100
AcDbLine
 10
59.62125429728284
 20
-43.00999447935827
 30
0.0
 11
59.38679875390561
 21
-43.88499447935827
 31
0.0
  0
LINE
  5
368
330
362
100
AcDbEntity
  8
1
 62
     2
100
AcDbLine
 10
59.62125429728284
 20
-56.00999447935827
 30
0.0
 11
59.38679875390561
 21
-55.13499447935827
 31
0.0
  0
LINE
  5
369
330
362
100
AcDbEntity
  8
1
 62
     2
100
AcDbLine
 10
59.62125429728284
 20
-56.00999447935827
 30
0.0
 11
59.85570984066007
 21
-55.13499447935827
 31
0.0
  0
MTEXT
  5
36A
330
362
100
AcDbEntity
  8
1
 62
     3
100
AcDbMText
 10
59.12125429728284
 20
-50.33681548520747
 30
0.0
 40
1.25
 41
0.0
 71
     7
 72
     1
  1
\C3;{\Fgdt;n}\C3;13
  7
CONVERTER_13
 11
0.0
 21
1.0
 31
0.0
 73
     1
 44
0.45454545454545
  0
ENDBLK
  5
36C
330
362
100
AcDbEntity
  8
0
100
AcDbBlockEnd
  0
BLOCK
  5
37A
330
36F
100
AcDbEntity
  8
0
100
AcDbBlockBegin
  2
*D7
 70
     1
 10
0.0
 20
0.0
 30
0.0
  3
*D7
  1

  0
LINE
  5
370
330
36F
100
AcDbEntity
  8
1
  6
Continuous
 62
     2
100
AcDbLine
 10
41.37125429728281
 20
-64.5099944793539
 30
0.0
 11
43.12125429728281
 21
-64.5099944793539
 31
0.0
  0
LINE
  5
371
330
36F
100
AcDbEntity
  8
1
  6
Continuous
 62
     2
100
AcDbLine
 10
43.12125429728281
 20
-64.5099944793539
 30
0.0
 11
44.12125429728283
 21
-64.5099944793539
 31
0.0
  0
LINE
  5
372
330
36F
100
AcDbEntity
  8
1
  6
Continuous
 62
     2
100
AcDbLine
 10
44.12125429728283
 20
-64.5099944793539
 30
0.0
 11
45.87125429728283
 21
-64.5099944793539
 31
0.0
  0
LINE
  5
373
330
36F
100
AcDbEntity
  8
1
  6
Continuous
 62
     2
100
AcDbLine
 10
43.12125429728281
 20
-56.50999447935827
 30
0.0
 11
43.12125429728281
 21
-65.0099944793539
 31
0.0
  0
LINE
  5
374
330
36F
100
AcDbEntity
  8
1
  6
Continuous
 62
     2
100
AcDbLine
 10
44.12125429728283
 20
-56.50999447935827
 30
0.0
 11
44.12125429728283
 21
-65.0099944793539
 31
0.0
  0
LINE
  5
375
330
36F
100
AcDbEntity
  8
1
 62
     2
100
AcDbLine
 10
43.12125429728281
 20
-64.5099944793539
 30
0.0
 11
42.24625429728281
 21
-64.74445002273114
 31
0.0
  0
LINE
  5
376
330
36F
100
AcDbEntity
  8
1
 62
     2
100
AcDbLine
 10
43.12125429728281
 20
-64.5099944793539
 30
0.0
 11
42.24625429728281
 21
-64.27553893597667
 31
0.0
  0
LINE
  5
377
330
36F
100
AcDbEntity
  8
1
 62
     2
100
AcDbLine
 10
44.12125429728283
 20
-64.5099944793539
 30
0.0
 11
44.99625429728283
 21
-64.27553893597667
 31
0.0
  0
LINE
  5
378
330
36F
100
AcDbEntity
  8
1
 62
     2
100
AcDbLine
 10
44.12125429728283
 20
-64.5099944793539
 30
0.0
 11
44.99625429728283
 21
-64.74445002273114
 31
0.0
  0
MTEXT
  5
379
330
36F
100
AcDbEntity
  8
1
 62
     3
100
AcDbMText
 10
43.42304632579273
 20
-64.0099944793539
 30
0.0
 40
1.25
 41
0.0
 71
     7
 72
     1
  1
1
  7
CONVERTER_13
 11
0.9999999999970619
 21
2.424068405545306E-6
 31
0.0
 73
     1
 44
0.45454545454545
  0
ENDBLK
  5
37B
330
36F
100
AcDbEntity
  8
0
100
AcDbBlockEnd
  0
BLOCK
  5
387
330
37E
100
AcDbEntity
  8
0
100
AcDbBlockBegin
  2
*D8
 70
     1
 10
0.0
 20
0.0
 30
0.0
  3
*D8
  1

  0
LINE
  5
37F
330
37E
100
AcDbEntity
  8
1
  6
Continuous
 62
     2
100
AcDbLine
 10
55.12125429728286
 20
-68.5099944793539
 30
0.0
 11
31.42125429728286
 21
-68.5099944793539
 31
0.0
  0
LINE
  5
380
330
37E
100
AcDbEntity
  8
1
  6
Continuous
 62
     2
100
AcDbLine
 10
31.42125429728286
 20
-50.00925752570538
 30
0.0
 11
31.42125429728286
 21
-69.0099944793539
 31
0.0
  0
LINE
  5
381
330
37E
100
AcDbEntity
  8
1
  6
Continuous
 62
     2
100
AcDbLine
 10
55.12125429728286
 20
-54.7699944793585
 30
0.0
 11
55.12125429728286
 21
-69.0099944793539
 31
0.0
  0
LINE
  5
382
330
37E
100
AcDbEntity
  8
1
 62
     2
100
AcDbLine
 10
55.12125429728286
 20
-68.5099944793539
 30
0.0
 11
54.24625429728286
 21
-68.74445002273114
 31
0.0
  0
LINE
  5
383
330
37E
100
AcDbEntity
  8
1
 62
     2
100
AcDbLine
 10
55.12125429728286
 20
-68.5099944793539
 30
0.0
 11
54.24625429728286
 21
-68.27553893597667
 31
0.0
  0
LINE
  5
384
330
37E
100
AcDbEntity
  8
1
 62
     2
100
AcDbLine
 10
31.42125429728286
 20
-68.5099944793539
 30
0.0
 11
32.29625429728286
 21
-68.27553893597667
 31
0.0
  0
LINE
  5
385
330
37E
100
AcDbEntity
  8
1
 62
     2
100
AcDbLine
 10
31.42125429728286
 20
-68.5099944793539
 30
0.0
 11
32.29625429728286
 21
-68.74445002273114
 31
0.0
  0
MTEXT
  5
386
330
37E
100
AcDbEntity
  8
1
 62
     3
100
AcDbMText
 10
40.10493716491022
 20
-68.00999696402403
 30
0.0
 40
1.25
 41
0.0
 71
     7
 72
     1
  1
\C3;(\C3;23.7\C3;)
  7
CONVERTER_13
 11
0.9999999999970619
 21
2.424068405545306E-6
 31
0.0
 73
     1
 44
0.45454545454545
  0
ENDBLK
  5
388
330
37E
100
AcDbEntity
  8
0
100
AcDbBlockEnd
  0
BLOCK
  5
394
330
38B
100
AcDbEntity
  8
0
100
AcDbBlockBegin
  2
*D9
 70
     1
 10
0.0
 20
0.0
 30
0.0
  3
*D9
  1

  0
LINE
  5
38C
330
38B
100
AcDbEntity
  8
1
  6
Continuous
 62
     2
100
AcDbLine
 10
31.42125429728286
 20
-64.5099944793539
 30
0.0
 11
43.12125429728281
 21
-64.5099944793539
 31
0.0
  0
LINE
  5
38D
330
38B
100
AcDbEntity
  8
1
  6
Continuous
 62
     2
100
AcDbLine
 10
31.42125429728286
 20
-50.00925752570538
 30
0.0
 11
31.42125429728286
 21
-65.0099944793539
 31
0.0
  0
LINE
  5
38E
330
38B
100
AcDbEntity
  8
1
  6
Continuous
 62
     2
100
AcDbLine
 10
43.12125429728281
 20
-56.50999447935827
 30
0.0
 11
43.12125429728281
 21
-65.0099944793539
 31
0.0
  0
LINE
  5
38F
330
38B
100
AcDbEntity
  8
1
 62
     2
100
AcDbLine
 10
31.42125429728286
 20
-64.5099944793539
 30
0.0
 11
32.29625429728286
 21
-64.27553893597667
 31
0.0
  0
LINE
  5
390
330
38B
100
AcDbEntity
  8
1
 62
     2
100
AcDbLine
 10
31.42125429728286
 20
-64.5099944793539
 30
0.0
 11
32.29625429728286
 21
-64.74445002273114
 31
0.0
  0
LINE
  5
391
330
38B
100
AcDbEntity
  8
1
 62
     2
100
AcDbLine
 10
43.12125429728281
 20
-64.5099944793539
 30
0.0
 11
42.24625429728281
 21
-64.74445002273114
 31
0.0
  0
LINE
  5
392
330
38B
100
AcDbEntity
  8
1
 62
     2
100
AcDbLine
 10
43.12125429728281
 20
-64.5099944793539
 30
0.0
 11
42.24625429728281
 21
-64.27553893597667
 31
0.0
  0
MTEXT
  5
393
330
38B
100
AcDbEntity
  8
1
 62
     3
100
AcDbMText
 10
35.41929325313251
 20
-64.00999696402403
 30
0.0
 40
1.25
 41
0.0
 71
     7
 72
     1
  1
\C3;(\C3;11.7\C3;)
  7
CONVERTER_13
 11
0.9999999999970619
 21
2.424068405545306E-6
 31
0.0
 73
     1
 44
0.45454545454545
  0
ENDBLK
  5
395
330
38B
100
AcDbEntity
  8
0
100
AcDbBlockEnd
  0
BLOCK
  5
3A3
330
398
100
AcDbEntity
  8
0
100
AcDbBlockBegin
  2
*D10
 70
     1
 10
0.0
 20
0.0
 30
0.0
  3
*D10
  1

  0
LINE
  5
399
330
398
100
AcDbEntity
  8
1
  6
Continuous
 62
     2
100
AcDbLine
 10
26.92125429728286
 20
-47.25925752570538
 30
0.0
 11
26.92125429728286
 21
-49.00925752570538
 31
0.0
  0
LINE
  5
39A
330
398
100
AcDbEntity
  8
1
  6
Continuous
 62
     2
100
AcDbLine
 10
26.92125429728286
 20
-49.00925752570538
 30
0.0
 11
26.92125429728286
 21
-50.00925752570538
 31
0.0
  0
LINE
  5
39B
330
398
100
AcDbEntity
  8
1
  6
Continuous
 62
     2
100
AcDbLine
 10
26.92125429728286
 20
-50.00925752570538
 30
0.0
 11
26.92125429728286
 21
-51.75925752570538
 31
0.0
  0
LINE
  5
39C
330
398
100
AcDbEntity
  8
1
  6
Continuous
 62
     2
100
AcDbLine
 10
32.15125429728394
 20
-49.00925752570538
 30
0.0
 11
26.42125429728286
 21
-49.00925752570538
 31
0.0
  0
LINE
  5
39D
330
398
100
AcDbEntity
  8
1
  6
Continuous
 62
     2
100
AcDbLine
 10
32.15125429728394
 20
-50.00925752570538
 30
0.0
 11
26.42125429728286
 21
-50.00925752570538
 31
0.0
  0
LINE
  5
39E
330
398
100
AcDbEntity
  8
1
 62
     2
100
AcDbLine
 10
26.92125429728286
 20
-49.00925752570538
 30
0.0
 11
26.68679875390563
 21
-48.13425752570538
 31
0.0
  0
LINE
  5
39F
330
398
100
AcDbEntity
  8
1
 62
     2
100
AcDbLine
 10
26.92125429728286
 20
-49.00925752570538
 30
0.0
 11
27.15570984066009
 21
-48.13425752570538
 31
0.0
  0
LINE
  5
3A0
330
398
100
AcDbEntity
  8
1
 62
     2
100
AcDbLine
 10
26.92125429728286
 20
-50.00925752570538
 30
0.0
 11
27.15570984066009
 21
-50.88425752570538
 31
0.0
  0
LINE
  5
3A1
330
398
100
AcDbEntity
  8
1
 62
     2
100
AcDbLine
 10
26.92125429728286
 20
-50.00925752570538
 30
0.0
 11
26.68679875390563
 21
-50.88425752570538
 31
0.0
  0
MTEXT
  5
3A2
330
398
100
AcDbEntity
  8
1
 62
     3
100
AcDbMText
 10
26.42125429728286
 20
-49.71137365335405
 30
0.0
 40
1.25
 41
0.0
 71
     7
 72
     1
  1
1
  7
CONVERTER_13
 11
0.0
 21
1.0
 31
0.0
 73
     1
 44
0.45454545454545
  0
ENDBLK
  5
3A4
330
398
100
AcDbEntity
  8
0
100
AcDbBlockEnd
  0
BLOCK
  5
3B2
330
3A7
100
AcDbEntity
  8
0
100
AcDbBlockBegin
  2
*D11
 70
     1
 10
0.0
 20
0.0
 30
0.0
  3
*D11
  1

  0
LINE
  5
3A8
330
3A7
100
AcDbEntity
  8
1
  6
Continuous
 62
     2
100
AcDbLine
 10
22.92125429728286
 20
-52.25925752570538
 30
0.0
 11
22.92125429728286
 21
-50.50925752570538
 31
0.0
  0
LINE
  5
3A9
330
3A7
100
AcDbEntity
  8
1
  6
Continuous
 62
     2
100
AcDbLine
 10
22.92125429728286
 20
-50.50925752570538
 30
0.0
 11
22.92125429728286
 21
-48.50925752570538
 31
0.0
  0
LINE
  5
3AA
330
3A7
100
AcDbEntity
  8
1
  6
Continuous
 62
     2
100
AcDbLine
 10
22.92125429728286
 20
-48.50925752570538
 30
0.0
 11
22.92125429728286
 21
-46.75925752570538
 31
0.0
  0
LINE
  5
3AB
330
3A7
100
AcDbEntity
  8
1
  6
Continuous
 62
     2
100
AcDbLine
 10
31.95125429728273
 20
-50.50925752570538
 30
0.0
 11
22.42125429728286
 21
-50.50925752570538
 31
0.0
  0
LINE
  5
3AC
330
3A7
100
AcDbEntity
  8
1
  6
Continuous
 62
     2
100
AcDbLine
 10
31.95125429728273
 20
-48.50925752570538
 30
0.0
 11
22.42125429728286
 21
-48.50925752570538
 31
0.0
  0
LINE
  5
3AD
330
3A7
100
AcDbEntity
  8
1
 62
     2
100
AcDbLine
 10
22.92125429728286
 20
-50.50925752570538
 30
0.0
 11
23.15570984066009
 21
-51.38425752570538
 31
0.0
  0
LINE
  5
3AE
330
3A7
100
AcDbEntity
  8
1
 62
     2
100
AcDbLine
 10
22.92125429728286
 20
-50.50925752570538
 30
0.0
 11
22.68679875390563
 21
-51.38425752570538
 31
0.0
  0
LINE
  5
3AF
330
3A7
100
AcDbEntity
  8
1
 62
     2
100
AcDbLine
 10
22.92125429728286
 20
-48.50925752570538
 30
0.0
 11
22.68679875390563
 21
-47.63425752570538
 31
0.0
  0
LINE
  5
3B0
330
3A7
100
AcDbEntity
  8
1
 62
     2
100
AcDbLine
 10
22.92125429728286
 20
-48.50925752570538
 30
0.0
 11
23.15570984066009
 21
-47.63425752570538
 31
0.0
  0
MTEXT
  5
3B1
330
3A7
100
AcDbEntity
  8
1
 62
     3
100
AcDbMText
 10
22.42125429728286
 20
-49.88738415663347
 30
0.0
 40
1.25
 41
0.0
 71
     7
 72
     1
  1
2
  7
CONVERTER_13
 11
0.0
 21
1.0
 31
0.0
 73
     1
 44
0.45454545454545
  0
ENDBLK
  5
3B3
330
3A7
100
AcDbEntity
  8
0
100
AcDbBlockEnd
  0
BLOCK
  5
3BF
330
3B6
100
AcDbEntity
  8
0
100
AcDbBlockBegin
  2
*D12
 70
     1
 10
0.0
 20
0.0
 30
0.0
  3
*D12
  1

  0
LINE
  5
3B7
330
3B6
100
AcDbEntity
  8
1
  6
Continuous
 62
     2
100
AcDbLine
 10
33.50499999999836
 20
-80.65000032670766
 30
0.0
 11
46.50499999999836
 21
-80.65000032670766
 31
0.0
  0
LINE
  5
3B8
330
3B6
100
AcDbEntity
  8
1
  6
Continuous
 62
     2
100
AcDbLine
 10
33.50499999999836
 20
-91.15000032670766
 30
0.0
 11
33.50499999999836
 21
-80.15000032670766
 31
0.0
  0
LINE
  5
3B9
330
3B6
100
AcDbEntity
  8
1
  6
Continuous
 62
     2
100
AcDbLine
 10
46.50499999999836
 20
-91.15000032670766
 30
0.0
 11
46.50499999999836
 21
-80.15000032670766
 31
0.0
  0
LINE
  5
3BA
330
3B6
100
AcDbEntity
  8
1
 62
     2
100
AcDbLine
 10
33.50499999999836
 20
-80.65000032670766
 30
0.0
 11
34.37999999999836
 21
-80.41554478333042
 31
0.0
  0
LINE
  5
3BB
330
3B6
100
AcDbEntity
  8
1
 62
     2
100
AcDbLine
 10
33.50499999999836
 20
-80.65000032670766
 30
0.0
 11
34.37999999999836
 21
-80.88445587008489
 31
0.0
  0
LINE
  5
3BC
330
3B6
100
AcDbEntity
  8
1
 62
     2
100
AcDbLine
 10
46.50499999999836
 20
-80.65000032670766
 30
0.0
 11
45.62999999999836
 21
-80.88445587008489
 31
0.0
  0
LINE
  5
3BD
330
3B6
100
AcDbEntity
  8
1
 62
     2
100
AcDbLine
 10
46.50499999999836
 20
-80.65000032670766
 30
0.0
 11
45.62999999999836
 21
-80.41554478333042
 31
0.0
  0
MTEXT
  5
3BE
330
3B6
100
AcDbEntity
  8
1
 62
     3
100
AcDbMText
 10
39.15939381376641
 20
-80.15000281137777
 30
0.0
 40
1.25
 41
0.0
 71
     7
 72
     1
  1
\C3;{\Fgdt;n}\C3;13
  7
CONVERTER_13
 11
0.9999999999970619
 21
2.424068405545306E-6
 31
0.0
 73
     1
 44
0.45454545454545
  0
ENDBLK
  5
3C0
330
3B6
100
AcDbEntity
  8
0
100
AcDbBlockEnd
  0
BLOCK
  5
3CC
330
3C3
100
AcDbEntity
  8
0
100
AcDbBlockBegin
  2
*D13
 70
     1
 10
0.0
 20
0.0
 30
0.0
  3
*D13
  1

  0
LINE
  5
3C4
330
3C3
100
AcDbEntity
  8
1
  6
Continuous
 62
     2
100
AcDbLine
 10
1.90624920904858
 20
-60.50999447935391
 30
0.0
 11
12.06624920904872
 21
-60.50999447935391
 31
0.0
  0
LINE
  5
3C5
330
3C3
100
AcDbEntity
  8
1
  6
Continuous
 62
     2
100
AcDbLine
 10
1.90624920904858
 20
-50.00999447935833
 30
0.0
 11
1.90624920904858
 21
-61.00999447935391
 31
0.0
  0
LINE
  5
3C6
330
3C3
100
AcDbEntity
  8
1
  6
Continuous
 62
     2
100
AcDbLine
 10
12.06624920904872
 20
-52.87872242044885
 30
0.0
 11
12.06624920904872
 21
-61.00999447935391
 31
0.0
  0
LINE
  5
3C7
330
3C3
100
AcDbEntity
  8
1
 62
     2
100
AcDbLine
 10
1.90624920904858
 20
-60.50999447935391
 30
0.0
 11
2.78124920904858
 21
-60.27553893597668
 31
0.0
  0
LINE
  5
3C8
330
3C3
100
AcDbEntity
  8
1
 62
     2
100
AcDbLine
 10
1.90624920904858
 20
-60.50999447935391
 30
0.0
 11
2.78124920904858
 21
-60.74445002273114
 31
0.0
  0
LINE
  5
3C9
330
3C3
100
AcDbEntity
  8
1
 62
     2
100
AcDbLine
 10
12.06624920904872
 20
-60.50999447935391
 30
0.0
 11
11.19124920904872
 21
-60.74445002273114
 31
0.0
  0
LINE
  5
3CA
330
3C3
100
AcDbEntity
  8
1
 62
     2
100
AcDbLine
 10
12.06624920904872
 20
-60.50999447935391
 30
0.0
 11
11.19124920904872
 21
-60.27553893597668
 31
0.0
  0
MTEXT
  5
3CB
330
3C3
100
AcDbEntity
  8
1
 62
     3
100
AcDbMText
 10
2.19159727978099
 20
-60.00999447935391
 30
0.0
 40
1.25
 41
0.0
 71
     7
 72
     1
  1
\C3;10.16\C3;(Dｶｯﾄ)
  7
CONVERTER_13
 11
0.9999999999970619
 21
2.424068405545306E-6
 31
0.0
 73
     1
 44
0.45454545454545
  0
ENDBLK
  5
3CD
330
3C3
100
AcDbEntity
  8
0
100
AcDbBlockEnd
  0
BLOCK
  5
3D9
330
3D0
100
AcDbEntity
  8
0
100
AcDbBlockBegin
  2
*D14
 70
     1
 10
0.0
 20
0.0
 30
0.0
  3
*D14
  1

  0
LINE
  5
3D1
330
3D0
100
AcDbEntity
  8
1
  6
Continuous
 62
     2
100
AcDbLine
 10
1.74124920904833
 20
-81.65000032670766
 30
0.0
 11
11.94124920904832
 21
-81.65000032670766
 31
0.0
  0
LINE
  5
3D2
330
3D0
100
AcDbEntity
  8
1
  6
Continuous
 62
     2
100
AcDbLine
 10
1.74124920904833
 20
-91.15000032670766
 30
0.0
 11
1.74124920904833
 21
-81.15000032670766
 31
0.0
  0
LINE
  5
3D3
330
3D0
100
AcDbEntity
  8
1
  6
Continuous
 62
     2
100
AcDbLine
 10
11.94124920904832
 20
-87.80037348181881
 30
0.0
 11
11.94124920904832
 21
-81.15000032670766
 31
0.0
  0
LINE
  5
3D4
330
3D0
100
AcDbEntity
  8
1
 62
     2
100
AcDbLine
 10
1.74124920904833
 20
-81.65000032670766
 30
0.0
 11
2.61624920904833
 21
-81.41554478333042
 31
0.0
  0
LINE
  5
3D5
330
3D0
100
AcDbEntity
  8
1
 62
     2
100
AcDbLine
 10
1.74124920904833
 20
-81.65000032670766
 30
0.0
 11
2.61624920904833
 21
-81.88445587008489
 31
0.0
  0
LINE
  5
3D6
330
3D0
100
AcDbEntity
  8
1
 62
     2
100
AcDbLine
 10
11.94124920904832
 20
-81.65000032670766
 30
0.0
 11
11.06624920904832
 21
-81.88445587008489
 31
0.0
  0
LINE
  5
3D7
330
3D0
100
AcDbEntity
  8
1
 62
     2
100
AcDbLine
 10
11.94124920904832
 20
-81.65000032670766
 30
0.0
 11
11.06624920904832
 21
-81.41554478333042
 31
0.0
  0
MTEXT
  5
3D8
330
3D0
100
AcDbEntity
  8
1
 62
     3
100
AcDbMText
 10
4.34912238028088
 20
-80.68125032670766
 30
0.0
 40
1.25
 41
0.0
 71
     7
 72
     1
  1
\C3;10.2\C3;\H0.875;\S+0.1^  0;
  7
CONVERTER_13
 11
0.9999999999970619
 21
2.424068405545306E-6
 31
0.0
 73
     1
 44
0.45454545454545
  0
ENDBLK
  5
3DA
330
3D0
100
AcDbEntity
  8
0
100
AcDbBlockEnd
  0
BLOCK
  5
3E3
330
3DD
100
AcDbEntity
  8
0
100
AcDbBlockBegin
  2
*D15
 70
     1
 10
0.0
 20
0.0
 30
0.0
  3
*D15
  1

  0
LINE
  5
3DE
330
3DD
100
AcDbEntity
  8
1
  6
Continuous
 62
     2
100
AcDbLine
 10
10.42051459537331
 20
-86.88071828228908
 30
0.0
 11
13.74286640868552
 21
-81.65000032670766
 31
0.0
  0
LINE
  5
3DF
330
3DD
100
AcDbEntity
  8
1
  6
Continuous
 62
     2
100
AcDbLine
 10
13.74286640868552
 20
-81.65000032670766
 30
0.0
 11
24.05558112551841
 21
-81.65000032670766
 31
0.0
  0
LINE
  5
3E0
330
3DD
100
AcDbEntity
  8
1
 62
     2
100
AcDbLine
 10
10.42051459537331
 20
-86.88071828228908
 30
0.0
 11
10.69173983427435
 21
-86.01640857413848
 31
0.0
  0
LINE
  5
3E1
330
3DD
100
AcDbEntity
  8
1
 62
     2
100
AcDbLine
 10
10.42051459537331
 20
-86.88071828228908
 30
0.0
 11
11.08755739648442
 21
-86.26781673774367
 31
0.0
  0
MTEXT
  5
3E2
330
3DD
100
AcDbEntity
  8
1
 62
     3
100
AcDbMText
 10
16.90735687975122
 20
-81.15000281137777
 30
0.0
 40
1.25
 41
0.0
 71
     7
 72
     1
  1
\C3;{\Fgdt;n}\C3;\C3;11.3\C3;\H0.875;{\Fgdt;`}0.15
  7
CONVERTER_13
 11
0.9999999999970619
 21
2.424068405545306E-6
 31
0.0
 73
     1
 44
0.45454545454545
  0
ENDBLK
  5
3E4
330
3DD
100
AcDbEntity
  8
0
100
AcDbBlockEnd
  0
ENDSEC
  0
SECTION
  2
ENTITIES
  0
INSERT
  5
7D
330
1F
100
AcDbEntity
  8
1
100
AcDbBlockReference
  2
FRAME
 10
87.00625291061435
 20
-143.5200983195054
 30
0.0
 41
0.5
 42
0.5
 43
0.5
  0
POINT
  5
198
330
1F
100
AcDbEntity
  8
1
 62
   250
100
AcDbPoint
 10
31.42125429728286
 20
-49.50925752570538
 30
0.0
  0
POINT
  5
199
330
1F
100
AcDbEntity
  8
1
 62
     3
 60
     1
100
AcDbPoint
 10
1.74124920904833
 20
-91.65000032670766
 30
0.0
  0
POINT
  5
19A
330
1F
100
AcDbEntity
  8
1
 62
     3
 60
     1
100
AcDbPoint
 10
11.94124920904832
 20
-88.30037348181881
 30
0.0
  0
POINT
  5
19B
330
1F
100
AcDbEntity
  8
1
 62
     3
 60
     1
100
AcDbPoint
 10
11.94124920904832
 20
-94.9996271715965
 30
0.0
  0
LINE
  5
19C
330
1F
100
AcDbEntity
  8
0
  6
Continuous
 62
     3
100
AcDbLine
 10
62.15499999999837
 20
-95.10109799575135
 30
0.0
 11
62.15499999999837
 21
-88.19890265766395
 31
0.0
  0
LINE
  5
19D
330
1F
100
AcDbEntity
  8
0
  6
Continuous
 62
     3
100
AcDbLine
 10
68.15499999999835
 20
-98.57171074547546
 30
0.0
 11
62.16062293970248
 21
-95.11085553608855
 31
0.0
  0
LINE
  5
19E
330
1F
100
AcDbEntity
  8
0
  6
Continuous
 62
     3
100
AcDbLine
 10
62.16062293970667
 20
-88.18914511732255
 30
0.0
 11
68.15499999999835
 21
-84.72828990793985
 31
0.0
  0
LINE
  5
19F
330
1F
100
AcDbEntity
  8
0
  6
Continuous
 62
     3
100
AcDbLine
 10
74.15499999999835
 20
-88.19890265766395
 30
0.0
 11
74.15499999999835
 21
-95.10109799575135
 31
0.0
  0
LINE
  5
1A0
330
1F
100
AcDbEntity
  8
0
  6
Continuous
 62
     3
100
AcDbLine
 10
68.15499999999835
 20
-84.72828990793985
 30
0.0
 11
74.14937706029008
 21
-88.18914511732255
 31
0.0
  0
LINE
  5
1A1
330
1F
100
AcDbEntity
  8
0
  6
Continuous
 62
     3
100
AcDbLine
 10
74.14937706029164
 20
-95.11085553608996
 30
0.0
 11
68.15499999999835
 21
-98.57171074547546
 31
0.0
  0
LINE
  5
1A2
330
1F
100
AcDbEntity
  8
1
  6
DOT_CENTER
 62
     2
100
AcDbLine
 10
75.82499999999672
 20
-91.65000032670766
 30
0.0
 11
60.485
 21
-91.65000032670766
 31
0.0
  0
LINE
  5
1A3
330
1F
100
AcDbEntity
  8
1
  6
DOT_CENTER
 62
     2
100
AcDbLine
 10
68.15499999999835
 20
-83.98000032670926
 30
0.0
 11
68.15499999999835
 21
-99.32000032670595
 31
0.0
  0
LINE
  5
1A4
330
1F
100
AcDbEntity
  8
0
  6
Continuous
 62
     3
100
AcDbLine
 10
35.12125429728283
 20
-52.96999447935833
 30
0.0
 11
35.12125429728283
 21
-46.04999447935838
 31
0.0
  0
LINE
  5
1A5
330
1F
100
AcDbEntity
  8
0
  6
Continuous
 62
     3
100
AcDbLine
 10
36.12125429728283
 20
-53.7449944793584
 30
0.0
 11
36.38972217245575
 21
-54.2099944793581
 31
0.0
  0
LINE
  5
1A6
330
1F
100
AcDbEntity
  8
0
  6
Continuous
 62
     3
100
AcDbLine
 10
51.87125429728286
 20
-54.2699944793585
 30
0.0
 11
51.87125429728286
 21
-55.05999447935827
 31
0.0
  0
LINE
  5
1A7
330
1F
100
AcDbEntity
  8
0
  6
Continuous
 62
     3
100
AcDbLine
 10
49.89125429728284
 20
-54.2699944793585
 30
0.0
 11
49.89125429728284
 21
-55.05999447935827
 31
0.0
  0
LINE
  5
1A8
330
1F
100
AcDbEntity
  8
0
  6
Continuous
 62
     3
100
AcDbLine
 10
51.87125429728286
 20
-55.05999447935827
 30
0.0
 11
49.89125429728284
 21
-55.05999447935827
 31
0.0
  0
LINE
  5
1A9
330
1F
100
AcDbEntity
  8
0
  6
Continuous
 62
     3
100
AcDbLine
 10
36.12125429728283
 20
-53.7449944793584
 30
0.0
 11
36.12125429728283
 21
-53.50999447935827
 31
0.0
  0
LINE
  5
1AA
330
1F
100
AcDbEntity
  8
0
  6
Continuous
 62
     3
100
AcDbLine
 10
44.12125429728283
 20
-49.50999447935827
 30
0.0
 11
44.12125429728283
 21
-44.74999447935805
 31
0.0
  0
LINE
  5
1AB
330
1F
100
AcDbEntity
  8
0
  6
Continuous
 62
     3
100
AcDbLine
 10
55.12125429728286
 20
-49.50999447935827
 30
0.0
 11
55.12125429728286
 21
-44.74999447935805
 31
0.0
  0
LINE
  5
1AC
330
1F
100
AcDbEntity
  8
0
  6
Continuous
 62
     3
100
AcDbLine
 10
36.12125429728283
 20
-45.27499447935814
 30
0.0
 11
36.38972217245575
 21
-44.80999447935845
 31
0.0
  0
LINE
  5
1AD
330
1F
100
AcDbEntity
  8
0
  6
Continuous
 62
     3
100
AcDbLine
 10
55.12125429728286
 20
-44.74999447935805
 30
0.0
 11
51.87125429728286
 21
-44.74999447935805
 31
0.0
  0
LINE
  5
1AE
330
1F
100
AcDbEntity
  8
0
  6
Continuous
 62
     3
100
AcDbLine
 10
36.12125429728275
 20
-48.11887083280644
 30
0.0
 11
36.12125429728283
 21
-45.50999447935827
 31
0.0
  0
LINE
  5
1AF
330
1F
100
AcDbEntity
  8
0
  6
Continuous
 62
     3
100
AcDbLine
 10
36.12125429728283
 20
-45.50999447935827
 30
0.0
 11
36.12125429728283
 21
-45.27499447935814
 31
0.0
  0
LINE
  5
1B0
330
1F
100
AcDbEntity
  8
0
  6
Continuous
 62
     3
100
AcDbLine
 10
49.89125429728284
 20
-44.74999447935805
 30
0.0
 11
44.12125429728283
 21
-44.74999447935805
 31
0.0
  0
LINE
  5
1B1
330
1F
100
AcDbEntity
  8
0
  6
Continuous
 62
     3
100
AcDbLine
 10
43.12125429728281
 20
-54.2099944793581
 30
0.0
 11
43.12125429728281
 21
-52.37872242044885
 31
0.0
  0
LINE
  5
1B2
330
1F
100
AcDbEntity
  8
0
  6
Continuous
 62
     3
100
AcDbLine
 10
43.12125429728281
 20
-56.00999447935827
 30
0.0
 11
43.12125429728281
 21
-54.2099944793581
 31
0.0
  0
LINE
  5
1B3
330
1F
100
AcDbEntity
  8
0
  6
Continuous
 62
     3
100
AcDbLine
 10
44.12125429728283
 20
-44.74999447935805
 30
0.0
 11
44.12125429728283
 21
-43.00999447935827
 31
0.0
  0
LINE
  5
1B4
330
1F
100
AcDbEntity
  8
0
  6
Continuous
 62
     3
100
AcDbLine
 10
44.12125429728283
 20
-54.2699944793585
 30
0.0
 11
44.12125429728283
 21
-49.50999447935827
 31
0.0
  0
LINE
  5
1B5
330
1F
100
AcDbEntity
  8
0
  6
Continuous
 62
     3
100
AcDbLine
 10
44.12125429728283
 20
-56.00999447935827
 30
0.0
 11
44.12125429728283
 21
-54.2699944793585
 31
0.0
  0
LINE
  5
1B6
330
1F
100
AcDbEntity
  8
0
  6
Continuous
 62
     3
100
AcDbLine
 10
44.12125429728283
 20
-56.00999447935827
 30
0.0
 11
43.12125429728281
 21
-56.00999447935827
 31
0.0
  0
LINE
  5
1B7
330
1F
100
AcDbEntity
  8
0
  6
Continuous
 62
     3
100
AcDbLine
 10
44.12125429728283
 20
-43.00999447935827
 30
0.0
 11
43.12125429728281
 21
-43.00999447935827
 31
0.0
  0
LINE
  5
1B8
330
1F
100
AcDbEntity
  8
0
  6
Continuous
 62
     3
100
AcDbLine
 10
43.12125429728281
 20
-49.50999447935827
 30
0.0
 11
43.12125429728281
 21
-46.64126653826786
 31
0.0
  0
LINE
  5
1B9
330
1F
100
AcDbEntity
  8
0
  6
Continuous
 62
     3
100
AcDbLine
 10
55.12125429728286
 20
-54.2699944793585
 30
0.0
 11
55.12125429728286
 21
-49.50999447935827
 31
0.0
  0
LINE
  5
1BA
330
1F
100
AcDbEntity
  8
0
  6
Continuous
 62
     3
100
AcDbLine
 10
55.12125429728286
 20
-54.2699944793585
 30
0.0
 11
51.87125429728286
 21
-54.2699944793585
 31
0.0
  0
LINE
  5
1BB
330
1F
100
AcDbEntity
  8
0
  6
Continuous
 62
     3
100
AcDbLine
 10
49.89125429728284
 20
-54.2699944793585
 30
0.0
 11
44.12125429728283
 21
-54.2699944793585
 31
0.0
  0
LINE
  5
1BC
330
1F
100
AcDbEntity
  8
0
  6
Continuous
 62
     3
100
AcDbLine
 10
51.87125429728286
 20
-43.95999447935827
 30
0.0
 11
49.89125429728284
 21
-43.95999447935827
 31
0.0
  0
LINE
  5
1BD
330
1F
100
AcDbEntity
  8
0
  6
Continuous
 62
     3
100
AcDbLine
 10
51.87125429728286
 20
-43.95999447935827
 30
0.0
 11
51.87125429728286
 21
-44.74999447935805
 31
0.0
  0
LINE
  5
1BE
330
1F
100
AcDbEntity
  8
0
  6
Continuous
 62
     3
100
AcDbLine
 10
49.89125429728284
 20
-43.95999447935827
 30
0.0
 11
49.89125429728284
 21
-44.74999447935805
 31
0.0
  0
LINE
  5
1BF
330
1F
100
AcDbEntity
  8
0
  6
Continuous
 62
     3
100
AcDbLine
 10
36.12125429728283
 20
-53.50999447935827
 30
0.0
 11
36.12125429728283
 21
-50.9011181259101
 31
0.0
  0
LINE
  5
1C0
330
1F
100
AcDbEntity
  8
0
  6
Continuous
 62
     3
100
AcDbLine
 10
36.12125429728283
 20
-53.50999447935827
 30
0.0
 11
35.62625429728374
 21
-53.50999447935827
 31
0.0
  0
LINE
  5
1C1
330
1F
100
AcDbEntity
  8
0
  6
Continuous
 62
     3
100
AcDbLine
 10
36.12125429728283
 20
-45.50999447935827
 30
0.0
 11
35.62625429728374
 21
-45.50999447935827
 31
0.0
  0
LINE
  5
1C2
330
1F
100
AcDbEntity
  8
0
  6
Continuous
 62
     3
100
AcDbLine
 10
36.12125429728283
 20
-50.9011181259101
 30
0.0
 11
36.12125429728275
 21
-48.11887083280644
 31
0.0
  0
LINE
  5
1C3
330
1F
100
AcDbEntity
  8
0
  6
Continuous
 62
     3
100
AcDbLine
 10
35.12125429728283
 20
-50.50925752570538
 30
0.0
 11
32.45125429728273
 21
-50.50925752570538
 31
0.0
  0
LINE
  5
1C4
330
1F
100
AcDbEntity
  8
0
  6
Continuous
 62
     3
100
AcDbLine
 10
32.65125429728394
 20
-49.00925752570538
 30
0.0
 11
33.45125429728375
 21
-49.00925752570538
 31
0.0
  0
LINE
  5
1C5
330
1F
100
AcDbEntity
  8
0
  6
Continuous
 62
     3
100
AcDbLine
 10
33.45125429728375
 20
-50.00925752570538
 30
0.0
 11
32.65125429728394
 21
-50.00925752570538
 31
0.0
  0
LINE
  5
1C6
330
1F
100
AcDbEntity
  8
0
  6
Continuous
 62
     3
100
AcDbLine
 10
35.12125429728283
 20
-48.50925752570538
 30
0.0
 11
32.45125429728273
 21
-48.50925752570538
 31
0.0
  0
LINE
  5
1C7
330
1F
100
AcDbEntity
  8
0
  6
Continuous
 62
     3
100
AcDbLine
 10
41.97731176988465
 20
-95.91614452051432
 30
0.0
 11
42.37871668342037
 21
-96.61139822516637
 31
0.0
  0
LINE
  5
1C8
330
1F
100
AcDbEntity
  8
0
  6
Continuous
 62
     3
100
AcDbLine
 10
42.37871668342045
 20
-86.68860242824645
 30
0.0
 11
41.97731176988465
 21
-87.38385613289832
 31
0.0
  0
LINE
  5
1C9
330
1F
100
AcDbEntity
  8
0
  6
Continuous
 62
     3
100
AcDbLine
 10
40.42999999999846
 20
-96.3307454596945
 30
0.0
 11
40.42999999999846
 21
-97.13355528676652
 31
0.0
  0
LINE
  5
1CA
330
1F
100
AcDbEntity
  8
0
  6
Continuous
 62
     3
100
AcDbLine
 10
43.11483827663626
 20
-87.11360242824682
 30
0.0
 11
42.71343336310154
 21
-87.80885613289844
 31
0.0
  0
LINE
  5
1CB
330
1F
100
AcDbEntity
  8
0
  6
Continuous
 62
     3
100
AcDbLine
 10
37.29656663689546
 20
-87.80885613289831
 30
0.0
 11
36.89516172336066
 21
-87.11360242824664
 31
0.0
  0
LINE
  5
1CC
330
1F
100
AcDbEntity
  8
0
  6
Continuous
 62
     3
100
AcDbLine
 10
42.71343336310126
 20
-95.49114452051415
 30
0.0
 11
43.11483827663646
 21
-96.18639822516639
 31
0.0
  0
LINE
  5
1CD
330
1F
100
AcDbEntity
  8
0
  6
Continuous
 62
     3
100
AcDbLine
 10
43.84614419380755
 20
-94.35843368980863
 30
0.0
 11
44.54139789845816
 21
-94.75983860334422
 31
0.0
  0
LINE
  5
1CE
330
1F
100
AcDbEntity
  8
0
  6
Continuous
 62
     3
100
AcDbLine
 10
44.54139789845847
 20
-88.54016205006862
 30
0.0
 11
43.84614419380755
 21
-88.94156696360434
 31
0.0
  0
LINE
  5
1CF
330
1F
100
AcDbEntity
  8
0
  6
Continuous
 62
     3
100
AcDbLine
 10
36.16385580618955
 20
-88.94156696360437
 30
0.0
 11
35.46860210153837
 21
-88.54016205006842
 31
0.0
  0
LINE
  5
1D0
330
1F
100
AcDbEntity
  8
0
  6
Continuous
 62
     3
100
AcDbLine
 10
35.73885580618956
 20
-89.67768855682097
 30
0.0
 11
35.04360210153847
 21
-89.27628364328552
 31
0.0
  0
LINE
  5
1D1
330
1F
100
AcDbEntity
  8
0
  6
Continuous
 62
     3
100
AcDbLine
 10
34.52144503993846
 20
-91.22500032670655
 30
0.0
 11
35.32425486701057
 21
-91.22500032670655
 31
0.0
  0
LINE
  5
1D2
330
1F
100
AcDbEntity
  8
0
  6
Continuous
 62
     3
100
AcDbLine
 10
44.68574513298727
 20
-91.22500032670658
 30
0.0
 11
45.48855496005855
 21
-91.22500032670656
 31
0.0
  0
LINE
  5
1D3
330
1F
100
AcDbEntity
  8
0
  6
Continuous
 62
     3
100
AcDbLine
 10
44.96639789845877
 20
-89.2762836432859
 30
0.0
 11
44.27114419380764
 21
-89.6776885568213
 31
0.0
  0
LINE
  5
1D4
330
1F
100
AcDbEntity
  8
0
  6
Continuous
 62
     3
100
AcDbLine
 10
44.68574513298746
 20
-92.07500032670647
 30
0.0
 11
45.48855496005866
 21
-92.07500032670647
 31
0.0
  0
LINE
  5
1D5
330
1F
100
AcDbEntity
  8
0
  6
Continuous
 62
     3
100
AcDbLine
 10
35.46860210153865
 20
-94.7598386033444
 30
0.0
 11
36.16385580618955
 21
-94.3584336898086
 31
0.0
  0
LINE
  5
1D6
330
1F
100
AcDbEntity
  8
0
  6
Continuous
 62
     3
100
AcDbLine
 10
36.89516172336046
 20
-96.18639822516658
 30
0.0
 11
37.29656663689546
 21
-95.4911445205146
 31
0.0
  0
LINE
  5
1D7
330
1F
100
AcDbEntity
  8
0
  6
Continuous
 62
     3
100
AcDbLine
 10
44.27114419380696
 20
-93.6223120965923
 30
0.0
 11
44.96639789845956
 21
-94.02371701012748
 31
0.0
  0
LINE
  5
1D8
330
1F
100
AcDbEntity
  8
0
  6
Continuous
 62
     3
100
AcDbLine
 10
37.63128331657755
 20
-96.61139822516658
 30
0.0
 11
38.03268823011227
 21
-95.91614452051473
 31
0.0
  0
LINE
  5
1D9
330
1F
100
AcDbEntity
  8
0
  6
Continuous
 62
     3
100
AcDbLine
 10
39.57999999999855
 20
-96.33074545969454
 30
0.0
 11
39.57999999999855
 21
-97.13355528676622
 31
0.0
  0
LINE
  5
1DA
330
1F
100
AcDbEntity
  8
0
  6
Continuous
 62
     3
100
AcDbLine
 10
40.42999999999846
 20
-86.16644536664647
 30
0.0
 11
40.42999999999846
 21
-86.9692551937185
 31
0.0
  0
LINE
  5
1DB
330
1F
100
AcDbEntity
  8
0
  6
Continuous
 62
     3
100
AcDbLine
 10
39.57999999999855
 20
-86.16644536664649
 30
0.0
 11
39.57999999999855
 21
-86.96925519371845
 31
0.0
  0
LINE
  5
1DC
330
1F
100
AcDbEntity
  8
0
  6
Continuous
 62
     3
100
AcDbLine
 10
38.03268823011247
 20
-87.38385613289825
 30
0.0
 11
37.63128331657735
 21
-86.68860242824597
 31
0.0
  0
LINE
  5
1DD
330
1F
100
AcDbEntity
  8
0
  6
Continuous
 62
     3
100
AcDbLine
 10
35.04360210153787
 20
-94.02371701012781
 30
0.0
 11
35.73885580619025
 21
-93.62231209659262
 31
0.0
  0
LINE
  5
1DE
330
1F
100
AcDbEntity
  8
0
  6
Continuous
 62
     3
100
AcDbLine
 10
34.52144503993857
 20
-92.07500032670647
 30
0.0
 11
35.32425486701037
 21
-92.07500032670649
 31
0.0
  0
LINE
  5
1DF
330
1F
100
AcDbEntity
  8
1
  6
DOT_CENTER
 62
     2
100
AcDbLine
 10
48.45499999999827
 20
-91.65000032670766
 30
0.0
 11
31.55499999999835
 21
-91.65000032670766
 31
0.0
  0
LINE
  5
1E0
330
1F
100
AcDbEntity
  8
1
  6
DOT_CENTER
 62
     2
100
AcDbLine
 10
40.00499999999836
 20
-83.20000032670765
 30
0.0
 11
40.00499999999836
 21
-100.1000003267077
 31
0.0
  0
LINE
  5
1E1
330
1F
100
AcDbEntity
  8
0
  6
Continuous
 62
     3
100
AcDbLine
 10
35.6512542972817
 20
-31.61499027795365
 30
0.0
 11
35.6512542972817
 21
-28.40999027795363
 31
0.0
  0
LINE
  5
1E2
330
1F
100
AcDbEntity
  8
0
  6
Continuous
 62
     3
100
AcDbLine
 10
35.6512542972817
 20
-27.60999027795364
 30
0.0
 11
35.6512542972817
 21
-24.40499027795363
 31
0.0
  0
LINE
  5
1E3
330
1F
100
AcDbEntity
  8
0
  6
Continuous
 62
     3
100
AcDbLine
 10
35.6512542972817
 20
-27.60999027795364
 30
0.0
 11
35.6512542972817
 21
-28.40999027795363
 31
0.0
  0
LINE
  5
1E4
330
1F
100
AcDbEntity
  8
0
  6
Continuous
 62
     3
100
AcDbLine
 10
35.12125429728281
 20
-28.40999027795363
 30
0.0
 11
32.45125429728072
 21
-28.40999027795363
 31
0.0
  0
LINE
  5
1E5
330
1F
100
AcDbEntity
  8
0
  6
LONG_DASHED
 62
     2
100
AcDbLine
 10
32.45125429728072
 20
-28.40999027795363
 30
0.0
 11
32.45125429728072
 21
-27.60999027795364
 31
0.0
  0
LINE
  5
1E6
330
1F
100
AcDbEntity
  8
0
  6
Continuous
 62
     3
100
AcDbLine
 10
31.45125429728072
 20
-27.60999027795364
 30
0.0
 11
32.45125429728072
 21
-27.60999027795364
 31
0.0
  0
LINE
  5
1E7
330
1F
100
AcDbEntity
  8
0
  6
Continuous
 62
     3
100
AcDbLine
 10
31.45125429728072
 20
-28.40999027795363
 30
0.0
 11
31.45125429728072
 21
-27.60999027795364
 31
0.0
  0
LINE
  5
1E8
330
1F
100
AcDbEntity
  8
0
  6
Continuous
 62
     3
100
AcDbLine
 10
31.45125429728072
 20
-28.40999027795363
 30
0.0
 11
32.45125429728072
 21
-28.40999027795363
 31
0.0
  0
LINE
  5
1E9
330
1F
100
AcDbEntity
  8
0
  6
Continuous
 62
     3
100
AcDbLine
 10
35.6512542972817
 20
-27.60999027795364
 30
0.0
 11
35.6512542972817
 21
-28.40999027795363
 31
0.0
  0
LINE
  5
1EA
330
1F
100
AcDbEntity
  8
0
  6
Continuous
 62
     3
100
AcDbLine
 10
35.12125429728281
 20
-27.60999027795364
 30
0.0
 11
32.45125429728072
 21
-27.60999027795364
 31
0.0
  0
LINE
  5
1EB
330
1F
100
AcDbEntity
  8
0
  6
Continuous
 62
     3
100
AcDbLine
 10
35.27125429728242
 20
-31.60999027795363
 30
0.0
 11
35.6512542972817
 21
-32.00999027795363
 31
0.0
  0
LINE
  5
1EC
330
1F
100
AcDbEntity
  8
0
  6
Continuous
 62
     3
100
AcDbLine
 10
35.12125429728281
 20
-31.46999027795363
 30
0.0
 11
35.27125429728242
 21
-31.60999027795363
 31
0.0
  0
LINE
  5
1ED
330
1F
100
AcDbEntity
  8
0
  6
Continuous
 62
     3
100
AcDbLine
 10
35.6512542972817
 20
-31.61499027795365
 30
0.0
 11
35.6512542972817
 21
-28.40999027795363
 31
0.0
  0
LINE
  5
1EE
330
1F
100
AcDbEntity
  8
0
  6
Continuous
 62
     3
100
AcDbLine
 10
35.6512542972817
 20
-32.00999027795363
 30
0.0
 11
35.6512542972817
 21
-31.61499027795365
 31
0.0
  0
LINE
  5
1EF
330
1F
100
AcDbEntity
  8
0
  6
Continuous
 62
     3
100
AcDbLine
 10
35.27125429728242
 20
-24.40999027795365
 30
0.0
 11
35.6512542972817
 21
-24.00999027795363
 31
0.0
  0
LINE
  5
1F0
330
1F
100
AcDbEntity
  8
0
  6
Continuous
 62
     3
100
AcDbLine
 10
35.6512542972817
 20
-24.40499027795363
 30
0.0
 11
35.6512542972817
 21
-24.00999027795363
 31
0.0
  0
LINE
  5
1F1
330
1F
100
AcDbEntity
  8
0
  6
Continuous
 62
     3
100
AcDbLine
 10
35.12125429728281
 20
-24.54999027795365
 30
0.0
 11
35.27125429728242
 21
-24.40999027795365
 31
0.0
  0
LINE
  5
1F2
330
1F
100
AcDbEntity
  8
0
  6
Continuous
 62
     3
100
AcDbLine
 10
35.6512542972817
 20
-27.60999027795364
 30
0.0
 11
35.6512542972817
 21
-24.40499027795363
 31
0.0
  0
LINE
  5
1F3
330
1F
100
AcDbEntity
  8
0
  6
Continuous
 62
     3
100
AcDbLine
 10
35.6512542972817
 20
-27.60999027795364
 30
0.0
 11
35.6512542972817
 21
-28.40999027795363
 31
0.0
  0
LINE
  5
1F4
330
1F
100
AcDbEntity
  8
0
  6
Continuous
 62
     3
100
AcDbLine
 10
35.27125429728242
 20
-31.60999027795363
 30
0.0
 11
35.27125429728242
 21
-24.40999027795365
 31
0.0
  0
LINE
  5
1F5
330
1F
100
AcDbEntity
  8
0
  6
Continuous
 62
     3
100
AcDbLine
 10
35.12125429728281
 20
-31.46999027795363
 30
0.0
 11
35.12125429728281
 21
-24.54999027795365
 31
0.0
  0
LINE
  5
1F6
330
1F
100
AcDbEntity
  8
0
  6
Continuous
 62
     3
100
AcDbLine
 10
44.12125429728281
 20
-34.50999027795363
 30
0.0
 11
43.12125429728281
 21
-34.50999027795363
 31
0.0
  0
LINE
  5
1F7
330
1F
100
AcDbEntity
  8
0
  6
Continuous
 62
     3
100
AcDbLine
 10
43.12125429728281
 20
-34.50999027795363
 30
0.0
 11
43.12125429728281
 21
-32.68499027795397
 31
0.0
  0
LINE
  5
1F8
330
1F
100
AcDbEntity
  8
0
  6
Continuous
 62
     3
100
AcDbLine
 10
36.12125429728281
 20
-32.00999027795363
 30
0.0
 11
35.6512542972817
 21
-32.00999027795363
 31
0.0
  0
LINE
  5
1F9
330
1F
100
AcDbEntity
  8
0
  6
Continuous
 62
     3
100
AcDbLine
 10
35.6512542972817
 20
-31.61499027795365
 30
0.0
 11
35.6512542972817
 21
-28.40999027795363
 31
0.0
  0
LINE
  5
1FA
330
1F
100
AcDbEntity
  8
0
  6
Continuous
 62
     3
100
AcDbLine
 10
35.6512542972817
 20
-32.00999027795363
 30
0.0
 11
35.6512542972817
 21
-31.61499027795365
 31
0.0
  0
LINE
  5
1FB
330
1F
100
AcDbEntity
  8
0
  6
Continuous
 62
     3
100
AcDbLine
 10
44.12125429728281
 20
-34.50999027795363
 30
0.0
 11
44.12125429728281
 21
-32.76999027795341
 31
0.0
  0
LINE
  5
1FC
330
1F
100
AcDbEntity
  8
0
  6
Continuous
 62
     3
100
AcDbLine
 10
42.52125429728242
 20
-32.70999027795345
 30
0.0
 11
42.52125429728242
 21
-32.68499027795397
 31
0.0
  0
LINE
  5
1FD
330
1F
100
AcDbEntity
  8
0
  6
Continuous
 62
     3
100
AcDbLine
 10
42.52125429728242
 20
-32.70999027795345
 30
0.0
 11
36.3897221724557
 21
-32.70999027795345
 31
0.0
  0
LINE
  5
1FE
330
1F
100
AcDbEntity
  8
0
  6
Continuous
 62
     3
100
AcDbLine
 10
36.12125429728281
 20
-32.24499027795332
 30
0.0
 11
36.3897221724557
 21
-32.70999027795345
 31
0.0
  0
LINE
  5
1FF
330
1F
100
AcDbEntity
  8
0
  6
Continuous
 62
     3
100
AcDbLine
 10
36.12125429728281
 20
-32.24499027795332
 30
0.0
 11
36.12125429728281
 21
-32.00999027795363
 31
0.0
  0
LINE
  5
200
330
1F
100
AcDbEntity
  8
0
  6
Continuous
 62
     3
100
AcDbLine
 10
55.12125429728281
 20
-32.76999027795341
 30
0.0
 11
44.12125429728281
 21
-32.76999027795341
 31
0.0
  0
LINE
  5
201
330
1F
100
AcDbEntity
  8
0
  6
Continuous
 62
     3
100
AcDbLine
 10
36.12125429728281
 20
-23.77499027795396
 30
0.0
 11
36.3897221724557
 21
-23.30999027795383
 31
0.0
  0
LINE
  5
202
330
1F
100
AcDbEntity
  8
0
  6
Continuous
 62
     3
100
AcDbLine
 10
36.12125429728281
 20
-24.00999027795363
 30
0.0
 11
35.6512542972817
 21
-24.00999027795363
 31
0.0
  0
LINE
  5
203
330
1F
100
AcDbEntity
  8
0
  6
Continuous
 62
     3
100
AcDbLine
 10
43.12125429728281
 20
-22.52499027795396
 30
0.0
 11
42.52125429728242
 21
-22.52499027795396
 31
0.0
  0
LINE
  5
204
330
1F
100
AcDbEntity
  8
0
  6
Continuous
 62
     3
100
AcDbLine
 10
42.52125429728242
 20
-23.30999027795383
 30
0.0
 11
42.52125429728242
 21
-22.52499027795396
 31
0.0
  0
LINE
  5
205
330
1F
100
AcDbEntity
  8
0
  6
Continuous
 62
     3
100
AcDbLine
 10
42.52125429728242
 20
-23.30999027795383
 30
0.0
 11
36.3897221724557
 21
-23.30999027795383
 31
0.0
  0
LINE
  5
206
330
1F
100
AcDbEntity
  8
0
  6
Continuous
 62
     3
100
AcDbLine
 10
35.6512542972817
 20
-24.40499027795363
 30
0.0
 11
35.6512542972817
 21
-24.00999027795363
 31
0.0
  0
LINE
  5
207
330
1F
100
AcDbEntity
  8
0
  6
Continuous
 62
     3
100
AcDbLine
 10
43.12125429728281
 20
-32.68499027795397
 30
0.0
 11
43.12125429728281
 21
-22.52499027795396
 31
0.0
  0
LINE
  5
208
330
1F
100
AcDbEntity
  8
0
  6
Continuous
 62
     3
100
AcDbLine
 10
36.12125429728281
 20
-24.00999027795363
 30
0.0
 11
36.12125429728281
 21
-23.77499027795396
 31
0.0
  0
LINE
  5
209
330
1F
100
AcDbEntity
  8
0
  6
Continuous
 62
     3
100
AcDbLine
 10
35.6512542972817
 20
-27.60999027795364
 30
0.0
 11
35.6512542972817
 21
-24.40499027795363
 31
0.0
  0
LINE
  5
20A
330
1F
100
AcDbEntity
  8
0
  6
Continuous
 62
     3
100
AcDbLine
 10
35.6512542972817
 20
-27.60999027795364
 30
0.0
 11
35.6512542972817
 21
-28.40999027795363
 31
0.0
  0
LINE
  5
20B
330
1F
100
AcDbEntity
  8
0
  6
Continuous
 62
     3
100
AcDbLine
 10
42.52125429728242
 20
-32.68499027795397
 30
0.0
 11
42.52125429728242
 21
-23.30999027795383
 31
0.0
  0
LINE
  5
20C
330
1F
100
AcDbEntity
  8
0
  6
Continuous
 62
     3
100
AcDbLine
 10
44.12125429728281
 20
-21.50999027795363
 30
0.0
 11
43.12125429728281
 21
-21.50999027795363
 31
0.0
  0
LINE
  5
20D
330
1F
100
AcDbEntity
  8
0
  6
Continuous
 62
     3
100
AcDbLine
 10
43.12125429728281
 20
-22.52499027795396
 30
0.0
 11
43.12125429728281
 21
-21.50999027795363
 31
0.0
  0
LINE
  5
20E
330
1F
100
AcDbEntity
  8
0
  6
Continuous
 62
     3
100
AcDbLine
 10
44.12125429728281
 20
-32.76999027795341
 30
0.0
 11
44.12125429728283
 21
-23.24999027795346
 31
0.0
  0
LINE
  5
20F
330
1F
100
AcDbEntity
  8
0
  6
Continuous
 62
     3
100
AcDbLine
 10
44.12125429728283
 20
-23.24999027795346
 30
0.0
 11
44.12125429728281
 21
-21.50999027795363
 31
0.0
  0
LINE
  5
210
330
1F
100
AcDbEntity
  8
0
  6
Continuous
 62
     3
100
AcDbLine
 10
36.3897221724557
 20
-32.70999027795345
 30
0.0
 11
36.3897221724557
 21
-23.30999027795383
 31
0.0
  0
LINE
  5
211
330
1F
100
AcDbEntity
  8
0
  6
Continuous
 62
     3
100
AcDbLine
 10
43.12125429728281
 20
-32.68499027795397
 30
0.0
 11
42.52125429728242
 21
-32.68499027795397
 31
0.0
  0
LINE
  5
212
330
1F
100
AcDbEntity
  8
0
  6
Continuous
 62
     3
100
AcDbLine
 10
36.12125429728281
 20
-32.00999027795363
 30
0.0
 11
36.12125429728281
 21
-24.00999027795363
 31
0.0
  0
LINE
  5
213
330
1F
100
AcDbEntity
  8
0
  6
Continuous
 62
     3
100
AcDbLine
 10
55.12125429728281
 20
-32.76999027795341
 30
0.0
 11
55.12125429728286
 21
-23.24999027795346
 31
0.0
  0
LINE
  5
214
330
1F
100
AcDbEntity
  8
0
  6
Continuous
 62
     3
100
AcDbLine
 10
55.12125429728286
 20
-23.24999027795346
 30
0.0
 11
44.12125429728283
 21
-23.24999027795346
 31
0.0
  0
LINE
  5
215
330
1F
100
AcDbEntity
  8
1
  6
DOT_CENTER
 62
     2
100
AcDbLine
 10
56.2137127451786
 20
-28.00999027795368
 30
0.0
 11
29.84767260677322
 21
-28.00999027795356
 31
0.0
  0
LINE
  5
216
330
1F
100
AcDbEntity
  8
0
  6
Continuous
 62
     3
100
AcDbLine
 10
77.02125661218047
 20
-50.0866767060424
 30
0.0
 11
77.02125661218047
 21
-49.51146838666317
 31
0.0
  0
LINE
  5
217
330
1F
100
AcDbEntity
  8
0
  6
Continuous
 62
     3
100
AcDbLine
 10
77.02125661218047
 20
-50.51073143301119
 30
0.0
 11
77.02125661218047
 21
-50.26146838666344
 31
0.0
  0
LINE
  5
218
330
1F
100
AcDbEntity
  8
0
  6
Continuous
 62
     3
100
AcDbLine
 10
77.02125661218047
 20
-50.26146838666344
 30
0.0
 11
77.02125661218047
 21
-50.0866767060424
 31
0.0
  0
LINE
  5
219
330
1F
100
AcDbEntity
  8
0
  6
Continuous
 62
     3
100
AcDbLine
 10
76.22125661218034
 20
-50.0866767060424
 30
0.0
 11
76.22125661218034
 21
-49.51146838666317
 31
0.0
  0
LINE
  5
21A
330
1F
100
AcDbEntity
  8
0
  6
Continuous
 62
     3
100
AcDbLine
 10
76.22125661218034
 20
-50.51073143301119
 30
0.0
 11
76.22125661218034
 21
-50.26146838666344
 31
0.0
  0
LINE
  5
21B
330
1F
100
AcDbEntity
  8
0
  6
Continuous
 62
     3
100
AcDbLine
 10
76.22125661218034
 20
-50.26146838666344
 30
0.0
 11
76.22125661218034
 21
-50.0866767060424
 31
0.0
  0
LINE
  5
21C
330
1F
100
AcDbEntity
  8
0
  6
Continuous
 62
     3
100
AcDbLine
 10
77.02125661218047
 20
-48.75999447935827
 30
0.0
 11
77.02125661218047
 21
-48.51073143301119
 31
0.0
  0
LINE
  5
21D
330
1F
100
AcDbEntity
  8
0
  6
Continuous
 62
     3
100
AcDbLine
 10
77.02125661218047
 20
-48.93478615997897
 30
0.0
 11
77.02125661218047
 21
-48.75999447935827
 31
0.0
  0
LINE
  5
21E
330
1F
100
AcDbEntity
  8
0
  6
Continuous
 62
     3
100
AcDbLine
 10
76.22125661218034
 20
-48.75999447935827
 30
0.0
 11
76.22125661218034
 21
-48.51073143301119
 31
0.0
  0
LINE
  5
21F
330
1F
100
AcDbEntity
  8
0
  6
Continuous
 62
     3
100
AcDbLine
 10
76.22125661218034
 20
-48.93478615997897
 30
0.0
 11
76.22125661218034
 21
-48.75999447935827
 31
0.0
  0
LINE
  5
220
330
1F
100
AcDbEntity
  8
0
  6
Continuous
 62
     3
100
AcDbLine
 10
76.22125661218034
 20
-49.50999447935827
 30
0.0
 11
76.22125661218034
 21
-48.93478615997897
 31
0.0
  0
LINE
  5
221
330
1F
100
AcDbEntity
  8
0
  6
Continuous
 62
     3
100
AcDbLine
 10
76.22125661218034
 20
-49.51146838666317
 30
0.0
 11
76.22125661218034
 21
-49.50999447935827
 31
0.0
  0
LINE
  5
222
330
1F
100
AcDbEntity
  8
0
  6
Continuous
 62
     3
100
AcDbLine
 10
77.02125661218047
 20
-49.50999447935827
 30
0.0
 11
77.02125661218047
 21
-48.93478615997897
 31
0.0
  0
LINE
  5
223
330
1F
100
AcDbEntity
  8
0
  6
Continuous
 62
     3
100
AcDbLine
 10
77.02125661218047
 20
-49.51146838666317
 30
0.0
 11
77.02125661218047
 21
-49.50999447935827
 31
0.0
  0
LINE
  5
224
330
1F
100
AcDbEntity
  8
0
  6
Continuous
 62
     3
100
AcDbLine
 10
76.17125661218016
 20
-50.25999447935827
 30
0.0
 11
75.87125661218046
 21
-50.25999447935827
 31
0.0
  0
LINE
  5
225
330
1F
100
AcDbEntity
  8
0
  6
Continuous
 62
     3
100
AcDbLine
 10
76.17125661218016
 20
-50.25999447935827
 30
0.0
 11
76.17125661218016
 21
-50.55999447935848
 31
0.0
  0
LINE
  5
226
330
1F
100
AcDbEntity
  8
0
  6
Continuous
 62
     3
100
AcDbLine
 10
76.17125661218016
 20
-50.55999447935848
 30
0.0
 11
76.17125661218056
 21
-51.05999447935848
 31
0.0
  0
LINE
  5
227
330
1F
100
AcDbEntity
  8
0
  6
Continuous
 62
     3
100
AcDbLine
 10
77.07125661218025
 20
-51.05999447935848
 30
0.0
 11
76.17125661218056
 21
-51.05999447935848
 31
0.0
  0
LINE
  5
228
330
1F
100
AcDbEntity
  8
0
  6
Continuous
 62
     3
100
AcDbLine
 10
77.37125661218046
 20
-50.25999447935827
 30
0.0
 11
77.07125661218016
 21
-50.25999447935827
 31
0.0
  0
LINE
  5
229
330
1F
100
AcDbEntity
  8
0
  6
Continuous
 62
     3
100
AcDbLine
 10
77.07125661218025
 20
-51.05999447935848
 30
0.0
 11
77.07125661218016
 21
-50.55999447935848
 31
0.0
  0
LINE
  5
22A
330
1F
100
AcDbEntity
  8
0
  6
Continuous
 62
     3
100
AcDbLine
 10
77.07125661218016
 20
-50.55999447935848
 30
0.0
 11
77.07125661218016
 21
-50.25999447935827
 31
0.0
  0
LINE
  5
22B
330
1F
100
AcDbEntity
  8
0
  6
Continuous
 62
     3
100
AcDbLine
 10
77.07125661218016
 20
-48.75999447935827
 30
0.0
 11
77.07125661218016
 21
-48.4599944793585
 31
0.0
  0
LINE
  5
22C
330
1F
100
AcDbEntity
  8
0
  6
Continuous
 62
     3
100
AcDbLine
 10
77.07125661218016
 20
-48.4599944793585
 30
0.0
 11
77.07125661218025
 21
-47.9599944793585
 31
0.0
  0
LINE
  5
22D
330
1F
100
AcDbEntity
  8
0
  6
Continuous
 62
     3
100
AcDbLine
 10
76.17125661218056
 20
-47.9599944793585
 30
0.0
 11
77.07125661218025
 21
-47.9599944793585
 31
0.0
  0
LINE
  5
22E
330
1F
100
AcDbEntity
  8
0
  6
Continuous
 62
     3
100
AcDbLine
 10
76.17125661218056
 20
-47.9599944793585
 30
0.0
 11
76.17125661218016
 21
-48.4599944793585
 31
0.0
  0
LINE
  5
22F
330
1F
100
AcDbEntity
  8
0
  6
Continuous
 62
     3
100
AcDbLine
 10
75.87125661218046
 20
-48.75999447935827
 30
0.0
 11
76.17125661218016
 21
-48.75999447935827
 31
0.0
  0
LINE
  5
230
330
1F
100
AcDbEntity
  8
0
  6
Continuous
 62
     3
100
AcDbLine
 10
76.17125661218016
 20
-48.4599944793585
 30
0.0
 11
76.17125661218016
 21
-48.75999447935827
 31
0.0
  0
LINE
  5
231
330
1F
100
AcDbEntity
  8
0
  6
Continuous
 62
     3
100
AcDbLine
 10
77.07125661218016
 20
-48.75999447935827
 30
0.0
 11
77.37125661218046
 21
-48.75999447935827
 31
0.0
  0
LINE
  5
232
330
1F
100
AcDbEntity
  8
0
  6
Continuous
 62
     3
100
AcDbLine
 10
77.37125661218046
 20
-48.75999447935827
 30
0.0
 11
77.37125661218046
 21
-50.25999447935827
 31
0.0
  0
LINE
  5
233
330
1F
100
AcDbEntity
  8
0
  6
Continuous
 62
     3
100
AcDbLine
 10
75.87125661218046
 20
-50.25999447935827
 30
0.0
 11
75.87125661218046
 21
-48.75999447935827
 31
0.0
  0
LINE
  5
234
330
1F
100
AcDbEntity
  8
0
  6
Continuous
 62
     3
100
AcDbLine
 10
76.22125661218034
 20
-50.90075796145128
 30
0.0
 11
77.02125661218047
 21
-50.90075796145128
 31
0.0
  0
LINE
  5
235
330
1F
100
AcDbEntity
  8
0
  6
Continuous
 62
     3
100
AcDbLine
 10
76.22125661218034
 20
-50.90075796145128
 30
0.0
 11
76.22125661218034
 21
-50.58667670604287
 31
0.0
  0
LINE
  5
236
330
1F
100
AcDbEntity
  8
0
  6
Continuous
 62
     3
100
AcDbLine
 10
76.22125661218034
 20
-51.01073143301119
 30
0.0
 11
76.22125661218034
 21
-50.90075796145128
 31
0.0
  0
LINE
  5
237
330
1F
100
AcDbEntity
  8
0
  6
Continuous
 62
     3
100
AcDbLine
 10
76.22125661218034
 20
-51.01073143301119
 30
0.0
 11
77.02125661218047
 21
-51.01073143301119
 31
0.0
  0
LINE
  5
238
330
1F
100
AcDbEntity
  8
0
  6
LONG_DASHED
 62
     2
100
AcDbLine
 10
76.22125661218034
 20
-49.51146838666317
 30
0.0
 11
77.02125661218047
 21
-49.51146838666317
 31
0.0
  0
LINE
  5
239
330
1F
100
AcDbEntity
  8
0
  6
Continuous
 62
     3
100
AcDbLine
 10
76.22125661218034
 20
-50.0866767060424
 30
0.0
 11
77.02125661218047
 21
-50.0866767060424
 31
0.0
  0
LINE
  5
23A
330
1F
100
AcDbEntity
  8
0
  6
Continuous
 62
     3
100
AcDbLine
 10
77.02125661218047
 20
-50.0866767060424
 30
0.0
 11
77.02125661218047
 21
-49.51146838666317
 31
0.0
  0
LINE
  5
23B
330
1F
100
AcDbEntity
  8
0
  6
Continuous
 62
     3
100
AcDbLine
 10
77.02125661218047
 20
-50.51073143301119
 30
0.0
 11
77.02125661218047
 21
-50.26146838666344
 31
0.0
  0
LINE
  5
23C
330
1F
100
AcDbEntity
  8
0
  6
Continuous
 62
     3
100
AcDbLine
 10
77.02125661218047
 20
-50.51073143301119
 30
0.0
 11
77.02125661218047
 21
-50.58667670604287
 31
0.0
  0
LINE
  5
23D
330
1F
100
AcDbEntity
  8
0
  6
Continuous
 62
     3
100
AcDbLine
 10
77.02125661218047
 20
-50.26146838666344
 30
0.0
 11
77.02125661218047
 21
-50.0866767060424
 31
0.0
  0
LINE
  5
23E
330
1F
100
AcDbEntity
  8
0
  6
Continuous
 62
     3
100
AcDbLine
 10
76.22125661218034
 20
-50.0866767060424
 30
0.0
 11
76.22125661218034
 21
-49.51146838666317
 31
0.0
  0
LINE
  5
23F
330
1F
100
AcDbEntity
  8
0
  6
Continuous
 62
     3
100
AcDbLine
 10
76.22125661218034
 20
-50.51073143301119
 30
0.0
 11
76.22125661218034
 21
-50.26146838666344
 31
0.0
  0
LINE
  5
240
330
1F
100
AcDbEntity
  8
0
  6
Continuous
 62
     3
100
AcDbLine
 10
76.22125661218034
 20
-50.51073143301119
 30
0.0
 11
76.22125661218034
 21
-50.58667670604287
 31
0.0
  0
LINE
  5
241
330
1F
100
AcDbEntity
  8
0
  6
Continuous
 62
     3
100
AcDbLine
 10
76.22125661218034
 20
-50.26146838666344
 30
0.0
 11
76.22125661218034
 21
-50.0866767060424
 31
0.0
  0
LINE
  5
242
330
1F
100
AcDbEntity
  8
0
  6
Continuous
 62
     3
100
AcDbLine
 10
77.02125661218047
 20
-50.90075796145128
 30
0.0
 11
77.02125661218047
 21
-50.58667670604287
 31
0.0
  0
LINE
  5
243
330
1F
100
AcDbEntity
  8
0
  6
Continuous
 62
     3
100
AcDbLine
 10
77.02125661218047
 20
-51.01073143301119
 30
0.0
 11
77.02125661218047
 21
-50.90075796145128
 31
0.0
  0
LINE
  5
244
330
1F
100
AcDbEntity
  8
0
  6
Continuous
 62
     3
100
AcDbLine
 10
77.02125661218047
 20
-48.01073143301119
 30
0.0
 11
77.02125661218047
 21
-48.12070490457016
 31
0.0
  0
LINE
  5
245
330
1F
100
AcDbEntity
  8
0
  6
Continuous
 62
     3
100
AcDbLine
 10
77.02125661218047
 20
-48.43478615997897
 30
0.0
 11
77.02125661218047
 21
-48.12070490457016
 31
0.0
  0
LINE
  5
246
330
1F
100
AcDbEntity
  8
0
  6
Continuous
 62
     3
100
AcDbLine
 10
76.22125661218034
 20
-48.93478615997897
 30
0.0
 11
77.02125661218047
 21
-48.93478615997897
 31
0.0
  0
LINE
  5
247
330
1F
100
AcDbEntity
  8
0
  6
Continuous
 62
     3
100
AcDbLine
 10
77.02125661218047
 20
-48.43478615997897
 30
0.0
 11
77.02125661218047
 21
-48.51073143301119
 31
0.0
  0
LINE
  5
248
330
1F
100
AcDbEntity
  8
0
  6
Continuous
 62
     3
100
AcDbLine
 10
77.02125661218047
 20
-48.75999447935827
 30
0.0
 11
77.02125661218047
 21
-48.51073143301119
 31
0.0
  0
LINE
  5
249
330
1F
100
AcDbEntity
  8
0
  6
Continuous
 62
     3
100
AcDbLine
 10
77.02125661218047
 20
-48.93478615997897
 30
0.0
 11
77.02125661218047
 21
-48.75999447935827
 31
0.0
  0
LINE
  5
24A
330
1F
100
AcDbEntity
  8
0
  6
Continuous
 62
     3
100
AcDbLine
 10
76.22125661218034
 20
-48.75999447935827
 30
0.0
 11
76.22125661218034
 21
-48.51073143301119
 31
0.0
  0
LINE
  5
24B
330
1F
100
AcDbEntity
  8
0
  6
Continuous
 62
     3
100
AcDbLine
 10
76.22125661218034
 20
-48.43478615997897
 30
0.0
 11
76.22125661218034
 21
-48.51073143301119
 31
0.0
  0
LINE
  5
24C
330
1F
100
AcDbEntity
  8
0
  6
Continuous
 62
     3
100
AcDbLine
 10
76.22125661218034
 20
-48.93478615997897
 30
0.0
 11
76.22125661218034
 21
-48.75999447935827
 31
0.0
  0
LINE
  5
24D
330
1F
100
AcDbEntity
  8
0
  6
LONG_DASHED
 62
     2
100
AcDbLine
 10
76.22125661218034
 20
-49.50999447935827
 30
0.0
 11
77.02125661218047
 21
-49.50999447935827
 31
0.0
  0
LINE
  5
24E
330
1F
100
AcDbEntity
  8
0
  6
Continuous
 62
     3
100
AcDbLine
 10
76.22125661218034
 20
-48.01073143301119
 30
0.0
 11
77.02125661218047
 21
-48.01073143301119
 31
0.0
  0
LINE
  5
24F
330
1F
100
AcDbEntity
  8
0
  6
Continuous
 62
     3
100
AcDbLine
 10
76.22125661218034
 20
-48.12070490457016
 30
0.0
 11
77.02125661218047
 21
-48.12070490457016
 31
0.0
  0
LINE
  5
250
330
1F
100
AcDbEntity
  8
0
  6
Continuous
 62
     3
100
AcDbLine
 10
76.22125661218034
 20
-49.50999447935827
 30
0.0
 11
76.22125661218034
 21
-48.93478615997897
 31
0.0
  0
LINE
  5
251
330
1F
100
AcDbEntity
  8
0
  6
Continuous
 62
     3
100
AcDbLine
 10
76.22125661218034
 20
-49.51146838666317
 30
0.0
 11
76.22125661218034
 21
-49.50999447935827
 31
0.0
  0
LINE
  5
252
330
1F
100
AcDbEntity
  8
0
  6
Continuous
 62
     3
100
AcDbLine
 10
76.22125661218034
 20
-48.01073143301119
 30
0.0
 11
76.22125661218034
 21
-48.12070490457016
 31
0.0
  0
LINE
  5
253
330
1F
100
AcDbEntity
  8
0
  6
Continuous
 62
     3
100
AcDbLine
 10
76.22125661218034
 20
-48.43478615997897
 30
0.0
 11
76.22125661218034
 21
-48.12070490457016
 31
0.0
  0
LINE
  5
254
330
1F
100
AcDbEntity
  8
0
  6
Continuous
 62
     3
100
AcDbLine
 10
77.02125661218047
 20
-49.50999447935827
 30
0.0
 11
77.02125661218047
 21
-48.93478615997897
 31
0.0
  0
LINE
  5
255
330
1F
100
AcDbEntity
  8
0
  6
Continuous
 62
     3
100
AcDbLine
 10
77.02125661218047
 20
-49.51146838666317
 30
0.0
 11
77.02125661218047
 21
-49.50999447935827
 31
0.0
  0
LINE
  5
256
330
1F
100
AcDbEntity
  8
0
  6
Continuous
 62
     3
100
AcDbLine
 10
76.17125661218016
 20
-50.55999447935848
 30
0.0
 11
76.22125661218034
 21
-50.55999447935848
 31
0.0
  0
LINE
  5
257
330
1F
100
AcDbEntity
  8
0
  6
Continuous
 62
     3
100
AcDbLine
 10
77.02125661218047
 20
-50.55999447935848
 30
0.0
 11
77.07125661218016
 21
-50.55999447935848
 31
0.0
  0
LINE
  5
258
330
1F
100
AcDbEntity
  8
0
  6
Continuous
 62
     3
100
AcDbLine
 10
76.17125661218016
 20
-50.25999447935827
 30
0.0
 11
76.17125661218016
 21
-50.55999447935848
 31
0.0
  0
LINE
  5
259
330
1F
100
AcDbEntity
  8
0
  6
Continuous
 62
     3
100
AcDbLine
 10
77.07125661218016
 20
-50.55999447935848
 30
0.0
 11
77.07125661218016
 21
-50.25999447935827
 31
0.0
  0
LINE
  5
25A
330
1F
100
AcDbEntity
  8
0
  6
Continuous
 62
     3
100
AcDbLine
 10
77.07125661218016
 20
-48.4599944793585
 30
0.0
 11
77.02125661218047
 21
-48.4599944793585
 31
0.0
  0
LINE
  5
25B
330
1F
100
AcDbEntity
  8
0
  6
Continuous
 62
     3
100
AcDbLine
 10
76.22125661218034
 20
-48.4599944793585
 30
0.0
 11
76.17125661218016
 21
-48.4599944793585
 31
0.0
  0
LINE
  5
25C
330
1F
100
AcDbEntity
  8
0
  6
Continuous
 62
     3
100
AcDbLine
 10
77.07125661218016
 20
-48.75999447935827
 30
0.0
 11
77.07125661218016
 21
-48.4599944793585
 31
0.0
  0
LINE
  5
25D
330
1F
100
AcDbEntity
  8
0
  6
Continuous
 62
     3
100
AcDbLine
 10
76.17125661218016
 20
-48.4599944793585
 30
0.0
 11
76.17125661218016
 21
-48.75999447935827
 31
0.0
  0
LINE
  5
25E
330
1F
100
AcDbEntity
  8
0
  6
Continuous
 62
     3
100
AcDbLine
 10
77.07125661218016
 20
-50.25999447935827
 30
0.0
 11
77.07125661218016
 21
-48.75999447935827
 31
0.0
  0
LINE
  5
25F
330
1F
100
AcDbEntity
  8
0
  6
Continuous
 62
     3
100
AcDbLine
 10
76.17125661218016
 20
-48.75999447935827
 30
0.0
 11
76.17125661218016
 21
-50.25999447935827
 31
0.0
  0
LINE
  5
260
330
1F
100
AcDbEntity
  8
0
  6
Continuous
 62
     3
100
AcDbLine
 10
77.61125661218016
 20
-55.05999447935828
 30
0.0
 11
76.62125661217995
 21
-55.05999447935828
 31
0.0
  0
LINE
  5
261
330
1F
100
AcDbEntity
  8
0
  6
Continuous
 62
     3
100
AcDbLine
 10
77.61125661218016
 20
-54.16590470186024
 30
0.0
 11
77.61125661218016
 21
-55.05999447935828
 31
0.0
  0
LINE
  5
262
330
1F
100
AcDbEntity
  8
0
  6
Continuous
 62
     3
100
AcDbLine
 10
75.63125661218034
 20
-54.16590470186067
 30
0.0
 11
75.63125661217974
 21
-55.05999447935828
 31
0.0
  0
LINE
  5
263
330
1F
100
AcDbEntity
  8
0
  6
Continuous
 62
     3
100
AcDbLine
 10
76.62125661217995
 20
-55.05999447935828
 30
0.0
 11
75.63125661217974
 21
-55.05999447935828
 31
0.0
  0
LINE
  5
264
330
1F
100
AcDbEntity
  8
0
  6
Continuous
 62
     3
100
AcDbLine
 10
77.61125661218016
 20
-43.95999447935829
 30
0.0
 11
77.61125661218016
 21
-44.85408425685634
 31
0.0
  0
LINE
  5
265
330
1F
100
AcDbEntity
  8
0
  6
Continuous
 62
     3
100
AcDbLine
 10
77.61125661218016
 20
-43.95999447935829
 30
0.0
 11
76.62125661217995
 21
-43.95999447935829
 31
0.0
  0
LINE
  5
266
330
1F
100
AcDbEntity
  8
0
  6
Continuous
 62
     3
100
AcDbLine
 10
76.62125661217995
 20
-43.95999447935829
 30
0.0
 11
75.63125661217974
 21
-43.95999447935829
 31
0.0
  0
LINE
  5
267
330
1F
100
AcDbEntity
  8
0
  6
Continuous
 62
     3
100
AcDbLine
 10
75.63125661217974
 20
-43.95999447935829
 30
0.0
 11
75.63125661217974
 21
-44.85408425685654
 31
0.0
  0
LINE
  5
268
330
1F
100
AcDbEntity
  8
1
  6
DOT_CENTER
 62
     2
100
AcDbLine
 10
85.07125661218036
 20
-49.5099944793583
 30
0.0
 11
68.17125661218047
 21
-49.5099944793583
 31
0.0
  0
LINE
  5
269
330
1F
100
AcDbEntity
  8
1
  6
DOT_CENTER
 62
     2
100
AcDbLine
 10
76.62125661218046
 20
-41.0599944793583
 30
0.0
 11
76.62125661218046
 21
-57.95999447935829
 31
0.0
  0
LINE
  5
26A
330
1F
100
AcDbEntity
  8
1
  6
DOT_CENTER
 62
     2
100
AcDbLine
 10
76.62125661217995
 20
-53.86590470186006
 30
0.0
 11
76.62125661217995
 21
-55.35999447935828
 31
0.0
  0
LINE
  5
26B
330
1F
100
AcDbEntity
  8
1
  6
DOT_CENTER
 62
     2
100
AcDbLine
 10
76.62125661218046
 20
-43.65999447935829
 30
0.0
 11
76.62125661217995
 21
-45.15408425685654
 31
0.0
  0
LINE
  5
26C
330
1F
100
AcDbEntity
  8
0
  6
Continuous
 62
     3
100
AcDbLine
 10
42.52125429728242
 20
-44.80999447935854
 30
0.0
 11
36.38972217245575
 21
-44.80999447935845
 31
0.0
  0
LINE
  5
26D
330
1F
100
AcDbEntity
  8
0
  6
Continuous
 62
     3
100
AcDbLine
 10
42.52125429728242
 20
-54.20999447935816
 30
0.0
 11
36.38972217245575
 21
-54.2099944793581
 31
0.0
  0
LINE
  5
26E
330
1F
100
AcDbEntity
  8
0
  6
Continuous
 62
     3
100
AcDbLine
 10
43.12125429728281
 20
-44.02499447935867
 30
0.0
 11
42.52125429728242
 21
-44.02499447935867
 31
0.0
  0
LINE
  5
26F
330
1F
100
AcDbEntity
  8
0
  6
Continuous
 62
     3
100
AcDbLine
 10
42.52125429728242
 20
-46.64126653826786
 30
0.0
 11
42.52125429728242
 21
-44.80999447935854
 31
0.0
  0
LINE
  5
270
330
1F
100
AcDbEntity
  8
0
  6
Continuous
 62
     3
100
AcDbLine
 10
42.52125429728242
 20
-44.80999447935854
 30
0.0
 11
42.52125429728242
 21
-44.02499447935867
 31
0.0
  0
LINE
  5
271
330
1F
100
AcDbEntity
  8
0
  6
Continuous
 62
     3
100
AcDbLine
 10
42.52125429728242
 20
-54.20999447935816
 30
0.0
 11
42.52125429728242
 21
-52.37872242044885
 31
0.0
  0
LINE
  5
272
330
1F
100
AcDbEntity
  8
0
  6
Continuous
 62
     3
100
AcDbLine
 10
42.52125429728242
 20
-52.37872242044885
 30
0.0
 11
42.52125429728242
 21
-46.64126653826786
 31
0.0
  0
LINE
  5
273
330
1F
100
AcDbEntity
  8
0
  6
Continuous
 62
     3
100
AcDbLine
 10
42.52125429728242
 20
-54.99499447935801
 30
0.0
 11
42.52125429728242
 21
-54.20999447935816
 31
0.0
  0
LINE
  5
274
330
1F
100
AcDbEntity
  8
0
  6
Continuous
 62
     3
100
AcDbLine
 10
43.12125429728281
 20
-52.37872242044885
 30
0.0
 11
42.52125429728242
 21
-52.37872242044885
 31
0.0
  0
LINE
  5
275
330
1F
100
AcDbEntity
  8
0
  6
Continuous
 62
     3
100
AcDbLine
 10
43.12125429728281
 20
-54.99499447935801
 30
0.0
 11
42.52125429728242
 21
-54.99499447935801
 31
0.0
  0
LINE
  5
276
330
1F
100
AcDbEntity
  8
0
  6
Continuous
 62
     3
100
AcDbLine
 10
43.12125429728281
 20
-46.64126653826786
 30
0.0
 11
42.52125429728242
 21
-46.64126653826786
 31
0.0
  0
LINE
  5
277
330
1F
100
AcDbEntity
  8
0
  6
Continuous
 62
     3
100
AcDbLine
 10
36.3897221724557
 20
-49.50999447935833
 30
0.0
 11
36.38972217245575
 21
-44.80999447935845
 31
0.0
  0
LINE
  5
278
330
1F
100
AcDbEntity
  8
0
  6
Continuous
 62
     3
100
AcDbLine
 10
36.38972217245575
 20
-54.2099944793581
 30
0.0
 11
36.3897221724557
 21
-49.50999447935833
 31
0.0
  0
LINE
  5
279
330
1F
100
AcDbEntity
  8
0
  6
Continuous
 62
     3
100
AcDbLine
 10
35.12125429728283
 20
-52.96999447935833
 30
0.0
 11
35.27125429728191
 21
-53.10999447935789
 31
0.0
  0
LINE
  5
27A
330
1F
100
AcDbEntity
  8
0
  6
Continuous
 62
     3
100
AcDbLine
 10
35.27125429728191
 20
-53.10999447935789
 30
0.0
 11
35.6512542972817
 21
-53.50999447935833
 31
0.0
  0
LINE
  5
27B
330
1F
100
AcDbEntity
  8
0
  6
Continuous
 62
     3
100
AcDbLine
 10
35.27125429728191
 20
-53.10999447935789
 30
0.0
 11
35.27125429728242
 21
-45.90999447935836
 31
0.0
  0
LINE
  5
27C
330
1F
100
AcDbEntity
  8
0
  6
Continuous
 62
     3
100
AcDbLine
 10
35.6512542972817
 20
-53.11499447935834
 30
0.0
 11
35.6512542972817
 21
-50.51073143301123
 31
0.0
  0
LINE
  5
27D
330
1F
100
AcDbEntity
  8
0
  6
Continuous
 62
     3
100
AcDbLine
 10
35.6512542972817
 20
-50.51073143301123
 30
0.0
 11
35.6512542972817
 21
-49.50999447935833
 31
0.0
  0
LINE
  5
27E
330
1F
100
AcDbEntity
  8
0
  6
Continuous
 62
     3
100
AcDbLine
 10
35.6512542972817
 20
-49.50999447935833
 30
0.0
 11
35.6512542972817
 21
-48.51073143301123
 31
0.0
  0
LINE
  5
27F
330
1F
100
AcDbEntity
  8
0
  6
Continuous
 62
     3
100
AcDbLine
 10
35.6512542972817
 20
-48.51073143301123
 30
0.0
 11
35.6512542972817
 21
-45.90499447935831
 31
0.0
  0
LINE
  5
280
330
1F
100
AcDbEntity
  8
0
  6
Continuous
 62
     3
100
AcDbLine
 10
35.6512542972817
 20
-53.11499447935834
 30
0.0
 11
35.6512542972817
 21
-50.51073143301123
 31
0.0
  0
LINE
  5
281
330
1F
100
AcDbEntity
  8
0
  6
Continuous
 62
     3
100
AcDbLine
 10
35.6512542972817
 20
-53.50999447935833
 30
0.0
 11
35.6512542972817
 21
-53.11499447935834
 31
0.0
  0
LINE
  5
282
330
1F
100
AcDbEntity
  8
0
  6
Continuous
 62
     3
100
AcDbLine
 10
35.6512542972817
 20
-50.51073143301123
 30
0.0
 11
35.6512542972817
 21
-49.50999447935833
 31
0.0
  0
LINE
  5
283
330
1F
100
AcDbEntity
  8
0
  6
Continuous
 62
     3
100
AcDbLine
 10
35.6512542972817
 20
-49.50999447935833
 30
0.0
 11
35.6512542972817
 21
-48.51073143301123
 31
0.0
  0
LINE
  5
284
330
1F
100
AcDbEntity
  8
0
  6
Continuous
 62
     3
100
AcDbLine
 10
35.6512542972817
 20
-48.51073143301123
 30
0.0
 11
35.6512542972817
 21
-45.90499447935831
 31
0.0
  0
LINE
  5
285
330
1F
100
AcDbEntity
  8
0
  6
Continuous
 62
     3
100
AcDbLine
 10
35.6512542972817
 20
-45.90499447935831
 30
0.0
 11
35.6512542972817
 21
-45.50999447935833
 31
0.0
  0
LINE
  5
286
330
1F
100
AcDbEntity
  8
0
  6
Continuous
 62
     3
100
AcDbLine
 10
35.6512542972817
 20
-53.11499447935834
 30
0.0
 11
35.6512542972817
 21
-50.51073143301123
 31
0.0
  0
LINE
  5
287
330
1F
100
AcDbEntity
  8
0
  6
Continuous
 62
     3
100
AcDbLine
 10
35.6512542972817
 20
-53.50999447935833
 30
0.0
 11
35.6512542972817
 21
-53.11499447935834
 31
0.0
  0
LINE
  5
288
330
1F
100
AcDbEntity
  8
0
  6
Continuous
 62
     3
100
AcDbLine
 10
35.6512542972817
 20
-50.51073143301123
 30
0.0
 11
35.6512542972817
 21
-49.50999447935833
 31
0.0
  0
LINE
  5
289
330
1F
100
AcDbEntity
  8
0
  6
Continuous
 62
     3
100
AcDbLine
 10
35.6512542972817
 20
-49.50999447935833
 30
0.0
 11
35.6512542972817
 21
-48.51073143301123
 31
0.0
  0
LINE
  5
28A
330
1F
100
AcDbEntity
  8
0
  6
Continuous
 62
     3
100
AcDbLine
 10
35.6512542972817
 20
-48.51073143301123
 30
0.0
 11
35.6512542972817
 21
-45.90499447935831
 31
0.0
  0
LINE
  5
28B
330
1F
100
AcDbEntity
  8
0
  6
Continuous
 62
     3
100
AcDbLine
 10
35.6512542972817
 20
-45.90499447935831
 30
0.0
 11
35.6512542972817
 21
-45.50999447935833
 31
0.0
  0
LINE
  5
28C
330
1F
100
AcDbEntity
  8
0
  6
Continuous
 62
     3
100
AcDbLine
 10
35.6512542972817
 20
-50.51073143301123
 30
0.0
 11
35.6512542972817
 21
-49.50999447935833
 31
0.0
  0
LINE
  5
28D
330
1F
100
AcDbEntity
  8
0
  6
Continuous
 62
     3
100
AcDbLine
 10
35.6512542972817
 20
-49.50999447935833
 30
0.0
 11
35.6512542972817
 21
-48.51073143301123
 31
0.0
  0
LINE
  5
28E
330
1F
100
AcDbEntity
  8
0
  6
Continuous
 62
     3
100
AcDbLine
 10
35.27125429728242
 20
-45.90999447935836
 30
0.0
 11
35.6512542972817
 21
-45.50999447935833
 31
0.0
  0
LINE
  5
28F
330
1F
100
AcDbEntity
  8
0
  6
Continuous
 62
     3
100
AcDbLine
 10
35.12125429728283
 20
-46.04999447935838
 30
0.0
 11
35.27125429728242
 21
-45.90999447935836
 31
0.0
  0
LINE
  5
290
330
1F
100
AcDbEntity
  8
0
  6
Continuous
 62
     3
100
AcDbLine
 10
6.94124920904862
 20
-50.25999447935833
 30
0.0
 11
6.94124920904862
 21
-50.55999447935854
 31
0.0
  0
LINE
  5
291
330
1F
100
AcDbEntity
  8
0
  6
Continuous
 62
     3
100
AcDbLine
 10
6.94124920904862
 20
-48.45999447935854
 30
0.0
 11
6.94124920904862
 21
-48.75999447935833
 31
0.0
  0
LINE
  5
292
330
1F
100
AcDbEntity
  8
0
  6
Continuous
 62
     3
100
AcDbLine
 10
7.84124920904861
 20
-48.75999447935833
 30
0.0
 11
7.841249209048
 21
-48.45999447935807
 31
0.0
  0
LINE
  5
293
330
1F
100
AcDbEntity
  8
0
  6
Continuous
 62
     3
100
AcDbLine
 10
7.84124920904861
 20
-50.55999447935854
 30
0.0
 11
7.84124920904861
 21
-50.25999447935833
 31
0.0
  0
LINE
  5
294
330
1F
100
AcDbEntity
  8
0
  6
Continuous
 62
     3
100
AcDbLine
 10
7.841249209048
 20
-48.45999447935807
 30
0.0
 11
6.94124920904862
 21
-48.45999447935854
 31
0.0
  0
LINE
  5
295
330
1F
100
AcDbEntity
  8
0
  6
Continuous
 62
     3
100
AcDbLine
 10
6.94124920904862
 20
-50.55999447935854
 30
0.0
 11
7.84124920904861
 21
-50.55999447935854
 31
0.0
  0
LINE
  5
296
330
1F
100
AcDbEntity
  8
0
  6
Continuous
 62
     3
100
AcDbLine
 10
6.94124920904862
 20
-48.75999447935833
 30
0.0
 11
6.94124920904862
 21
-50.25999447935833
 31
0.0
  0
LINE
  5
297
330
1F
100
AcDbEntity
  8
0
  6
Continuous
 62
     3
100
AcDbLine
 10
6.94124920904862
 20
-50.25999447935833
 30
0.0
 11
6.94124920904862
 21
-50.55999447935854
 31
0.0
  0
LINE
  5
298
330
1F
100
AcDbEntity
  8
0
  6
Continuous
 62
     3
100
AcDbLine
 10
6.94124920904862
 20
-48.45999447935854
 30
0.0
 11
6.94124920904862
 21
-48.75999447935833
 31
0.0
  0
LINE
  5
299
330
1F
100
AcDbEntity
  8
0
  6
Continuous
 62
     3
100
AcDbLine
 10
7.84124920904861
 20
-50.25999447935833
 30
0.0
 11
7.84124920904861
 21
-48.75999447935833
 31
0.0
  0
LINE
  5
29A
330
1F
100
AcDbEntity
  8
0
  6
Continuous
 62
     3
100
AcDbLine
 10
7.84124920904861
 20
-48.75999447935833
 30
0.0
 11
7.841249209048
 21
-48.45999447935807
 31
0.0
  0
LINE
  5
29B
330
1F
100
AcDbEntity
  8
0
  6
Continuous
 62
     3
100
AcDbLine
 10
7.84124920904861
 20
-50.55999447935854
 30
0.0
 11
7.84124920904861
 21
-50.25999447935833
 31
0.0
  0
LINE
  5
29C
330
1F
100
AcDbEntity
  8
0
  6
Continuous
 62
     3
100
AcDbLine
 10
7.79124920904832
 20
-50.51073143301123
 30
0.0
 11
7.79124920904832
 21
-50.26146838666348
 31
0.0
  0
LINE
  5
29D
330
1F
100
AcDbEntity
  8
0
  6
Continuous
 62
     3
100
AcDbLine
 10
7.79124920904832
 20
-50.08667670604244
 30
0.0
 11
7.79124920904832
 21
-48.93478615997903
 31
0.0
  0
LINE
  5
29E
330
1F
100
AcDbEntity
  8
0
  6
Continuous
 62
     3
100
AcDbLine
 10
7.79124920904832
 20
-50.26146838666348
 30
0.0
 11
7.79124920904832
 21
-50.26128703999122
 31
0.0
  0
LINE
  5
29F
330
1F
100
AcDbEntity
  8
0
  6
Continuous
 62
     3
100
AcDbLine
 10
7.79124920904832
 20
-50.11221304233503
 30
0.0
 11
7.79124920904832
 21
-50.08679760382394
 31
0.0
  0
LINE
  5
2A0
330
1F
100
AcDbEntity
  8
0
  6
Continuous
 62
     3
100
AcDbLine
 10
7.79124920904832
 20
-50.08679760382394
 30
0.0
 11
7.79124920904832
 21
-50.08667670604244
 31
0.0
  0
LINE
  5
2A1
330
1F
100
AcDbEntity
  8
0
  6
Continuous
 62
     3
100
AcDbLine
 10
7.79124920904832
 20
-50.51073143301123
 30
0.0
 11
7.79124920904832
 21
-50.55999447935854
 31
0.0
  0
LINE
  5
2A2
330
1F
100
AcDbEntity
  8
0
  6
Continuous
 62
     3
100
AcDbLine
 10
7.79124920904832
 20
-48.45999447935854
 30
0.0
 11
7.79124920904832
 21
-48.51073143301123
 31
0.0
  0
LINE
  5
2A3
330
1F
100
AcDbEntity
  8
0
  6
Continuous
 62
     3
100
AcDbLine
 10
7.79124920904832
 20
-50.19016702068124
 30
0.0
 11
7.79124920904832
 21
-50.11221304233503
 31
0.0
  0
LINE
  5
2A4
330
1F
100
AcDbEntity
  8
0
  6
Continuous
 62
     3
100
AcDbLine
 10
6.99124920904832
 20
-50.19016702068124
 30
0.0
 11
6.99124920904832
 21
-50.11221304233503
 31
0.0
  0
LINE
  5
2A5
330
1F
100
AcDbEntity
  8
0
  6
Continuous
 62
     3
100
AcDbLine
 10
7.79124920904832
 20
-50.26128703999122
 30
0.0
 11
7.79124920904832
 21
-50.19016702068124
 31
0.0
  0
LINE
  5
2A6
330
1F
100
AcDbEntity
  8
0
  6
Continuous
 62
     3
100
AcDbLine
 10
6.99124920904832
 20
-50.26128703999122
 30
0.0
 11
6.99124920904832
 21
-50.19016702068124
 31
0.0
  0
LINE
  5
2A7
330
1F
100
AcDbEntity
  8
0
  6
Continuous
 62
     3
100
AcDbLine
 10
6.99124920904832
 20
-50.51073143301123
 30
0.0
 11
6.99124920904832
 21
-50.26146838666348
 31
0.0
  0
LINE
  5
2A8
330
1F
100
AcDbEntity
  8
0
  6
Continuous
 62
     3
100
AcDbLine
 10
6.99124920904832
 20
-50.08667670604244
 30
0.0
 11
6.99124920904832
 21
-48.93478615997903
 31
0.0
  0
LINE
  5
2A9
330
1F
100
AcDbEntity
  8
0
  6
Continuous
 62
     3
100
AcDbLine
 10
6.99124920904832
 20
-50.26146838666348
 30
0.0
 11
6.99124920904832
 21
-50.26128703999122
 31
0.0
  0
LINE
  5
2AA
330
1F
100
AcDbEntity
  8
0
  6
Continuous
 62
     3
100
AcDbLine
 10
6.99124920904832
 20
-50.11221304233503
 30
0.0
 11
6.99124920904832
 21
-50.08679760382394
 31
0.0
  0
LINE
  5
2AB
330
1F
100
AcDbEntity
  8
0
  6
Continuous
 62
     3
100
AcDbLine
 10
6.99124920904832
 20
-50.08679760382394
 30
0.0
 11
6.99124920904832
 21
-50.08667670604244
 31
0.0
  0
LINE
  5
2AC
330
1F
100
AcDbEntity
  8
0
  6
Continuous
 62
     3
100
AcDbLine
 10
6.99124920904832
 20
-50.51073143301123
 30
0.0
 11
6.99124920904832
 21
-50.55999447935854
 31
0.0
  0
LINE
  5
2AD
330
1F
100
AcDbEntity
  8
0
  6
Continuous
 62
     3
100
AcDbLine
 10
6.99124920904832
 20
-48.45999447935854
 30
0.0
 11
6.99124920904832
 21
-48.51073143301123
 31
0.0
  0
LINE
  5
2AE
330
1F
100
AcDbEntity
  8
0
  6
Continuous
 62
     3
100
AcDbLine
 10
7.79124920904832
 20
-48.75999447935833
 30
0.0
 11
7.79124920904832
 21
-48.51073143301123
 31
0.0
  0
LINE
  5
2AF
330
1F
100
AcDbEntity
  8
0
  6
Continuous
 62
     3
100
AcDbLine
 10
7.79124920904832
 20
-48.76017582603059
 30
0.0
 11
7.79124920904832
 21
-48.75999447935833
 31
0.0
  0
LINE
  5
2B0
330
1F
100
AcDbEntity
  8
0
  6
Continuous
 62
     3
100
AcDbLine
 10
6.99124920904832
 20
-48.75999447935833
 30
0.0
 11
6.99124920904832
 21
-48.51073143301123
 31
0.0
  0
LINE
  5
2B1
330
1F
100
AcDbEntity
  8
0
  6
Continuous
 62
     3
100
AcDbLine
 10
6.99124920904832
 20
-48.76017582603059
 30
0.0
 11
6.99124920904832
 21
-48.75999447935833
 31
0.0
  0
LINE
  5
2B2
330
1F
100
AcDbEntity
  8
0
  6
Continuous
 62
     3
100
AcDbLine
 10
7.79124920904832
 20
-48.83129584534122
 30
0.0
 11
7.79124920904832
 21
-48.76017582603059
 31
0.0
  0
LINE
  5
2B3
330
1F
100
AcDbEntity
  8
0
  6
Continuous
 62
     3
100
AcDbLine
 10
6.99124920904832
 20
-48.83129584534122
 30
0.0
 11
6.99124920904832
 21
-48.76017582603059
 31
0.0
  0
LINE
  5
2B4
330
1F
100
AcDbEntity
  8
0
  6
Continuous
 62
     3
100
AcDbLine
 10
7.79124920904832
 20
-48.90924982368732
 30
0.0
 11
7.79124920904832
 21
-48.83129584534122
 31
0.0
  0
LINE
  5
2B5
330
1F
100
AcDbEntity
  8
0
  6
Continuous
 62
     3
100
AcDbLine
 10
6.99124920904832
 20
-48.90924982368732
 30
0.0
 11
6.99124920904832
 21
-48.83129584534122
 31
0.0
  0
LINE
  5
2B6
330
1F
100
AcDbEntity
  8
0
  6
Continuous
 62
     3
100
AcDbLine
 10
7.79124920904832
 20
-48.93478615997903
 30
0.0
 11
7.79124920904832
 21
-48.93466526219753
 31
0.0
  0
LINE
  5
2B7
330
1F
100
AcDbEntity
  8
0
  6
Continuous
 62
     3
100
AcDbLine
 10
7.79124920904832
 20
-48.93466526219753
 30
0.0
 11
7.79124920904832
 21
-48.90924982368732
 31
0.0
  0
LINE
  5
2B8
330
1F
100
AcDbEntity
  8
0
  6
Continuous
 62
     3
100
AcDbLine
 10
6.99124920904832
 20
-48.93466526219753
 30
0.0
 11
6.99124920904832
 21
-48.90924982368732
 31
0.0
  0
LINE
  5
2B9
330
1F
100
AcDbEntity
  8
0
  6
Continuous
 62
     3
100
AcDbLine
 10
6.99124920904832
 20
-48.93478615997903
 30
0.0
 11
6.99124920904832
 21
-48.93466526219753
 31
0.0
  0
LINE
  5
2BA
330
1F
100
AcDbEntity
  8
0
  6
Continuous
 62
     3
100
AcDbLine
 10
7.79124920904832
 20
-50.51073143301123
 30
0.0
 11
7.79124920904832
 21
-50.26146838666348
 31
0.0
  0
LINE
  5
2BB
330
1F
100
AcDbEntity
  8
0
  6
Continuous
 62
     3
100
AcDbLine
 10
7.79124920904832
 20
-50.08667670604244
 30
0.0
 11
7.79124920904832
 21
-48.93478615997903
 31
0.0
  0
LINE
  5
2BC
330
1F
100
AcDbEntity
  8
0
  6
Continuous
 62
     3
100
AcDbLine
 10
7.79124920904832
 20
-50.26146838666348
 30
0.0
 11
7.79124920904832
 21
-50.26128703999122
 31
0.0
  0
LINE
  5
2BD
330
1F
100
AcDbEntity
  8
0
  6
Continuous
 62
     3
100
AcDbLine
 10
7.79124920904832
 20
-50.11221304233503
 30
0.0
 11
7.79124920904832
 21
-50.08679760382394
 31
0.0
  0
LINE
  5
2BE
330
1F
100
AcDbEntity
  8
0
  6
Continuous
 62
     3
100
AcDbLine
 10
7.79124920904832
 20
-50.08679760382394
 30
0.0
 11
7.79124920904832
 21
-50.08667670604244
 31
0.0
  0
LINE
  5
2BF
330
1F
100
AcDbEntity
  8
0
  6
Continuous
 62
     3
100
AcDbLine
 10
7.79124920904832
 20
-50.19016702068124
 30
0.0
 11
7.79124920904832
 21
-50.11221304233503
 31
0.0
  0
LINE
  5
2C0
330
1F
100
AcDbEntity
  8
0
  6
Continuous
 62
     3
100
AcDbLine
 10
6.99124920904832
 20
-50.19016702068124
 30
0.0
 11
6.99124920904832
 21
-50.11221304233503
 31
0.0
  0
LINE
  5
2C1
330
1F
100
AcDbEntity
  8
0
  6
Continuous
 62
     3
100
AcDbLine
 10
7.79124920904832
 20
-50.26128703999122
 30
0.0
 11
7.79124920904832
 21
-50.19016702068124
 31
0.0
  0
LINE
  5
2C2
330
1F
100
AcDbEntity
  8
0
  6
Continuous
 62
     3
100
AcDbLine
 10
6.99124920904832
 20
-50.26128703999122
 30
0.0
 11
6.99124920904832
 21
-50.19016702068124
 31
0.0
  0
LINE
  5
2C3
330
1F
100
AcDbEntity
  8
0
  6
Continuous
 62
     3
100
AcDbLine
 10
7.79124920904832
 20
-50.51073143301123
 30
0.0
 11
6.99124920904832
 21
-50.51073143301123
 31
0.0
  0
LINE
  5
2C4
330
1F
100
AcDbEntity
  8
0
  6
Continuous
 62
     3
100
AcDbLine
 10
6.99124920904832
 20
-50.51073143301123
 30
0.0
 11
6.99124920904832
 21
-50.26146838666348
 31
0.0
  0
LINE
  5
2C5
330
1F
100
AcDbEntity
  8
0
  6
Continuous
 62
     3
100
AcDbLine
 10
6.99124920904832
 20
-50.08667670604244
 30
0.0
 11
6.99124920904832
 21
-48.93478615997903
 31
0.0
  0
LINE
  5
2C6
330
1F
100
AcDbEntity
  8
0
  6
Continuous
 62
     3
100
AcDbLine
 10
6.99124920904832
 20
-50.26146838666348
 30
0.0
 11
6.99124920904832
 21
-50.26128703999122
 31
0.0
  0
LINE
  5
2C7
330
1F
100
AcDbEntity
  8
0
  6
Continuous
 62
     3
100
AcDbLine
 10
6.99124920904832
 20
-50.11221304233503
 30
0.0
 11
6.99124920904832
 21
-50.08679760382394
 31
0.0
  0
LINE
  5
2C8
330
1F
100
AcDbEntity
  8
0
  6
Continuous
 62
     3
100
AcDbLine
 10
6.99124920904832
 20
-50.08679760382394
 30
0.0
 11
6.99124920904832
 21
-50.08667670604244
 31
0.0
  0
LINE
  5
2C9
330
1F
100
AcDbEntity
  8
0
  6
Continuous
 62
     3
100
AcDbLine
 10
7.79124920904832
 20
-48.51073143301123
 30
0.0
 11
6.99124920904832
 21
-48.51073143301123
 31
0.0
  0
LINE
  5
2CA
330
1F
100
AcDbEntity
  8
0
  6
Continuous
 62
     3
100
AcDbLine
 10
7.79124920904832
 20
-48.75999447935833
 30
0.0
 11
7.79124920904832
 21
-48.51073143301123
 31
0.0
  0
LINE
  5
2CB
330
1F
100
AcDbEntity
  8
0
  6
Continuous
 62
     3
100
AcDbLine
 10
7.79124920904832
 20
-48.76017582603059
 30
0.0
 11
7.79124920904832
 21
-48.75999447935833
 31
0.0
  0
LINE
  5
2CC
330
1F
100
AcDbEntity
  8
0
  6
Continuous
 62
     3
100
AcDbLine
 10
6.99124920904832
 20
-48.75999447935833
 30
0.0
 11
6.99124920904832
 21
-48.51073143301123
 31
0.0
  0
LINE
  5
2CD
330
1F
100
AcDbEntity
  8
0
  6
Continuous
 62
     3
100
AcDbLine
 10
6.99124920904832
 20
-48.76017582603059
 30
0.0
 11
6.99124920904832
 21
-48.75999447935833
 31
0.0
  0
LINE
  5
2CE
330
1F
100
AcDbEntity
  8
0
  6
Continuous
 62
     3
100
AcDbLine
 10
7.79124920904832
 20
-48.83129584534122
 30
0.0
 11
7.79124920904832
 21
-48.76017582603059
 31
0.0
  0
LINE
  5
2CF
330
1F
100
AcDbEntity
  8
0
  6
Continuous
 62
     3
100
AcDbLine
 10
6.99124920904832
 20
-48.83129584534122
 30
0.0
 11
6.99124920904832
 21
-48.76017582603059
 31
0.0
  0
LINE
  5
2D0
330
1F
100
AcDbEntity
  8
0
  6
Continuous
 62
     3
100
AcDbLine
 10
7.79124920904832
 20
-48.90924982368732
 30
0.0
 11
7.79124920904832
 21
-48.83129584534122
 31
0.0
  0
LINE
  5
2D1
330
1F
100
AcDbEntity
  8
0
  6
Continuous
 62
     3
100
AcDbLine
 10
6.99124920904832
 20
-48.90924982368732
 30
0.0
 11
6.99124920904832
 21
-48.83129584534122
 31
0.0
  0
LINE
  5
2D2
330
1F
100
AcDbEntity
  8
0
  6
Continuous
 62
     3
100
AcDbLine
 10
7.79124920904832
 20
-48.93478615997903
 30
0.0
 11
7.79124920904832
 21
-48.93466526219753
 31
0.0
  0
LINE
  5
2D3
330
1F
100
AcDbEntity
  8
0
  6
Continuous
 62
     3
100
AcDbLine
 10
7.79124920904832
 20
-48.93466526219753
 30
0.0
 11
7.79124920904832
 21
-48.90924982368732
 31
0.0
  0
LINE
  5
2D4
330
1F
100
AcDbEntity
  8
0
  6
Continuous
 62
     3
100
AcDbLine
 10
6.99124920904832
 20
-48.93466526219753
 30
0.0
 11
6.99124920904832
 21
-48.90924982368732
 31
0.0
  0
LINE
  5
2D5
330
1F
100
AcDbEntity
  8
0
  6
Continuous
 62
     3
100
AcDbLine
 10
6.99124920904832
 20
-48.93478615997903
 30
0.0
 11
6.99124920904832
 21
-48.93466526219753
 31
0.0
  0
LINE
  5
2D6
330
1F
100
AcDbEntity
  8
0
  6
Continuous
 62
     3
100
AcDbLine
 10
12.06624920904872
 20
-52.37872242044885
 30
0.0
 11
12.06624920904872
 21
-49.99411739762934
 31
0.0
  0
LINE
  5
2D7
330
1F
100
AcDbEntity
  8
0
  6
Continuous
 62
     3
100
AcDbLine
 10
12.06624920904872
 20
-49.02587156108736
 30
0.0
 11
12.06624920904872
 21
-46.64126653826783
 31
0.0
  0
LINE
  5
2D8
330
1F
100
AcDbEntity
  8
1
  6
DOT_CENTER
 62
     2
100
AcDbLine
 10
15.84124920904831
 20
-49.50999447935833
 30
0.0
 11
-1.05875079095168
 21
-49.50999447935833
 31
0.0
  0
LINE
  5
2D9
330
1F
100
AcDbEntity
  8
1
  6
DOT_CENTER
 62
     2
100
AcDbLine
 10
7.39124920904833
 20
-41.05999447935834
 30
0.0
 11
7.39124920904833
 21
-57.95999447935834
 31
0.0
  0
LINE
  5
2DA
330
1F
100
AcDbEntity
  8
1
  6
Continuous
 62
     3
100
AcDbLine
 10
12.06624920904872
 20
-49.02587156108736
 30
0.0
 11
12.06624920904872
 21
-49.99411739762934
 31
0.0
  0
LINE
  5
2DB
330
1F
100
AcDbEntity
  8
1
  6
Continuous
 62
     3
100
AcDbLine
 10
11.94124920904832
 20
-88.30037348181881
 30
0.0
 11
11.94124920904832
 21
-94.9996271715965
 31
0.0
  0
LINE
  5
2DC
330
1F
100
AcDbEntity
  8
1
  6
DOT_CENTER
 62
     2
100
AcDbLine
 10
15.86624920904832
 20
-91.65000032670766
 30
0.0
 11
-1.08375079095167
 21
-91.65000032670766
 31
0.0
  0
LINE
  5
2DD
330
1F
100
AcDbEntity
  8
1
  6
DOT_CENTER
 62
     2
100
AcDbLine
 10
7.39124920904833
 20
-83.17500032670766
 30
0.0
 11
7.39124920904833
 21
-100.1250003267077
 31
0.0
  0
LINE
  5
2DE
330
1F
100
AcDbEntity
  8
1
  6
Continuous
 62
     3
100
AcDbLine
 10
42.52125429728242
 20
-46.64126653826786
 30
0.0
 11
43.12125429728281
 21
-52.37872242044885
 31
0.0
  0
LINE
  5
2DF
330
1F
100
AcDbEntity
  8
0
  6
Continuous
 62
     3
100
AcDbLine
 10
43.12125429728281
 20
-52.37872242044885
 30
0.0
 11
43.12125429728281
 21
-49.50999447935827
 31
0.0
  0
LINE
  5
2E0
330
1F
100
AcDbEntity
  8
1
  6
Continuous
 62
     3
100
AcDbLine
 10
42.52125429728242
 20
-52.37872242044885
 30
0.0
 11
43.12125429728281
 21
-46.64126653826786
 31
0.0
  0
LINE
  5
2E1
330
1F
100
AcDbEntity
  8
0
  6
Continuous
 62
     3
100
AcDbLine
 10
43.12125429728281
 20
-46.64126653826786
 30
0.0
 11
43.12125429728281
 21
-43.00999447935827
 31
0.0
  0
LINE
  5
2E2
330
1F
100
AcDbEntity
  8
1
  6
DOT_CENTER
 62
     2
100
AcDbLine
 10
57.0463950994469
 20
-49.50999447935827
 30
0.0
 11
29.69471771453661
 21
-49.50999447935827
 31
0.0
  0
LINE
  5
2E3
330
1F
100
AcDbEntity
  8
1
  6
DOT_CENTER
 62
     2
100
AcDbLine
 10
44.86475632522206
 20
-24.00999027795166
 30
0.0
 11
46.60962822218066
 21
-24.00999027795166
 31
0.0
  0
LINE
  5
2E4
330
1F
100
AcDbEntity
  8
1
  6
DOT_CENTER
 62
     2
100
AcDbLine
 10
46.60962822218066
 20
-24.00999027795166
 30
0.0
 11
46.60962822218066
 21
-32.00999027795167
 31
0.0
  0
LINE
  5
2E5
330
1F
100
AcDbEntity
  8
1
  6
DOT_CENTER
 62
     2
100
AcDbLine
 10
46.60962822218066
 20
-32.00999027795167
 30
0.0
 11
44.86475632522206
 21
-32.00999027795167
 31
0.0
  0
LINE
  5
2E6
330
1F
100
AcDbEntity
  8
1
  6
DOT_CENTER
 62
     2
100
AcDbLine
 10
44.86475632522206
 20
-32.00999027795167
 30
0.0
 11
44.86475632522206
 21
-24.00999027795166
 31
0.0
  0
ARC
  5
2E7
330
1F
100
AcDbEntity
  8
0
  6
Continuous
 62
     3
100
AcDbCircle
 10
68.15500000046964
 20
-91.65000032752545
 30
0.0
 40
6.921710418768582
100
AcDbArc
 50
209.9067786846054
 51
209.9999999921507
  0
ARC
  5
2E8
330
1F
100
AcDbEntity
  8
0
  6
Continuous
 62
     3
100
AcDbCircle
 10
68.15499999999628
 20
-91.65000032671125
 30
0.0
 40
6.921710418767821
100
AcDbArc
 50
330.0000000000497
 51
330.093221307616
  0
ARC
  5
2E9
330
1F
100
AcDbEntity
  8
0
  6
Continuous
 62
     3
100
AcDbCircle
 10
68.15499999998542
 20
-91.65000032668515
 30
0.0
 40
6.9217104187678
100
AcDbArc
 50
29.90677869220366
 51
29.99999999979627
  0
ARC
  5
2EA
330
1F
100
AcDbEntity
  8
0
  6
Continuous
 62
     3
100
AcDbCircle
 10
68.15500000000917
 20
-91.65000032668885
 30
0.0
 40
6.921710418767797
100
AcDbArc
 50
150.0000000001682
 51
150.093221307761
  0
ARC
  5
2EB
330
1F
100
AcDbEntity
  8
0
  6
Continuous
 62
     3
100
AcDbCircle
 10
32.45125429728273
 20
-49.50925752570538
 30
0.0
 40
1.0
100
AcDbArc
 50
180.0
 51
270.0
  0
ARC
  5
2EC
330
1F
100
AcDbEntity
  8
0
  6
Continuous
 62
     3
100
AcDbCircle
 10
32.65125429728394
 20
-49.50925752570538
 30
0.0
 40
0.5
100
AcDbArc
 50
90.0
 51
270.0
  0
ARC
  5
2ED
330
1F
100
AcDbEntity
  8
0
  6
Continuous
 62
     3
100
AcDbCircle
 10
33.45125429728375
 20
-49.50925752570538
 30
0.0
 40
0.5
100
AcDbArc
 50
270.0
 51
90.0
  0
ARC
  5
2EE
330
1F
100
AcDbEntity
  8
0
  6
Continuous
 62
     3
100
AcDbCircle
 10
32.45125429728273
 20
-49.50925752570538
 30
0.0
 40
1.0
100
AcDbArc
 50
90.0
 51
180.0
  0
ARC
  5
2EF
330
1F
100
AcDbEntity
  8
0
  6
Continuous
 62
     3
100
AcDbCircle
 10
40.00499999999836
 20
-91.65000032670766
 30
0.0
 40
5.499999999998754
100
AcDbArc
 50
274.4318190823707
 51
295.5681809176412
  0
ARC
  5
2F0
330
1F
100
AcDbEntity
  8
0
  6
Continuous
 62
     3
100
AcDbCircle
 10
40.00499999999836
 20
-91.65000032670766
 30
0.0
 40
5.500000000000227
100
AcDbArc
 50
124.4318190823577
 51
145.5681809176231
  0
ARC
  5
2F1
330
1F
100
AcDbEntity
  8
0
  6
Continuous
 62
     3
100
AcDbCircle
 10
40.00499999999836
 20
-91.65000032670766
 30
0.0
 40
5.500000000000233
100
AcDbArc
 50
34.4318190823745
 51
55.56818091763954
  0
ARC
  5
2F2
330
1F
100
AcDbEntity
  8
0
  6
Continuous
 62
     3
100
AcDbCircle
 10
40.00499999999836
 20
-91.65000032670766
 30
0.0
 40
4.700000000000442
100
AcDbArc
 50
114.8119119052727
 51
125.1880880947187
  0
ARC
  5
2F3
330
1F
100
AcDbEntity
  8
0
  6
Continuous
 62
     3
100
AcDbCircle
 10
40.00499999999836
 20
-91.65000032670766
 30
0.0
 40
4.70000000000049
100
AcDbArc
 50
54.8119119052777
 51
65.1880880947226
  0
ARC
  5
2F4
330
1F
100
AcDbEntity
  8
0
  6
Continuous
 62
     3
100
AcDbCircle
 10
40.00499999999836
 20
-91.65000032670766
 30
0.0
 40
4.69999999999812
100
AcDbArc
 50
294.8119119052911
 51
305.1880880947386
  0
ARC
  5
2F5
330
1F
100
AcDbEntity
  8
0
  6
Continuous
 62
     3
100
AcDbCircle
 10
40.00499999999836
 20
-91.65000032670766
 30
0.0
 40
5.499999999998566
100
AcDbArc
 50
304.4318190823746
 51
325.5681809176449
  0
ARC
  5
2F6
330
1F
100
AcDbEntity
  8
0
  6
Continuous
 62
     3
100
AcDbCircle
 10
40.00499999999836
 20
-91.65000032670766
 30
0.0
 40
4.700000000000523
100
AcDbArc
 50
24.81191190527847
 51
35.18808809472385
  0
ARC
  5
2F7
330
1F
100
AcDbEntity
  8
0
  6
Continuous
 62
     3
100
AcDbCircle
 10
40.00499999999836
 20
-91.65000032670766
 30
0.0
 40
4.699999999999202
100
AcDbArc
 50
324.8119119052994
 51
335.1880880947371
  0
ARC
  5
2F8
330
1F
100
AcDbEntity
  8
0
  6
Continuous
 62
     3
100
AcDbCircle
 10
40.00499999999836
 20
-91.65000032670766
 30
0.0
 40
4.700000000000221
100
AcDbArc
 50
144.8119119052738
 51
155.1880880947154
  0
ARC
  5
2F9
330
1F
100
AcDbEntity
  8
0
  6
Continuous
 62
     3
100
AcDbCircle
 10
40.00499999999836
 20
-91.65000032670766
 30
0.0
 40
5.499999999999891
100
AcDbArc
 50
154.4318190823629
 51
175.5681809176197
  0
ARC
  5
2FA
330
1F
100
AcDbEntity
  8
0
  6
Continuous
 62
     3
100
AcDbCircle
 10
40.00499999999836
 20
-91.65000032670766
 30
0.0
 40
5.500000000000148
100
AcDbArc
 50
4.43181908237999
 51
25.56818091763128
  0
ARC
  5
2FB
330
1F
100
AcDbEntity
  8
0
  6
Continuous
 62
     3
100
AcDbCircle
 10
40.00499999999836
 20
-91.65000032670766
 30
0.0
 40
5.499999999998611
100
AcDbArc
 50
214.4318190823572
 51
235.5681809176283
  0
ARC
  5
2FC
330
1F
100
AcDbEntity
  8
0
  6
Continuous
 62
     3
100
AcDbCircle
 10
40.00499999999836
 20
-91.65000032670766
 30
0.0
 40
5.500000000000077
100
AcDbArc
 50
334.4318190823904
 51
355.5681809176437
  0
ARC
  5
2FD
330
1F
100
AcDbEntity
  8
0
  6
Continuous
 62
     3
100
AcDbCircle
 10
40.00499999999836
 20
-91.65000032670766
 30
0.0
 40
4.700000000000017
100
AcDbArc
 50
354.8119119052924
 51
5.18808809473519
  0
ARC
  5
2FE
330
1F
100
AcDbEntity
  8
0
  6
Continuous
 62
     3
100
AcDbCircle
 10
40.00499999999836
 20
-91.65000032670766
 30
0.0
 40
4.699999999998875
100
AcDbArc
 50
204.8119119052691
 51
215.188088094703
  0
ARC
  5
2FF
330
1F
100
AcDbEntity
  8
0
  6
Continuous
 62
     3
100
AcDbCircle
 10
40.00499999999836
 20
-91.65000032670766
 30
0.0
 40
4.699999999998473
100
AcDbArc
 50
234.8119119052645
 51
245.1880880947132
  0
ARC
  5
300
330
1F
100
AcDbEntity
  8
0
  6
Continuous
 62
     3
100
AcDbCircle
 10
40.00499999999836
 20
-91.65000032670766
 30
0.0
 40
5.500000000001027
100
AcDbArc
 50
94.43181908236592
 51
115.5681809176185
  0
ARC
  5
301
330
1F
100
AcDbEntity
  8
0
  6
Continuous
 62
     3
100
AcDbCircle
 10
40.00499999999836
 20
-91.65000032670766
 30
0.0
 40
5.499999999998449
100
AcDbArc
 50
244.431819082371
 51
265.568180917632
  0
ARC
  5
302
330
1F
100
AcDbEntity
  8
0
  6
Continuous
 62
     3
100
AcDbCircle
 10
40.00499999999836
 20
-91.65000032670766
 30
0.0
 40
4.6999999999979
100
AcDbArc
 50
264.811911905278
 51
275.1880880947256
  0
ARC
  5
303
330
1F
100
AcDbEntity
  8
0
  6
Continuous
 62
     3
100
AcDbCircle
 10
40.00499999999836
 20
-91.65000032670766
 30
0.0
 40
5.499999999999576
100
AcDbArc
 50
184.4318190823567
 51
205.5681809176158
  0
ARC
  5
304
330
1F
100
AcDbEntity
  8
0
  6
Continuous
 62
     3
100
AcDbCircle
 10
40.00499999999836
 20
-91.65000032670766
 30
0.0
 40
4.699999999998916
100
AcDbArc
 50
174.8119119052632
 51
185.1880880947089
  0
ARC
  5
305
330
1F
100
AcDbEntity
  8
0
  6
Continuous
 62
     3
100
AcDbCircle
 10
40.00499999999836
 20
-91.65000032670766
 30
0.0
 40
5.500000000001052
100
AcDbArc
 50
64.4318190823692
 51
85.56818091763115
  0
ARC
  5
306
330
1F
100
AcDbEntity
  8
0
  6
Continuous
 62
     3
100
AcDbCircle
 10
40.00499999999836
 20
-91.65000032670766
 30
0.0
 40
4.700000000000189
100
AcDbArc
 50
84.81191190527697
 51
95.18808809471952
  0
ARC
  5
307
330
1F
100
AcDbEntity
  8
0
  6
Continuous
 62
     3
100
AcDbCircle
 10
40.00499999999836
 20
-91.65000032670766
 30
0.0
 40
6.5
100
AcDbArc
 50
0.0
 51
180.0
  0
ARC
  5
308
330
1F
100
AcDbEntity
  8
0
  6
Continuous
 62
     3
100
AcDbCircle
 10
40.00499999999836
 20
-91.65000032670766
 30
0.0
 40
6.5
100
AcDbArc
 50
180.0
 51
270.0
  0
ARC
  5
309
330
1F
100
AcDbEntity
  8
0
  6
Continuous
 62
     3
100
AcDbCircle
 10
40.00499999999836
 20
-91.65000032670766
 30
0.0
 40
6.5
100
AcDbArc
 50
270.0
 51
0.0
  0
ARC
  5
30A
330
1F
100
AcDbEntity
  8
0
  6
Continuous
 62
     3
100
AcDbCircle
 10
76.62125661218046
 20
-49.50999447935827
 30
0.0
 40
4.759999999999792
100
AcDbArc
 50
180.0000000000003
 51
257.9958116535923
  0
ARC
  5
30B
330
1F
100
AcDbEntity
  8
0
  6
Continuous
 62
     3
100
AcDbCircle
 10
76.62125661218046
 20
-49.50999447935827
 30
0.0
 40
4.760000000000272
100
AcDbArc
 50
257.9958116535923
 51
282.0041883464037
  0
ARC
  5
30C
330
1F
100
AcDbEntity
  8
0
  6
Continuous
 62
     3
100
AcDbCircle
 10
76.62125661218046
 20
-49.50999447935827
 30
0.0
 40
4.759999999999742
100
AcDbArc
 50
102.0041883464164
 51
180.0000000000003
  0
ARC
  5
30D
330
1F
100
AcDbEntity
  8
0
  6
Continuous
 62
     3
100
AcDbCircle
 10
76.62125661218046
 20
-49.50999447935827
 30
0.0
 40
4.759999999999724
100
AcDbArc
 50
77.99581165359618
 51
102.0041883464164
  0
ARC
  5
30E
330
1F
100
AcDbEntity
  8
0
  6
Continuous
 62
     3
100
AcDbCircle
 10
76.62125661218046
 20
-49.50999447935827
 30
0.0
 40
4.759999999999766
100
AcDbArc
 50
282.0041883464037
 51
77.99581165359618
  0
ARC
  5
30F
330
1F
100
AcDbEntity
  8
0
  6
Continuous
 62
     3
100
AcDbCircle
 10
7.39124920904833
 20
-49.50999447935833
 30
0.0
 40
5.484999999999742
100
AcDbArc
 50
180.0
 51
328.4654044914789
  0
ARC
  5
310
330
1F
100
AcDbEntity
  8
0
  6
Continuous
 62
     3
100
AcDbCircle
 10
7.39124920904833
 20
-49.50999447935833
 30
0.0
 40
4.699999999999882
100
AcDbArc
 50
5.91223107831864
 51
354.0877689216811
  0
ARC
  5
311
330
1F
100
AcDbEntity
  8
0
  6
Continuous
 62
     3
100
AcDbCircle
 10
7.39124920904833
 20
-49.50999447935833
 30
0.0
 40
5.484999999999731
100
AcDbArc
 50
31.53459550852098
 51
180.0
  0
ARC
  5
312
330
1F
100
AcDbEntity
  8
1
  6
Continuous
 62
     3
100
AcDbCircle
 10
7.39124920904833
 20
-91.65000032670766
 30
0.0
 40
5.649999999999999
100
AcDbArc
 50
180.0
 51
323.640178675156
  0
ARC
  5
313
330
1F
100
AcDbEntity
  8
1
  6
Continuous
 62
     3
100
AcDbCircle
 10
7.39124920904833
 20
-91.65000032670766
 30
0.0
 40
5.649999999999996
100
AcDbArc
 50
36.35982132484401
 51
180.0
  0
CIRCLE
  5
314
330
1F
100
AcDbEntity
  8
0
  6
Continuous
 62
     3
100
AcDbCircle
 10
68.15499999999835
 20
-91.65000032670766
 30
0.0
 40
4.729999999998597
  0
CIRCLE
  5
315
330
1F
100
AcDbEntity
  8
0
  6
Continuous
 62
     3
100
AcDbCircle
 10
68.15499999999835
 20
-91.65000032670766
 30
0.0
 40
5.899999999998698
  0
CIRCLE
  5
316
330
1F
100
AcDbEntity
  8
0
  6
Continuous
 62
     3
100
AcDbCircle
 10
68.15499999999835
 20
-91.65000032670766
 30
0.0
 40
4.234999999998806
  0
CIRCLE
  5
317
330
1F
100
AcDbEntity
  8
0
  6
Continuous
 62
     3
100
AcDbCircle
 10
50.88125429728252
 20
-28.00999027795409
 30
0.0
 40
0.9900000000002933
  0
CIRCLE
  5
318
330
1F
100
AcDbEntity
  8
0
  6
Continuous
 62
     3
100
AcDbCircle
 10
76.62125661218046
 20
-49.50999447935827
 30
0.0
 40
2.375
  0
CIRCLE
  5
319
330
1F
100
AcDbEntity
  8
0
  6
Continuous
 62
     3
100
AcDbCircle
 10
76.62125661218046
 20
-49.50999447935827
 30
0.0
 40
3.0
  0
CIRCLE
  5
31A
330
1F
100
AcDbEntity
  8
0
  6
Continuous
 62
     3
100
AcDbCircle
 10
76.62125661218046
 20
-49.50999447935827
 30
0.0
 40
6.5
  0
CIRCLE
  5
31B
330
1F
100
AcDbEntity
  8
0
  6
Continuous
 62
     3
100
AcDbCircle
 10
76.62125661218046
 20
-49.50999447935827
 30
0.0
 40
4.065000000000111
  0
CIRCLE
  5
31C
330
1F
100
AcDbEntity
  8
0
  6
Continuous
 62
     3
100
AcDbCircle
 10
76.62125661218046
 20
-49.50999447935827
 30
0.0
 40
3.0
  0
CIRCLE
  5
31D
330
1F
100
AcDbEntity
  8
0
  6
Continuous
 62
     3
100
AcDbCircle
 10
7.39124920904833
 20
-49.50999447935833
 30
0.0
 40
3.459999999999994
  0
CIRCLE
  5
31E
330
1F
100
AcDbEntity
  8
0
  6
Continuous
 62
     3
100
AcDbCircle
 10
7.39124920904833
 20
-49.50999447935833
 30
0.0
 40
3.100000000000016
  0
CIRCLE
  5
31F
330
1F
100
AcDbEntity
  8
0
  6
Continuous
 62
     3
100
AcDbCircle
 10
7.39124920904833
 20
-49.50999447935833
 30
0.0
 40
3.600000000000016
  0
CIRCLE
  5
320
330
1F
100
AcDbEntity
  8
0
  6
Continuous
 62
     3
100
AcDbCircle
 10
7.39124920904833
 20
-49.50999447935833
 30
0.0
 40
4.000000000000004
  0
CIRCLE
  5
321
330
1F
100
AcDbEntity
  8
0
  6
Continuous
 62
     3
100
AcDbCircle
 10
7.39124920904833
 20
-49.50999447935833
 30
0.0
 40
6.500000000000004
  0
CIRCLE
  5
322
330
1F
100
AcDbEntity
  8
0
  6
Continuous
 62
     3
100
AcDbCircle
 10
7.39124920904833
 20
-49.50999447935833
 30
0.0
 40
4.234999999999684
  0
CIRCLE
  5
323
330
1F
100
AcDbEntity
  8
0
  6
Continuous
 62
     3
100
AcDbCircle
 10
7.39124920904833
 20
-49.50999447935833
 30
0.0
 40
4.000000000000004
  0
SPLINE
  5
324
330
1F
100
AcDbEntity
  8
0
  6
Continuous
 62
     3
100
AcDbSpline
210
0.0
220
0.0
230
1.0
 70
  1064
 71
     3
 72
    23
 73
    19
 74
    17
 42
0.000000001
 43
0.0000000001
 44
0.00000001
 40
0.0
 40
0.0
 40
0.0
 40
0.0
 40
0.0230401807807162
 40
0.046080361561159
 40
0.1129970238015199
 40
0.1795820660367251
 40
0.3611216686353579
 40
0.540838759401888
 40
0.7693427606651845
 40
0.99676283029694
 40
1.224129638246413
 40
1.452575819286972
 40
1.633102502193017
 40
1.815468143478318
 40
1.88188828032801
 40
1.948643404420028
 40
1.97147291204935
 40
1.994302419677526
 40
1.994302419677526
 40
1.994302419677526
 40
1.994302419677526
 10
51.87125429728286
 20
-54.2699944793585
 30
0.0
 10
51.86373317289206
 20
-54.26844005394685
 30
0.0
 10
51.84869092119565
 20
-54.26533121729314
 30
0.0
 10
51.81176323301022
 20
-54.25791112701006
 30
0.0
 10
51.76052033904759
 20
-54.24805413532331
 30
0.0
 10
51.65714515241709
 20
-54.22956490395558
 30
0.0
 10
51.51615419121054
 20
-54.20787704039235
 30
0.0
 10
51.32084413870879
 20
-54.1851463972817
 30
0.0
 10
51.10944559808166
 20
-54.16964103037879
 30
0.0
 10
50.88166070808585
 20
-54.16405093559735
 30
0.0
 10
50.65389415971426
 20
-54.16960124239957
 30
0.0
 10
50.4422605661545
 20
-54.18508512300343
 30
0.0
 10
50.24642531717421
 20
-54.20785730155715
 30
0.0
 10
50.10495086316099
 20
-54.2296294465951
 30
0.0
 10
50.0014141717222
 20
-54.24816144655199
 30
0.0
 10
49.95034804403478
 20
-54.25798949952242
 30
0.0
 10
49.91361130672723
 20
-54.26537360270673
 30
0.0
 10
49.8987066327925
 20
-54.26845418241841
 30
0.0
 10
49.89125429728284
 20
-54.2699944793585
 30
0.0
 11
51.87125429728286
 21
-54.2699944793585
 31
0.0
 11
51.8486866939115
 21
-54.26535193556131
 31
0.0
 11
51.82609897940114
 21
-54.26080824894862
 31
0.0
 11
51.76038531815053
 21
-54.24817676287733
 31
0.0
 11
51.69484028738822
 21
-54.2364542711364
 31
0.0
 11
51.51540505379155
 21
-54.20889298666641
 31
0.0
 11
51.33688949903257
 21
-54.18814619099351
 31
0.0
 11
51.10899473123195
 21
-54.17147125236245
 31
0.0
 11
50.88164279714323
 21
-54.1659047180693
 31
0.0
 11
50.65434315387742
 21
-54.17143081025496
 31
0.0
 11
50.42650303051062
 21
-54.18806018161524
 31
0.0
 11
50.24718121308409
 21
-54.20888250484971
 31
0.0
 11
50.06693135707292
 21
-54.23658118129801
 31
0.0
 11
50.00155017490695
 21
-54.24828313064311
 31
0.0
 11
49.93599636473675
 21
-54.26089045370274
 31
0.0
 11
49.91361545721236
 21
-54.26539394139424
 31
0.0
 11
49.89125429728284
 21
-54.2699944793585
 31
0.0
  0
SPLINE
  5
325
330
1F
100
AcDbEntity
  8
0
  6
Continuous
 62
     3
100
AcDbSpline
210
0.0
220
0.0
230
1.0
 70
  1064
 71
     3
 72
    23
 73
    19
 74
    17
 42
0.000000001
 43
0.0000000001
 44
0.00000001
 40
0.0
 40
0.0
 40
0.0
 40
0.0
 40
0.0230401807806576
 40
0.0460803615611493
 40
0.1129953565170368
 40
0.1795820660363198
 40
0.3611216685795884
 40
0.540838759401552
 40
0.7693427606182313
 40
0.9967628302965403
 40
1.224129638278357
 40
1.452575819286459
 40
1.633102561736052
 40
1.815468143477586
 40
1.881890684308325
 40
1.948643404418978
 40
1.971472912048329
 40
1.994302419676474
 40
1.994302419676474
 40
1.994302419676474
 40
1.994302419676474
 10
49.89125429728284
 20
-44.74999447935805
 30
0.0
 10
49.89877542167332
 20
-44.75154890477051
 30
0.0
 10
49.91381767336914
 20
-44.75465774142582
 30
0.0
 10
49.95074481668936
 20
-44.76207772220479
 30
0.0
 10
50.00198770899954
 20
-44.77193472195201
 30
0.0
 10
50.10536289274384
 20
-44.79042397023714
 30
0.0
 10
50.24635440331883
 20
-44.81211191832307
 30
0.0
 10
50.44166445582927
 20
-44.83484256143121
 30
0.0
 10
50.65306299646694
 20
-44.85034792833715
 30
0.0
 10
50.88084788647451
 20
-44.85593802311978
 30
0.0
 10
51.10861443486592
 20
-44.8503877163164
 30
0.0
 10
51.32024804821152
 20
-44.8349038342633
 30
0.0
 10
51.51608329711136
 20
-44.81213165448909
 30
0.0
 10
51.65755854306983
 20
-44.79035938670345
 30
0.0
 10
51.76109521082655
 20
-44.77182736581197
 30
0.0
 10
51.81216133613873
 20
-44.76199930126016
 30
0.0
 10
51.8488972878397
 20
-44.7546153560132
 30
0.0
 10
51.86380196177361
 20
-44.75153477629927
 30
0.0
 10
51.87125429728286
 20
-44.74999447935805
 30
0.0
 11
49.89125429728284
 21
-44.74999447935805
 31
0.0
 11
49.91382190065414
 21
-44.75463702315523
 31
0.0
 11
49.93640961516456
 21
-44.75918070976792
 31
0.0
 11
50.00212163707508
 21
-44.77181189167279
 31
0.0
 11
50.06766830717743
 21
-44.78353468758014
 31
0.0
 11
50.24710354071922
 21
-44.81109597204273
 31
0.0
 11
50.42561909553314
 21
-44.83184276772303
 31
0.0
 11
50.65351386328719
 21
-44.84851770635182
 31
0.0
 11
50.88086579742242
 21
-44.85408424064723
 31
0.0
 11
51.10816544072055
 21
-44.84855814846001
 31
0.0
 11
51.33600556405492
 21
-44.8319287771013
 31
0.0
 11
51.51532744050031
 21
-44.81110644590277
 31
0.0
 11
51.69557723749261
 21
-44.78340777741853
 31
0.0
 11
51.76096078329856
 21
-44.77170538924275
 31
0.0
 11
51.82651222982895
 21
-44.7590985050138
 31
0.0
 11
51.84889313735337
 21
-44.7545950173223
 31
0.0
 11
51.87125429728286
 21
-44.74999447935805
 31
0.0
  0
LINE
  5
326
330
1F
100
AcDbEntity
  8
1
 62
     2
100
AcDbLine
 10
43.9212542972831
 20
-43.00999447935548
 30
0.0
 11
44.49202262130771
 21
-42.14626981835833
 31
0.0
  0
LINE
  5
327
330
1F
100
AcDbEntity
  8
1
 62
     2
100
AcDbLine
 10
43.9212542972831
 20
-43.00999447935548
 30
0.0
 11
44.84741649606245
 21
-42.54737114306916
 31
0.0
  0
LEADER
  5
328
330
1F
100
AcDbEntity
  8
1
  6
Continuous
 62
     2
100
AcDbLeader
  3
Standard
 71
     0
 76
     3
 10
43.9212542972831
 20
-43.00999447935548
 30
0.0
 10
49.00000238331671
 20
-38.50999447935546
 30
0.0
 10
56.6989265634745
 20
-38.50999447935546
 30
0.0
  0
LINE
  5
329
330
1F
100
AcDbEntity
  8
1
 62
     2
100
AcDbLine
 10
72.0142752599995
 20
-86.95644351817785
 30
0.0
 11
72.27257066889156
 21
-85.95390661039352
 31
0.0
  0
LINE
  5
32A
330
1F
100
AcDbEntity
  8
1
 62
     2
100
AcDbLine
 10
72.0142752599995
 20
-86.95644351817785
 30
0.0
 11
72.73923409967308
 21
-86.21736879225115
 31
0.0
  0
LEADER
  5
32B
330
1F
100
AcDbEntity
  8
1
  6
Continuous
 62
     2
100
AcDbLeader
  3
Standard
 71
     0
 76
     3
 10
72.0142752599995
 20
-86.95644351817785
 30
0.0
 10
75.6016410944475
 20
-80.60223952590815
 30
0.0
 10
78.8532925009005
 20
-80.60223952590815
 30
0.0
  0
LINE
  5
32C
330
1F
100
AcDbEntity
  8
1
 62
     2
100
AcDbLine
 10
43.53180048940045
 20
-86.29329165732265
 30
0.0
 11
43.88221432548399
 21
-85.31912179882481
 31
0.0
  0
LINE
  5
32D
330
1F
100
AcDbEntity
  8
1
 62
     2
100
AcDbLine
 10
43.53180048940045
 20
-86.29329165732265
 30
0.0
 11
44.32235270253527
 21
-85.6248427303042
 31
0.0
  0
LEADER
  5
32E
330
1F
100
AcDbEntity
  8
1
  6
Continuous
 62
     2
100
AcDbLeader
  3
Standard
 71
     0
 76
     3
 10
43.53180048940045
 20
-86.29329165732265
 30
0.0
 10
47.45164109444751
 20
-80.65000032670766
 30
0.0
 10
50.7032925009005
 20
-80.65000032670766
 30
0.0
  0
LINE
  5
32F
330
1F
100
AcDbEntity
  8
1
 62
     2
100
AcDbLine
 10
38.52083264279154
 20
-44.75589610790478
 30
0.0
 11
37.63338420774256
 21
-44.2227619363742
 31
0.0
  0
LINE
  5
330
330
1F
100
AcDbEntity
  8
1
 62
     2
100
AcDbLine
 10
38.52083264279154
 20
-44.75589610790478
 30
0.0
 11
38.01884683925567
 21
-43.85046415420923
 31
0.0
  0
LEADER
  5
331
330
1F
100
AcDbEntity
  8
1
  6
Continuous
 62
     2
100
AcDbLeader
  3
Standard
 71
     0
 76
     3
 10
38.52083264279154
 20
-44.75589610790478
 30
0.0
 10
32.4882496274121
 20
-38.50999447935546
 30
0.0
 10
17.04533156429216
 20
-38.50999447935546
 30
0.0
  0
LINE
  5
332
330
1F
100
AcDbEntity
  8
1
 62
     2
100
AcDbLine
 10
46.6933476576996
 20
-27.49047240301378
 30
0.0
 11
47.19533346123547
 21
-26.58504044931823
 31
0.0
  0
LINE
  5
333
330
1F
100
AcDbEntity
  8
1
 62
     2
100
AcDbLine
 10
46.6933476576996
 20
-27.49047240301378
 30
0.0
 11
47.58079609274858
 21
-26.9573382314832
 31
0.0
  0
LEADER
  5
334
330
1F
100
AcDbEntity
  8
1
  6
Continuous
 62
     2
100
AcDbLeader
  3
Standard
 71
     0
 76
     3
 10
46.6933476576996
 20
-27.49047240301378
 30
0.0
 10
52.72593067307904
 20
-21.24457077446446
 30
0.0
 10
69.56884873619899
 20
-21.24457077446446
 30
0.0
  0
LWPOLYLINE
  5
335
330
1F
100
AcDbEntity
  8
1
 62
     2
100
AcDbPolyline
 90
        8
 70
     1
 43
0.0
 10
59.3147094453217
 20
-41.00999447935546
 10
59.3147094453217
 20
-41.00999447935546
 42
0.4142135623731
 10
61.8147094453217
 20
-38.50999447935546
 10
61.8147094453217
 20
-38.50999447935546
 42
0.4142135623731
 10
59.3147094453217
 20
-36.00999447935546
 10
59.3147094453217
 20
-36.00999447935546
 42
0.4142135623731
 10
56.8147094453217
 20
-38.50999447935546
 10
56.8147094453217
 20
-38.50999447935546
 42
0.4142135623731
  0
MTEXT
  5
336
330
1F
100
AcDbEntity
  8
1
 62
     2
100
AcDbMText
 10
59.3147094453217
 20
-38.50999447935546
 30
0.0
 40
2.5
 41
0.0
 71
     5
 72
     1
  1
1
  7
CONVERTER_13
 73
     1
 44
1.0
  0
LWPOLYLINE
  5
337
330
1F
100
AcDbEntity
  8
1
 62
     2
100
AcDbPolyline
 90
        8
 70
     1
 43
0.0
 10
64.3147094453217
 20
-41.00999447935546
 10
64.3147094453217
 20
-41.00999447935546
 42
0.4142135623731
 10
66.8147094453217
 20
-38.50999447935546
 10
66.8147094453217
 20
-38.50999447935546
 42
0.4142135623731
 10
64.3147094453217
 20
-36.00999447935546
 10
64.3147094453217
 20
-36.00999447935546
 42
0.4142135623731
 10
61.8147094453217
 20
-38.50999447935546
 10
61.8147094453217
 20
-38.50999447935546
 42
0.4142135623731
  0
MTEXT
  5
338
330
1F
100
AcDbEntity
  8
1
 62
     2
100
AcDbMText
 10
64.3147094453217
 20
-38.50999447935546
 30
0.0
 40
2.5
 41
0.0
 71
     5
 72
     1
  1
2
  7
CONVERTER_13
 73
     1
 44
1.0
  0
LWPOLYLINE
  5
339
330
1F
100
AcDbEntity
  8
1
 62
     2
100
AcDbPolyline
 90
        8
 70
     1
 43
0.0
 10
69.3147094453217
 20
-41.00999447935546
 10
69.3147094453217
 20
-41.00999447935546
 42
0.4142135623731
 10
71.8147094453217
 20
-38.50999447935546
 10
71.8147094453217
 20
-38.50999447935546
 42
0.4142135623731
 10
69.3147094453217
 20
-36.00999447935546
 10
69.3147094453217
 20
-36.00999447935546
 42
0.4142135623731
 10
66.8147094453217
 20
-38.50999447935546
 10
66.8147094453217
 20
-38.50999447935546
 42
0.4142135623731
  0
MTEXT
  5
33A
330
1F
100
AcDbEntity
  8
1
 62
     2
100
AcDbMText
 10
69.3147094453217
 20
-38.50999447935546
 30
0.0
 40
2.5
 41
0.0
 71
     5
 72
     1
  1
3
  7
CONVERTER_13
 73
     1
 44
1.0
  0
LWPOLYLINE
  5
33B
330
1F
100
AcDbEntity
  8
1
 62
     2
100
AcDbPolyline
 90
        8
 70
     1
 43
0.0
 10
81.41800555957485
 20
-83.15723952590815
 10
81.41800555957485
 20
-83.15723952590815
 42
0.4142135623731
 10
83.91800555957485
 20
-80.65723952590815
 10
83.91800555957485
 20
-80.65723952590815
 42
0.4142135623731
 10
81.41800555957485
 20
-78.15723952590815
 10
81.41800555957485
 20
-78.15723952590815
 42
0.4142135623731
 10
78.91800555957485
 20
-80.65723952590815
 10
78.91800555957485
 20
-80.65723952590815
 42
0.4142135623731
  0
MTEXT
  5
33C
330
1F
100
AcDbEntity
  8
1
 62
     2
100
AcDbMText
 10
81.41800555957485
 20
-80.65723952590815
 30
0.0
 40
2.5
 41
0.0
 71
     5
 72
     1
  1
5
  7
CONVERTER_13
 73
     1
 44
1.0
  0
LWPOLYLINE
  5
33D
330
1F
100
AcDbEntity
  8
1
 62
     2
100
AcDbPolyline
 90
        8
 70
     1
 43
0.0
 10
53.26800555957486
 20
-83.20500032670766
 10
53.26800555957486
 20
-83.20500032670766
 42
0.4142135623731
 10
55.76800555957486
 20
-80.70500032670766
 10
55.76800555957486
 20
-80.70500032670766
 42
0.4142135623731
 10
53.26800555957486
 20
-78.20500032670766
 10
53.26800555957486
 20
-78.20500032670766
 42
0.4142135623731
 10
50.76800555957486
 20
-80.70500032670766
 10
50.76800555957486
 20
-80.70500032670766
 42
0.4142135623731
  0
MTEXT
  5
33E
330
1F
100
AcDbEntity
  8
1
 62
     2
100
AcDbMText
 10
53.26800555957486
 20
-80.70500032670766
 30
0.0
 40
2.5
 41
0.0
 71
     5
 72
     1
  1
4
  7
CONVERTER_13
 73
     1
 44
1.0
  0
MTEXT
  5
33F
330
1F
100
AcDbEntity
  8
1
 62
     3
100
AcDbMText
 10
7.0536622724199
 20
-76.58777238115049
 30
0.0
 40
1.25
 41
0.0
 71
     5
 72
     1
  1
取付穴参考寸法
  7
CONVERTER_12
 73
     1
 44
0.90909090909091
  0
TEXT
  5
340
330
1F
100
AcDbEntity
  8
1
 62
     3
100
AcDbText
 10
18.41101214288165
 20
-37.92991700463507
 30
0.0
 40
1.25
  1
3/8-32NEF-2A
 41
0.9
 51
10.0
  7
CONVERTER_13
100
AcDbText
  0
TEXT
  5
341
330
1F
100
AcDbEntity
  8
1
 62
     3
100
AcDbText
 10
53.41585320344642
 20
-20.66449329974408
 30
0.0
 40
1.25
  1
STACK BNC080刻印
 41
0.89
 51
10.0
  7
CONVERTER_12
100
AcDbText
  0
DIMENSION
  5
354
330
1F
100
AcDbEntity
  8
1
100
AcDbDimension
  2
*D3
 10
43.1212542972828
 20
-60.50999447935391
 30
0.0
 11
38.87145138937814
 21
-59.35999447935391
 31
0.0
 70
    32
  1
<>
 71
     5
 42
-1.0
 53
0.00013888888889
  3
ME10_DIM_10
100
AcDbAlignedDimension
 13
35.12125429728283
 23
-52.96999447935833
 33
0.0
 14
43.12125429728281
 24
-56.00999447935827
 34
0.0
100
AcDbRotatedDimension
  0
DIMENSION
  5
361
330
1F
100
AcDbEntity
  8
1
100
AcDbDimension
  2
*D5
 10
62.15499999999837
 20
-80.60000032670791
 30
0.0
 11
68.0445730304456
 21
-79.47500032670791
 31
0.0
 70
    32
  1
<>
 71
     5
 42
-1.0
 53
0.00013888888889
  3
ME10_DIM_11
100
AcDbAlignedDimension
 13
74.15499999999835
 23
-88.19890265766395
 33
0.0
 14
62.15499999999837
 24
-88.19890265766395
 34
0.0
100
AcDbRotatedDimension
  0
DIMENSION
  5
36E
330
1F
100
AcDbEntity
  8
1
100
AcDbDimension
  2
*D6
 10
59.62125429728284
 20
-43.00999447935827
 30
0.0
 11
58.37125429728284
 21
-49.4912092989725
 31
0.0
 70
    32
  1
<>
 71
     5
 42
-1.0
 53
90.0
  3
ME10_DIM_12
100
AcDbAlignedDimension
 13
44.12125429728283
 23
-56.00999447935827
 33
0.0
 14
44.12125429728283
 24
-43.00999447935827
 34
0.0
 50
90.0
100
AcDbRotatedDimension
  0
DIMENSION
  5
37D
330
1F
100
AcDbEntity
  8
1
100
AcDbDimension
  2
*D7
 10
43.12125429728281
 20
-64.5099944793539
 30
0.0
 11
43.6251624534414
 21
-63.38499447935391
 31
0.0
 70
    32
  1
<>
 71
     5
 42
-1.0
 53
0.00013888888889
  3
ME10_DIM_13
100
AcDbAlignedDimension
 13
44.12125429728283
 23
-56.00999447935827
 33
0.0
 14
43.12125429728281
 24
-56.00999447935827
 34
0.0
100
AcDbRotatedDimension
  0
DIMENSION
  5
38A
330
1F
100
AcDbEntity
  8
1
100
AcDbDimension
  2
*D8
 10
55.12125429728286
 20
-68.5099944793539
 30
0.0
 11
43.0078041441556
 21
-67.3599944793539
 31
0.0
 70
    32
  1
<>
 71
     5
 42
-1.0
 53
0.00013888888889
  3
ME10_DIM_14
100
AcDbAlignedDimension
 13
31.42125429728286
 23
-49.50925752570538
 33
0.0
 14
55.12125429728286
 24
-54.2699944793585
 34
0.0
100
AcDbRotatedDimension
  0
DIMENSION
  5
397
330
1F
100
AcDbEntity
  8
1
100
AcDbDimension
  2
*D9
 10
31.42125429728286
 20
-64.5099944793539
 30
0.0
 11
37.69716023237789
 21
-63.35999447935391
 31
0.0
 70
    32
  1
<>
 71
     5
 42
-1.0
 53
0.00013888888889
  3
ME10_DIM_15
100
AcDbAlignedDimension
 13
43.12125429728281
 23
-56.00999447935827
 33
0.0
 14
31.42125429728286
 24
-49.50925752570538
 34
0.0
100
AcDbRotatedDimension
  0
DIMENSION
  5
3A6
330
1F
100
AcDbEntity
  8
1
100
AcDbDimension
  2
*D10
 10
26.92125429728286
 20
-49.00925752570538
 30
0.0
 11
25.79625429728286
 21
-49.50925752570538
 31
0.0
 70
    32
  1
<>
 71
     5
 42
-1.0
 53
90.0
  3
ME10_DIM_16
100
AcDbAlignedDimension
 13
32.65125429728394
 23
-50.00925752570538
 33
0.0
 14
32.65125429728394
 24
-49.00925752570538
 34
0.0
 50
90.0
100
AcDbRotatedDimension
  0
DIMENSION
  5
3B5
330
1F
100
AcDbEntity
  8
1
100
AcDbDimension
  2
*D11
 10
22.92125429728286
 20
-50.50925752570538
 30
0.0
 11
21.79625429728286
 21
-49.3727680289848
 31
0.0
 70
    32
  1
<>
 71
     5
 42
-1.0
 53
90.0
  3
ME10_DIM_17
100
AcDbAlignedDimension
 13
32.45125429728273
 23
-48.50925752570538
 33
0.0
 14
32.45125429728273
 24
-50.50925752570538
 34
0.0
 50
90.0
100
AcDbRotatedDimension
  0
DIMENSION
  5
3C2
330
1F
100
AcDbEntity
  8
1
100
AcDbDimension
  2
*D12
 10
33.50499999999836
 20
-80.65000032670766
 30
0.0
 11
40.00499999999836
 21
-79.40000032670766
 31
0.0
 70
    32
  1
<>
 71
     5
 42
-1.0
 53
0.00013888888889
  3
ME10_DIM_18
100
AcDbAlignedDimension
 13
46.50499999999836
 23
-91.65000032670766
 33
0.0
 14
33.50499999999836
 24
-91.65000032670766
 34
0.0
100
AcDbRotatedDimension
  0
DIMENSION
  5
3CF
330
1F
100
AcDbEntity
  8
1
100
AcDbDimension
  2
*D13
 10
1.90624920904858
 20
-60.50999447935391
 30
0.0
 11
6.87524429160769
 21
-59.38499447935391
 31
0.0
 70
    32
  1
<>
 71
     5
 42
-1.0
 53
0.00013888888889
  3
ME10_DIM_19
100
AcDbAlignedDimension
 13
12.06624920904872
 23
-52.37872242044885
 33
0.0
 14
1.90624920904858
 24
-49.50999447935833
 34
0.0
100
AcDbRotatedDimension
  0
DIMENSION
  5
3DC
330
1F
100
AcDbEntity
  8
1
100
AcDbDimension
  2
*D14
 10
1.74124920904833
 20
-81.65000032670766
 30
0.0
 11
7.39124920904833
 21
-80.05625032670766
 31
0.0
 70
    32
  1
<>
 71
     5
 42
-1.0
 53
0.00013888888889
  3
ME10_DIM_20
100
AcDbAlignedDimension
 13
11.94124920904832
 23
-88.30037348181881
 33
0.0
 14
1.74124920904833
 24
-91.65000032670766
 34
0.0
100
AcDbRotatedDimension
  0
INSERT
  5
3E5
330
1F
100
AcDbEntity
  8
1
100
AcDbBlockReference
  2
*D15
 10
0.0
 20
0.0
 30
0.0
  0
ENDSEC
  0
SECTION
  2
OBJECTS
  0
DICTIONARY
  5
C
330
0
100
AcDbDictionary
281
     1
  3
ACAD_GROUP
350
D
  3
ACAD_LAYOUT
350
1A
  3
ACAD_MATERIAL
350
43
  3
ACAD_MLEADERSTYLE
350
6B
  3
ACAD_MLINESTYLE
350
17
  3
ACAD_PLOTSETTINGS
350
19
  3
ACAD_PLOTSTYLENAME
350
E
  3
ACAD_SCALELIST
350
47
  3
ACAD_TABLESTYLE
350
69
  3
ACAD_VISUALSTYLE
350
2A
  3
AcDbVariableDictionary
350
3E6
  0
DICTIONARY
  5
3ED
330
8
100
AcDbDictionary
280
     1
281
     1
  3
ACAD_XREC_ROUNDTRIP
360
3EE
  0
DICTIONARY
  5
D
102
{ACAD_REACTORS
330
C
102
}
330
C
100
AcDbDictionary
281
     1
  0
DICTIONARY
  5
1A
102
{ACAD_REACTORS
330
C
102
}
330
C
100
AcDbDictionary
281
     1
  3
Layout1
350
1E
  3
Layout2
350
26
  3
Model
350
22
  0
DICTIONARY
  5
43
102
{ACAD_REACTORS
330
C
102
}
330
C
100
AcDbDictionary
281
     1
  3
ByBlock
350
45
  3
ByLayer
350
44
  3
Global
350
46
  0
DICTIONARY
  5
6B
102
{ACAD_REACTORS
330
C
102
}
330
C
100
AcDbDictionary
281
     1
  3
Standard
350
6C
  0
DICTIONARY
  5
17
102
{ACAD_REACTORS
330
C
102
}
330
C
100
AcDbDictionary
281
     1
  3
Standard
350
18
  0
DICTIONARY
  5
19
102
{ACAD_REACTORS
330
C
102
}
330
C
100
AcDbDictionary
281
     1
  0
ACDBDICTIONARYWDFLT
  5
E
102
{ACAD_REACTORS
330
C
102
}
330
C
100
AcDbDictionary
281
     1
  3
Normal
350
F
100
AcDbDictionaryWithDefault
340
F
  0
DICTIONARY
  5
47
102
{ACAD_REACTORS
330
C
102
}
330
C
100
AcDbDictionary
281
     1
  3
A0
350
48
  3
A1
350
49
  3
A2
350
4A
  3
A3
350
4B
  3
A4
350
4C
  3
A5
350
4D
  3
A6
350
4E
  3
A7
350
4F
  3
A8
350
50
  3
A9
350
51
  3
B0
350
52
  3
B1
350
53
  3
B2
350
54
  3
B3
350
55
  3
B4
350
56
  3
B5
350
57
  3
B6
350
58
  3
B7
350
59
  3
B8
350
5A
  3
B9
350
5B
  3
C0
350
5C
  3
C1
350
5D
  3
C2
350
5E
  3
C3
350
5F
  3
C4
350
60
  3
C5
350
61
  3
C6
350
62
  3
C7
350
63
  3
C8
350
64
  3
C9
350
65
  3
D0
350
66
  3
D1
350
67
  3
D2
350
68
  0
DICTIONARY
  5
69
102
{ACAD_REACTORS
330
C
102
}
330
C
100
AcDbDictionary
281
     1
  3
Standard
350
6A
  0
DICTIONARY
  5
2A
102
{ACAD_REACTORS
330
C
102
}
330
C
100
AcDbDictionary
281
     1
  3
2dWireframe
350
2F
  3
Basic
350
32
  3
Brighten
350
36
  3
ColorChange
350
3A
  3
Conceptual
350
34
  3
Dim
350
35
  3
EdgeColorOff
350
3D
  3
Facepattern
350
39
  3
Flat
350
2B
  3
FlatWithEdges
350
2C
  3
Gouraud
350
2D
  3
GouraudWithEdges
350
2E
  3
Hidden
350
31
  3
JitterOff
350
3B
  3
Linepattern
350
38
  3
OverhangOff
350
3C
  3
Realistic
350
33
  3
Shaded
350
42
  3
Shaded with edges
350
41
  3
Shades of Gray
350
3E
  3
Sketchy
350
3F
  3
Thicken
350
37
  3
Wireframe
350
30
  3
X-Ray
350
40
  0
DICTIONARY
  5
3E6
102
{ACAD_REACTORS
330
C
102
}
330
C
100
AcDbDictionary
281
     1
  3
CANNOSCALE
350
3EF
  3
CMLEADERSTYLE
350
3E8
  3
CTABLESTYLE
350
3E7
  3
DIMASSOC
350
3EB
  3
HIDETEXT
350
3EC
  3
MSLTSCALE
350
3F0
  0
XRECORD
  5
3EE
102
{ACAD_REACTORS
330
3ED
102
}
330
3ED
100
AcDbXrecord
280
     1
102
VTR_0.000_0.000_1.000_1.000_GRIDDISPLAY
 70
     3
102
VTR_0.000_0.000_1.000_1.000_GRIDMAJOR
 70
     5
102
VTR_0.000_0.000_1.000_1.000_DEFAULTLIGHTING
280
     1
102
VTR_0.000_0.000_1.000_1.000_DEFAULTLIGHTINGTYPE
 70
     1
102
VTR_0.000_0.000_1.000_1.000_BRIGHTNESS
141
0.0
102
VTR_0.000_0.000_1.000_1.000_CONTRAST
142
0.0
  0
LAYOUT
  5
1E
102
{ACAD_REACTORS
330
1A
102
}
330
1A
100
AcDbPlotSettings
  1

  2
none_device
  4

  6

 40
0.0
 41
0.0
 42
0.0
 43
0.0
 44
0.0
 45
0.0
 46
0.0
 47
0.0
 48
0.0
 49
0.0
140
0.0
141
0.0
142
1.0
143
1.0
 70
   688
 72
     0
 73
     0
 74
     5
  7

 75
    16
147
1.0
148
0.0
149
0.0
100
AcDbLayout
  1
Layout1
 70
     1
 71
     1
 10
0.0
 20
0.0
 11
12.0
 21
9.0
 12
0.0
 22
0.0
 32
0.0
 14
1.00000000000000E+20
 24
1.00000000000000E+20
 34
1.00000000000000E+20
 15
-1.00000000000000E+20
 25
-1.00000000000000E+20
 35
-1.00000000000000E+20
146
0.0
 13
0.0
 23
0.0
 33
0.0
 16
1.0
 26
0.0
 36
0.0
 17
0.0
 27
1.0
 37
0.0
 76
     0
330
1B
  0
LAYOUT
  5
26
102
{ACAD_REACTORS
330
1A
102
}
330
1A
100
AcDbPlotSettings
  1

  2
none_device
  4

  6

 40
0.0
 41
0.0
 42
0.0
 43
0.0
 44
0.0
 45
0.0
 46
0.0
 47
0.0
 48
0.0
 49
0.0
140
0.0
141
0.0
142
1.0
143
1.0
 70
   688
 72
     0
 73
     0
 74
     5
  7

 75
    16
147
1.0
148
0.0
149
0.0
100
AcDbLayout
  1
Layout2
 70
     1
 71
     2
 10
0.0
 20
0.0
 11
0.0
 21
0.0
 12
0.0
 22
0.0
 32
0.0
 14
0.0
 24
0.0
 34
0.0
 15
0.0
 25
0.0
 35
0.0
146
0.0
 13
0.0
 23
0.0
 33
0.0
 16
1.0
 26
0.0
 36
0.0
 17
0.0
 27
1.0
 37
0.0
 76
     0
330
23
  0
LAYOUT
  5
22
102
{ACAD_REACTORS
330
1A
102
}
330
1A
100
AcDbPlotSettings
  1

  2
none_device
  4
Letter_(8.50_x_11.00_Inches)
  6

 40
6.35
 41
6.35
 42
6.35000508
 43
6.35000508
 44
215.9
 45
279.4
 46
0.0
 47
0.0
 48
0.0
 49
0.0
140
0.0
141
0.0
142
1.0
143
1.0
 70
  1712
 72
     0
 73
     0
 74
     0
  7

 75
     0
147
1.0
148
0.0
149
0.0
100
AcDbLayout
  1
Model
 70
     1
 71
     0
 10
0.0
 20
0.0
 11
12.0
 21
9.0
 12
0.0
 22
0.0
 32
0.0
 14
-2.99374708938558
 24
-146.1450983195054
 34
0.0
 15
87.00625291061435
 25
-17.97317896029287
 35
0.0
146
0.0
 13
0.0
 23
0.0
 33
0.0
 16
1.0
 26
0.0
 36
0.0
 17
0.0
 27
1.0
 37
0.0
 76
     0
330
1F
331
29
  0
MATERIAL
  5
45
102
{ACAD_REACTORS
330
43
102
}
102
{ACAD_XDICTIONARY
360
423
102
}
330
43
100
AcDbMaterial
  1
ByBlock
  0
MATERIAL
  5
44
102
{ACAD_REACTORS
330
43
102
}
102
{ACAD_XDICTIONARY
360
421
102
}
330
43
100
AcDbMaterial
  1
ByLayer
  0
MATERIAL
  5
46
102
{ACAD_REACTORS
330
43
102
}
102
{ACAD_XDICTIONARY
360
425
102
}
330
43
100
AcDbMaterial
  1
Global
  0
MLEADERSTYLE
  5
6C
102
{ACAD_REACTORS
330
6B
102
}
102
{ACAD_XDICTIONARY
360
428
102
}
330
6B
100
AcDbMLeaderStyle
170
     2
171
     1
172
     0
 90
        2
 40
0.0
 41
0.0
173
     1
 91
-1056964608
340
14
 92
       -2
290
     1
 42
0.09
291
     1
 43
0.36
  3
Standard
341
0
 44
0.18
300

342
11
174
     1
178
     6
175
     1
176
     0
 93
-1056964608
 45
0.18
292
     0
297
     0
 46
0.18
343
0
 94
-1056964608
 47
1.0
 49
1.0
140
1.0
293
     1
141
0.0
294
     1
177
     0
142
1.0
295
     0
296
     0
143
0.125
1001
ACAD_MLEADERVER
1070
     2
  0
MLINESTYLE
  5
18
102
{ACAD_REACTORS
330
17
102
}
330
17
100
AcDbMlineStyle
  2
Standard
 70
     0
  3

 62
   256
 51
90.0
 52
90.0
 71
     2
 49
0.5
 62
   256
  6
BYLAYER
 49
-0.5
 62
   256
  6
BYLAYER
  0
ACDBPLACEHOLDER
  5
F
102
{ACAD_REACTORS
330
E
102
}
330
E
  0
SCALE
  5
48
102
{ACAD_REACTORS
330
47
102
}
330
47
100
AcDbScale
 70
     0
300
1:1
140
1.0
141
1.0
290
     1
  0
SCALE
  5
49
102
{ACAD_REACTORS
330
47
102
}
330
47
100
AcDbScale
 70
     0
300
1:2
140
1.0
141
2.0
290
     0
  0
SCALE
  5
4A
102
{ACAD_REACTORS
330
47
102
}
330
47
100
AcDbScale
 70
     0
300
1:4
140
1.0
141
4.0
290
     0
  0
SCALE
  5
4B
102
{ACAD_REACTORS
330
47
102
}
330
47
100
AcDbScale
 70
     0
300
1:5
140
1.0
141
5.0
290
     0
  0
SCALE
  5
4C
102
{ACAD_REACTORS
330
47
102
}
330
47
100
AcDbScale
 70
     0
300
1:8
140
1.0
141
8.0
290
     0
  0
SCALE
  5
4D
102
{ACAD_REACTORS
330
47
102
}
330
47
100
AcDbScale
 70
     0
300
1:10
140
1.0
141
10.0
290
     0
  0
SCALE
  5
4E
102
{ACAD_REACTORS
330
47
102
}
330
47
100
AcDbScale
 70
     0
300
1:16
140
1.0
141
16.0
290
     0
  0
SCALE
  5
4F
102
{ACAD_REACTORS
330
47
102
}
330
47
100
AcDbScale
 70
     0
300
1:20
140
1.0
141
20.0
290
     0
  0
SCALE
  5
50
102
{ACAD_REACTORS
330
47
102
}
330
47
100
AcDbScale
 70
     0
300
1:30
140
1.0
141
30.0
290
     0
  0
SCALE
  5
51
102
{ACAD_REACTORS
330
47
102
}
330
47
100
AcDbScale
 70
     0
300
1:40
140
1.0
141
40.0
290
     0
  0
SCALE
  5
52
102
{ACAD_REACTORS
330
47
102
}
330
47
100
AcDbScale
 70
     0
300
1:50
140
1.0
141
50.0
290
     0
  0
SCALE
  5
53
102
{ACAD_REACTORS
330
47
102
}
330
47
100
AcDbScale
 70
     0
300
1:100
140
1.0
141
100.0
290
     0
  0
SCALE
  5
54
102
{ACAD_REACTORS
330
47
102
}
330
47
100
AcDbScale
 70
     0
300
2:1
140
2.0
141
1.0
290
     0
  0
SCALE
  5
55
102
{ACAD_REACTORS
330
47
102
}
330
47
100
AcDbScale
 70
     0
300
4:1
140
4.0
141
1.0
290
     0
  0
SCALE
  5
56
102
{ACAD_REACTORS
330
47
102
}
330
47
100
AcDbScale
 70
     0
300
8:1
140
8.0
141
1.0
290
     0
  0
SCALE
  5
57
102
{ACAD_REACTORS
330
47
102
}
330
47
100
AcDbScale
 70
     0
300
10:1
140
10.0
141
1.0
290
     0
  0
SCALE
  5
58
102
{ACAD_REACTORS
330
47
102
}
330
47
100
AcDbScale
 70
     0
300
100:1
140
100.0
141
1.0
290
     0
  0
SCALE
  5
59
102
{ACAD_REACTORS
330
47
102
}
330
47
100
AcDbScale
 70
     0
300
1/128" = 1'-0"
140
0.0078125
141
12.0
290
     0
  0
SCALE
  5
5A
102
{ACAD_REACTORS
330
47
102
}
330
47
100
AcDbScale
 70
     0
300
1/64" = 1'-0"
140
0.015625
141
12.0
290
     0
  0
SCALE
  5
5B
102
{ACAD_REACTORS
330
47
102
}
330
47
100
AcDbScale
 70
     0
300
1/32" = 1'-0"
140
0.03125
141
12.0
290
     0
  0
SCALE
  5
5C
102
{ACAD_REACTORS
330
47
102
}
330
47
100
AcDbScale
 70
     0
300
1/16" = 1'-0"
140
0.0625
141
12.0
290
     0
  0
SCALE
  5
5D
102
{ACAD_REACTORS
330
47
102
}
330
47
100
AcDbScale
 70
     0
300
3/32" = 1'-0"
140
0.09375
141
12.0
290
     0
  0
SCALE
  5
5E
102
{ACAD_REACTORS
330
47
102
}
330
47
100
AcDbScale
 70
     0
300
1/8" = 1'-0"
140
0.125
141
12.0
290
     0
  0
SCALE
  5
5F
102
{ACAD_REACTORS
330
47
102
}
330
47
100
AcDbScale
 70
     0
300
3/16" = 1'-0"
140
0.1875
141
12.0
290
     0
  0
SCALE
  5
60
102
{ACAD_REACTORS
330
47
102
}
330
47
100
AcDbScale
 70
     0
300
1/4" = 1'-0"
140
0.25
141
12.0
290
     0
  0
SCALE
  5
61
102
{ACAD_REACTORS
330
47
102
}
330
47
100
AcDbScale
 70
     0
300
3/8" = 1'-0"
140
0.375
141
12.0
290
     0
  0
SCALE
  5
62
102
{ACAD_REACTORS
330
47
102
}
330
47
100
AcDbScale
 70
     0
300
1/2" = 1'-0"
140
0.5
141
12.0
290
     0
  0
SCALE
  5
63
102
{ACAD_REACTORS
330
47
102
}
330
47
100
AcDbScale
 70
     0
300
3/4" = 1'-0"
140
0.75
141
12.0
290
     0
  0
SCALE
  5
64
102
{ACAD_REACTORS
330
47
102
}
330
47
100
AcDbScale
 70
     0
300
1" = 1'-0"
140
1.0
141
12.0
290
     0
  0
SCALE
  5
65
102
{ACAD_REACTORS
330
47
102
}
330
47
100
AcDbScale
 70
     0
300
1-1/2" = 1'-0"
140
1.5
141
12.0
290
     0
  0
SCALE
  5
66
102
{ACAD_REACTORS
330
47
102
}
330
47
100
AcDbScale
 70
     0
300
3" = 1'-0"
140
3.0
141
12.0
290
     0
  0
SCALE
  5
67
102
{ACAD_REACTORS
330
47
102
}
330
47
100
AcDbScale
 70
     0
300
6" = 1'-0"
140
6.0
141
12.0
290
     0
  0
SCALE
  5
68
102
{ACAD_REACTORS
330
47
102
}
330
47
100
AcDbScale
 70
     0
300
1'-0" = 1'-0"
140
12.0
141
12.0
290
     0
  0
TABLESTYLE
  5
6A
102
{ACAD_REACTORS
330
69
102
}
330
69
100
AcDbTableStyle
  3
Standard
 70
     0
 71
     0
 40
0.06
 41
0.06
280
     0
281
     0
  7
Standard
140
0.18
170
     2
 62
     0
 63
   257
283
     0
274
    -2
284
     1
 64
     0
275
    -2
285
     1
 65
     0
276
    -2
286
     1
 66
     0
277
    -2
287
     1
 67
     0
278
    -2
288
     1
 68
     0
279
    -2
289
     1
 69
     0
  7
Standard
140
0.25
170
     5
 62
     0
 63
   257
283
     0
274
    -2
284
     1
 64
     0
275
    -2
285
     1
 65
     0
276
    -2
286
     1
 66
     0
277
    -2
287
     1
 67
     0
278
    -2
288
     1
 68
     0
279
    -2
289
     1
 69
     0
  7
Standard
140
0.18
170
     5
 62
     0
 63
   257
283
     0
274
    -2
284
     1
 64
     0
275
    -2
285
     1
 65
     0
276
    -2
286
     1
 66
     0
277
    -2
287
     1
 67
     0
278
    -2
288
     1
 68
     0
279
    -2
289
     1
 69
     0
  0
VISUALSTYLE
  5
2F
102
{ACAD_REACTORS
330
2A
102
}
102
{ACAD_XDICTIONARY
360
3F9
102
}
330
2A
100
AcDbVisualStyle
  2
2dWireframe
 70
     4
 71
     0
 72
     2
 73
     0
 90
        0
 40
0.6
 41
30.0
 62
     5
 63
     7
 74
     1
 91
        4
 64
     7
 65
   257
 75
     1
175
     1
 42
1.0
 92
        0
 66
   257
 43
1.0
 76
     1
 77
     6
 78
     2
 67
     7
 79
     5
170
     0
171
     0
290
     0
174
     0
 93
        1
 44
0.0
173
     0
291
     0
 45
0.0
1001
ACAD
1000
AcDbSavedByObjectVersion
1070
     0
  0
VISUALSTYLE
  5
32
102
{ACAD_REACTORS
330
2A
102
}
102
{ACAD_XDICTIONARY
360
3FF
102
}
330
2A
100
AcDbVisualStyle
  2
Basic
 70
     7
 71
     1
 72
     0
 73
     1
 90
        0
 40
0.6
 41
30.0
 62
     5
 63
     7
 74
     0
 91
        4
 64
     7
 65
   257
 75
     1
175
     1
 42
1.0
 92
        8
 66
     7
 43
1.0
 76
     1
 77
     6
 78
     2
 67
     7
 79
     5
170
     0
171
     0
290
     0
174
     0
 93
        1
 44
0.0
173
     0
291
     1
 45
0.0
1001
ACAD
1000
AcDbSavedByObjectVersion
1070
     0
  0
VISUALSTYLE
  5
36
102
{ACAD_REACTORS
330
2A
102
}
102
{ACAD_XDICTIONARY
360
407
102
}
330
2A
100
AcDbVisualStyle
  2
Brighten
 70
    12
 71
     2
 72
     2
 73
     0
 90
        0
 40
0.6
 41
30.0
 62
     5
 63
     7
 74
     1
 91
        4
 64
     7
 65
   257
 75
     1
175
     1
 42
1.0
 92
        8
 66
     7
 43
1.0
 76
     1
 77
     6
 78
     2
 67
     7
 79
     5
170
     0
171
     0
290
     0
174
     0
 93
        1
 44
50.0
173
     0
291
     1
 45
0.0
1001
ACAD
1000
AcDbSavedByObjectVersion
1070
     0
  0
VISUALSTYLE
  5
3A
102
{ACAD_REACTORS
330
2A
102
}
102
{ACAD_XDICTIONARY
360
40F
102
}
330
2A
100
AcDbVisualStyle
  2
ColorChange
 70
    16
 71
     2
 72
     2
 73
     3
 90
        0
 40
0.6
 41
30.0
 62
     5
 63
     8
 74
     1
 91
        4
 64
     7
 65
   257
 75
     1
175
     1
 42
1.0
 92
        8
 66
     8
 43
1.0
 76
     1
 77
     6
 78
     2
 67
     7
 79
     5
170
     0
171
     0
290
     0
174
     0
 93
        1
 44
0.0
173
     0
291
     1
 45
0.0
1001
ACAD
1000
AcDbSavedByObjectVersion
1070
     0
  0
VISUALSTYLE
  5
34
102
{ACAD_REACTORS
330
2A
102
}
102
{ACAD_XDICTIONARY
360
403
102
}
330
2A
100
AcDbVisualStyle
  2
Conceptual
 70
     9
 71
     3
 72
     2
 73
     0
 90
        0
 40
0.6
 41
30.0
 62
     5
 63
     7
 74
     2
 91
        2
 64
     7
 65
   257
 75
     1
175
     1
 42
179.0
 92
        8
 66
     7
 43
1.0
 76
     1
 77
     6
 78
     2
 67
     7
 79
     3
170
     0
171
     0
290
     0
174
     0
 93
        1
 44
0.0
173
     0
291
     0
 45
0.0
1001
ACAD
1000
AcDbSavedByObjectVersion
1070
     0
  0
VISUALSTYLE
  5
35
102
{ACAD_REACTORS
330
2A
102
}
102
{ACAD_XDICTIONARY
360
405
102
}
330
2A
100
AcDbVisualStyle
  2
Dim
 70
    11
 71
     2
 72
     2
 73
     0
 90
        0
 40
0.6
 41
30.0
 62
     5
 63
     7
 74
     1
 91
        4
 64
     7
 65
   257
 75
     1
175
     1
 42
1.0
 92
        8
 66
     7
 43
1.0
 76
     1
 77
     6
 78
     2
 67
     7
 79
     5
170
     0
171
     0
290
     0
174
     0
 93
        1
 44
-50.0
173
     0
291
     1
 45
0.0
1001
ACAD
1000
AcDbSavedByObjectVersion
1070
     0
  0
VISUALSTYLE
  5
3D
102
{ACAD_REACTORS
330
2A
102
}
102
{ACAD_XDICTIONARY
360
415
102
}
330
2A
100
AcDbVisualStyle
  2
EdgeColorOff
 70
    22
 71
     2
 72
     2
 73
     0
 90
        0
 40
0.6
 41
30.0
 62
     5
 63
     7
 74
     1
 91
        4
 64
     7
 65
   257
 75
     1
175
     1
 42
1.0
 92
        8
 66
     7
 43
1.0
 76
     1
 77
     6
 78
     2
 67
     7
 79
     5
170
     0
171
     0
290
     0
174
     0
 93
        1
 44
0.0
173
     0
291
     1
 45
0.0
1001
ACAD
1000
AcDbSavedByObjectVersion
1070
     0
  0
VISUALSTYLE
  5
39
102
{ACAD_REACTORS
330
2A
102
}
102
{ACAD_XDICTIONARY
360
40D
102
}
330
2A
100
AcDbVisualStyle
  2
Facepattern
 70
    15
 71
     2
 72
     2
 73
     0
 90
        0
 40
0.6
 41
30.0
 62
     5
 63
     7
 74
     1
 91
        4
 64
     7
 65
   257
 75
     1
175
     1
 42
1.0
 92
        8
 66
     7
 43
1.0
 76
     1
 77
     6
 78
     2
 67
     7
 79
     5
170
     0
171
     0
290
     0
174
     0
 93
        1
 44
0.0
173
     0
291
     1
 45
0.0
1001
ACAD
1000
AcDbSavedByObjectVersion
1070
     0
  0
VISUALSTYLE
  5
2B
102
{ACAD_REACTORS
330
2A
102
}
102
{ACAD_XDICTIONARY
360
3F1
102
}
330
2A
100
AcDbVisualStyle
  2
Flat
 70
     0
 71
     2
 72
     1
 73
     1
 90
        2
 40
0.6
 41
30.0
 62
     5
 63
     7
 74
     0
 91
        0
 64
     7
 65
   257
 75
     1
175
     1
 42
1.0
 92
        8
 66
     7
 43
1.0
 76
     1
 77
     6
 78
     2
 67
     7
 79
     5
170
     0
171
     0
290
     0
174
     0
 93
       13
 44
0.0
173
     0
291
     1
 45
0.0
1001
ACAD
1000
AcDbSavedByObjectVersion
1070
     0
  0
VISUALSTYLE
  5
2C
102
{ACAD_REACTORS
330
2A
102
}
102
{ACAD_XDICTIONARY
360
3F3
102
}
330
2A
100
AcDbVisualStyle
  2
FlatWithEdges
 70
     1
 71
     2
 72
     1
 73
     1
 90
        2
 40
0.6
 41
30.0
 62
     5
 63
     7
 74
     1
 91
        0
 64
     7
 65
   257
 75
     1
175
     1
 42
1.0
 92
        0
 66
   257
 43
1.0
 76
     1
 77
     6
 78
     2
 67
     7
 79
     5
170
     0
171
     0
290
     0
174
     0
 93
       13
 44
0.0
173
     0
291
     1
 45
0.0
1001
ACAD
1000
AcDbSavedByObjectVersion
1070
     0
  0
VISUALSTYLE
  5
2D
102
{ACAD_REACTORS
330
2A
102
}
102
{ACAD_XDICTIONARY
360
3F5
102
}
330
2A
100
AcDbVisualStyle
  2
Gouraud
 70
     2
 71
     2
 72
     2
 73
     1
 90
        2
 40
0.6
 41
30.0
 62
     5
 63
     7
 74
     0
 91
        0
 64
     7
 65
   257
 75
     1
175
     1
 42
1.0
 92
        0
 66
     7
 43
1.0
 76
     1
 77
     6
 78
     2
 67
     7
 79
     5
170
     0
171
     0
290
     0
174
     0
 93
       13
 44
0.0
173
     0
291
     1
 45
0.0
1001
ACAD
1000
AcDbSavedByObjectVersion
1070
     0
  0
VISUALSTYLE
  5
2E
102
{ACAD_REACTORS
330
2A
102
}
102
{ACAD_XDICTIONARY
360
3F7
102
}
330
2A
100
AcDbVisualStyle
  2
GouraudWithEdges
 70
     3
 71
     2
 72
     2
 73
     1
 90
        2
 40
0.6
 41
30.0
 62
     5
 63
     7
 74
     1
 91
        0
 64
     7
 65
   257
 75
     1
175
     1
 42
1.0
 92
        0
 66
   257
 43
1.0
 76
     1
 77
     6
 78
     2
 67
     7
 79
     5
170
     0
171
     0
290
     0
174
     0
 93
       13
 44
0.0
173
     0
291
     1
 45
0.0
1001
ACAD
1000
AcDbSavedByObjectVersion
1070
     0
  0
VISUALSTYLE
  5
31
102
{ACAD_REACTORS
330
2A
102
}
102
{ACAD_XDICTIONARY
360
3FD
102
}
330
2A
100
AcDbVisualStyle
  2
Hidden
 70
     6
 71
     1
 72
     2
 73
     2
 90
        0
 40
0.6
 41
30.0
 62
     5
 63
     7
 74
     2
 91
        2
 64
     7
 65
   257
 75
     2
175
     1
 42
40.0
 92
        0
 66
   257
 43
1.0
 76
     1
 77
     6
 78
     2
 67
     7
 79
     3
170
     0
171
     0
290
     0
174
     0
 93
        1
 44
0.0
173
     0
291
     0
 45
0.0
1001
ACAD
1000
AcDbSavedByObjectVersion
1070
     0
  0
VISUALSTYLE
  5
3B
102
{ACAD_REACTORS
330
2A
102
}
102
{ACAD_XDICTIONARY
360
411
102
}
330
2A
100
AcDbVisualStyle
  2
JitterOff
 70
    20
 71
     2
 72
     2
 73
     0
 90
        0
 40
0.6
 41
30.0
 62
     5
 63
     7
 74
     1
 91
        4
 64
     7
 65
   257
 75
     1
175
     1
 42
1.0
 92
       10
 66
     7
 43
1.0
 76
     1
 77
     6
 78
     2
 67
     7
 79
     5
170
     0
171
     0
290
     0
174
     0
 93
        1
 44
0.0
173
     0
291
     1
 45
0.0
1001
ACAD
1000
AcDbSavedByObjectVersion
1070
     0
  0
VISUALSTYLE
  5
38
102
{ACAD_REACTORS
330
2A
102
}
102
{ACAD_XDICTIONARY
360
40B
102
}
330
2A
100
AcDbVisualStyle
  2
Linepattern
 70
    14
 71
     2
 72
     2
 73
     0
 90
        0
 40
0.6
 41
30.0
 62
     5
 63
     7
 74
     1
 91
        4
 64
     7
 65
   257
 75
     7
175
     7
 42
1.0
 92
        8
 66
     7
 43
1.0
 76
     1
 77
     6
 78
     2
 67
     7
 79
     5
170
     0
171
     0
290
     0
174
     0
 93
        1
 44
0.0
173
     0
291
     1
 45
0.0
1001
ACAD
1000
AcDbSavedByObjectVersion
1070
     0
  0
VISUALSTYLE
  5
3C
102
{ACAD_REACTORS
330
2A
102
}
102
{ACAD_XDICTIONARY
360
413
102
}
330
2A
100
AcDbVisualStyle
  2
OverhangOff
 70
    21
 71
     2
 72
     2
 73
     0
 90
        0
 40
0.6
 41
30.0
 62
     5
 63
     7
 74
     1
 91
        4
 64
     7
 65
   257
 75
     1
175
     1
 42
1.0
 92
        9
 66
     7
 43
1.0
 76
     1
 77
     6
 78
     2
 67
     7
 79
     5
170
     0
171
     0
290
     0
174
     0
 93
        1
 44
0.0
173
     0
291
     1
 45
0.0
1001
ACAD
1000
AcDbSavedByObjectVersion
1070
     0
  0
VISUALSTYLE
  5
33
102
{ACAD_REACTORS
330
2A
102
}
102
{ACAD_XDICTIONARY
360
401
102
}
330
2A
100
AcDbVisualStyle
  2
Realistic
 70
     8
 71
     2
 72
     3
 73
     0
 90
        2
 40
0.6
 41
30.0
 62
     5
 63
     7
 74
     0
 91
        0
 64
     7
 65
   257
 75
     1
175
     1
 42
1.0
 92
        8
 66
   257
 43
1.0
 76
     1
 77
     6
 78
     2
 67
     7
 79
     3
170
     0
171
     0
290
     0
174
     0
 93
       13
 44
0.0
173
     0
291
     0
 45
0.0
1001
ACAD
1000
AcDbSavedByObjectVersion
1070
     0
  0
VISUALSTYLE
  5
42
102
{ACAD_REACTORS
330
2A
102
}
102
{ACAD_XDICTIONARY
360
41F
102
}
330
2A
100
AcDbVisualStyle
  2
Shaded
 70
    27
 71
     2
 72
     2
 73
     1
 90
        2
 40
0.6
 41
30.0
 62
     5
 63
     7
 74
     0
 91
        4
 64
     7
 65
   257
 75
     1
175
     1
 42
1.0
 92
        8
 66
   257
 43
1.0
 76
     1
 77
     6
 78
     2
 67
     8
 79
     3
170
     0
171
     0
290
     0
174
     0
 93
        5
 44
0.0
173
     0
291
     0
 45
0.0
1001
ACAD
1000
AcDbSavedByObjectVersion
1070
     0
  0
VISUALSTYLE
  5
41
102
{ACAD_REACTORS
330
2A
102
}
102
{ACAD_XDICTIONARY
360
41D
102
}
330
2A
100
AcDbVisualStyle
  2
Shaded with edges
 70
    26
 71
     2
 72
     2
 73
     1
 90
        2
 40
0.6
 41
30.0
 62
     5
 63
     7
 74
     1
 91
       10
 64
     7
 65
   257
 75
     2
175
     1
 42
1.0
 92
        8
 66
   257
 43
1.0
 76
     1
 77
     6
 78
     2
 67
     7
 79
     3
170
     0
171
     0
290
     0
174
     0
 93
        5
 44
0.0
173
     0
291
     0
 45
0.0
1001
ACAD
1000
AcDbSavedByObjectVersion
1070
     0
  0
VISUALSTYLE
  5
3E
102
{ACAD_REACTORS
330
2A
102
}
102
{ACAD_XDICTIONARY
360
417
102
}
330
2A
100
AcDbVisualStyle
  2
Shades of Gray
 70
    23
 71
     2
 72
     2
 73
     3
 90
        0
 40
0.6
 41
30.0
 62
     5
 63
     7
 74
     2
 91
        2
 64
     7
 65
     7
 75
     1
175
     1
 42
40.0
 92
        8
 66
     7
 43
1.0
 76
     1
 77
     6
 78
     2
 67
     7
 79
     3
170
     0
171
     0
290
     0
174
     0
 93
        1
 44
0.0
173
     0
291
     0
 45
0.0
1001
ACAD
1000
AcDbSavedByObjectVersion
1070
     0
  0
VISUALSTYLE
  5
3F
102
{ACAD_REACTORS
330
2A
102
}
102
{ACAD_XDICTIONARY
360
419
102
}
330
2A
100
AcDbVisualStyle
  2
Sketchy
 70
    24
 71
     1
 72
     2
 73
     2
 90
        0
 40
0.6
 41
30.0
 62
     5
 63
     7
 74
     2
 91
        2
 64
     7
 65
     7
 75
     1
175
     1
 42
40.0
 92
       11
 66
     7
 43
1.0
 76
     1
 77
     6
 78
     2
 67
     7
 79
     6
170
     0
171
     0
290
     0
174
     0
 93
        1
 44
0.0
173
     0
291
     0
 45
0.0
1001
ACAD
1000
AcDbSavedByObjectVersion
1070
     0
  0
VISUALSTYLE
  5
37
102
{ACAD_REACTORS
330
2A
102
}
102
{ACAD_XDICTIONARY
360
409
102
}
330
2A
100
AcDbVisualStyle
  2
Thicken
 70
    13
 71
     2
 72
     2
 73
     0
 90
        0
 40
0.6
 41
30.0
 62
     5
 63
     7
 74
     1
 91
        4
 64
     7
 65
   257
 75
     1
175
     1
 42
1.0
 92
       12
 66
     7
 43
1.0
 76
     1
 77
     6
 78
     2
 67
     7
 79
     5
170
     0
171
     0
290
     0
174
     0
 93
        1
 44
0.0
173
     0
291
     1
 45
0.0
1001
ACAD
1000
AcDbSavedByObjectVersion
1070
     0
  0
VISUALSTYLE
  5
30
102
{ACAD_REACTORS
330
2A
102
}
102
{ACAD_XDICTIONARY
360
3FB
102
}
330
2A
100
AcDbVisualStyle
  2
Wireframe
 70
     5
 71
     0
 72
     2
 73
     0
 90
        0
 40
0.6
 41
30.0
 62
     5
 63
     7
 74
     1
 91
        4
 64
     7
 65
   257
 75
     1
175
     1
 42
1.0
 92
        0
 66
   257
 43
1.0
 76
     1
 77
     6
 78
     2
 67
     7
 79
     3
170
     0
171
     0
290
     0
174
     0
 93
        1
 44
0.0
173
     0
291
     0
 45
0.0
1001
ACAD
1000
AcDbSavedByObjectVersion
1070
     0
  0
VISUALSTYLE
  5
40
102
{ACAD_REACTORS
330
2A
102
}
102
{ACAD_XDICTIONARY
360
41B
102
}
330
2A
100
AcDbVisualStyle
  2
X-Ray
 70
    25
 71
     2
 72
     2
 73
     1
 90
        1
 40
0.5
 41
30.0
 62
     5
 63
     7
 74
     1
 91
        0
 64
     7
 65
   257
 75
     1
175
     1
 42
1.0
 92
        8
 66
     7
 43
1.0
 76
     1
 77
     6
 78
     2
 67
     7
 79
     3
170
     0
171
     0
290
     0
174
     0
 93
       13
 44
0.0
173
     0
291
     0
 45
0.0
1001
ACAD
1000
AcDbSavedByObjectVersion
1070
     0
  0
DICTIONARYVAR
  5
3EF
102
{ACAD_REACTORS
330
3E6
102
}
330
3E6
100
DictionaryVariables
280
     0
  1
1:1
  0
DICTIONARYVAR
  5
3E8
102
{ACAD_REACTORS
330
3E6
102
}
330
3E6
100
DictionaryVariables
280
     0
  1
Standard
  0
DICTIONARYVAR
  5
3E7
102
{ACAD_REACTORS
330
3E6
102
}
330
3E6
100
DictionaryVariables
280
     0
  1
Standard
  0
DICTIONARYVAR
  5
3EB
102
{ACAD_REACTORS
330
3E6
102
}
330
3E6
100
DictionaryVariables
280
     0
  1
2
  0
DICTIONARYVAR
  5
3EC
102
{ACAD_REACTORS
330
3E6
102
}
330
3E6
100
DictionaryVariables
280
     0
  1
1
  0
DICTIONARYVAR
  5
3F0
102
{ACAD_REACTORS
330
3E6
102
}
330
3E6
100
DictionaryVariables
280
     0
  1
1
  0
DICTIONARY
  5
423
330
45
100
AcDbDictionary
280
     1
281
     1
  3
ACAD_XREC_ROUNDTRIP
360
424
  0
DICTIONARY
  5
421
330
44
100
AcDbDictionary
280
     1
281
     1
  3
ACAD_XREC_ROUNDTRIP
360
422
  0
DICTIONARY
  5
425
330
46
100
AcDbDictionary
280
     1
281
     1
  3
ACAD_XREC_ROUNDTRIP
360
426
  0
DICTIONARY
  5
428
330
6C
100
AcDbDictionary
280
     1
281
     1
  3
ACAD_XREC_ROUNDTRIP
360
429
  0
DICTIONARY
  5
3F9
330
2F
100
AcDbDictionary
280
     1
281
     1
  3
ACAD_XREC_ROUNDTRIP
360
3FA
  0
DICTIONARY
  5
3FF
330
32
100
AcDbDictionary
280
     1
281
     1
  3
ACAD_XREC_ROUNDTRIP
360
400
  0
DICTIONARY
  5
407
330
36
100
AcDbDictionary
280
     1
281
     1
  3
ACAD_XREC_ROUNDTRIP
360
408
  0
DICTIONARY
  5
40F
330
3A
100
AcDbDictionary
280
     1
281
     1
  3
ACAD_XREC_ROUNDTRIP
360
410
  0
DICTIONARY
  5
403
330
34
100
AcDbDictionary
280
     1
281
     1
  3
ACAD_XREC_ROUNDTRIP
360
404
  0
DICTIONARY
  5
405
330
35
100
AcDbDictionary
280
     1
281
     1
  3
ACAD_XREC_ROUNDTRIP
360
406
  0
DICTIONARY
  5
415
330
3D
100
AcDbDictionary
280
     1
281
     1
  3
ACAD_XREC_ROUNDTRIP
360
416
  0
DICTIONARY
  5
40D
330
39
100
AcDbDictionary
280
     1
281
     1
  3
ACAD_XREC_ROUNDTRIP
360
40E
  0
DICTIONARY
  5
3F1
330
2B
100
AcDbDictionary
280
     1
281
     1
  3
ACAD_XREC_ROUNDTRIP
360
3F2
  0
DICTIONARY
  5
3F3
330
2C
100
AcDbDictionary
280
     1
281
     1
  3
ACAD_XREC_ROUNDTRIP
360
3F4
  0
DICTIONARY
  5
3F5
330
2D
100
AcDbDictionary
280
     1
281
     1
  3
ACAD_XREC_ROUNDTRIP
360
3F6
  0
DICTIONARY
  5
3F7
330
2E
100
AcDbDictionary
280
     1
281
     1
  3
ACAD_XREC_ROUNDTRIP
360
3F8
  0
DICTIONARY
  5
3FD
330
31
100
AcDbDictionary
280
     1
281
     1
  3
ACAD_XREC_ROUNDTRIP
360
3FE
  0
DICTIONARY
  5
411
330
3B
100
AcDbDictionary
280
     1
281
     1
  3
ACAD_XREC_ROUNDTRIP
360
412
  0
DICTIONARY
  5
40B
330
38
100
AcDbDictionary
280
     1
281
     1
  3
ACAD_XREC_ROUNDTRIP
360
40C
  0
DICTIONARY
  5
413
330
3C
100
AcDbDictionary
280
     1
281
     1
  3
ACAD_XREC_ROUNDTRIP
360
414
  0
DICTIONARY
  5
401
330
33
100
AcDbDictionary
280
     1
281
     1
  3
ACAD_XREC_ROUNDTRIP
360
402
  0
DICTIONARY
  5
41F
330
42
100
AcDbDictionary
280
     1
281
     1
  3
ACAD_XREC_ROUNDTRIP
360
420
  0
DICTIONARY
  5
41D
330
41
100
AcDbDictionary
280
     1
281
     1
  3
ACAD_XREC_ROUNDTRIP
360
41E
  0
DICTIONARY
  5
417
330
3E
100
AcDbDictionary
280
     1
281
     1
  3
ACAD_XREC_ROUNDTRIP
360
418
  0
DICTIONARY
  5
419
330
3F
100
AcDbDictionary
280
     1
281
     1
  3
ACAD_XREC_ROUNDTRIP
360
41A
  0
DICTIONARY
  5
409
330
37
100
AcDbDictionary
280
     1
281
     1
  3
ACAD_XREC_ROUNDTRIP
360
40A
  0
DICTIONARY
  5
3FB
330
30
100
AcDbDictionary
280
     1
281
     1
  3
ACAD_XREC_ROUNDTRIP
360
3FC
  0
DICTIONARY
  5
41B
330
40
100
AcDbDictionary
280
     1
281
     1
  3
ACAD_XREC_ROUNDTRIP
360
41C
  0
XRECORD
  5
424
102
{ACAD_REACTORS
330
423
102
}
330
423
100
AcDbXrecord
280
     1
102
MATERIAL
148
0.0
149
0.0
149
0.0
 93
        0
 94
      127
282
     0
 72
     1
 77
     1
171
     1
175
     1
179
     1
273
     0
  0
XRECORD
  5
422
102
{ACAD_REACTORS
330
421
102
}
330
421
100
AcDbXrecord
280
     1
102
MATERIAL
148
0.0
149
0.0
149
0.0
 93
        0
 94
      127
282
     0
 72
     1
 77
     1
171
     1
175
     1
179
     1
273
     0
  0
XRECORD
  5
426
102
{ACAD_REACTORS
330
425
102
}
330
425
100
AcDbXrecord
280
     1
102
MATERIAL
148
0.0
149
0.0
149
0.0
 93
        0
 94
      127
282
     0
 72
     1
 77
     1
171
     1
175
     1
179
     1
273
     0
  0
XRECORD
  5
429
102
{ACAD_REACTORS
330
428
102
}
330
428
100
AcDbXrecord
280
     1
102
ACAD_ROUNDTRIP_2010_MLEADER_STYLE
  0
XRECORD
  5
3FA
102
{ACAD_REACTORS
330
3F9
102
}
330
3F9
100
AcDbXrecord
280
     1
102
RTVSPropertyOp0
 70
     1
102
RTVSPropertyOp1
 70
     1
102
RTVSPropertyOp2
 70
     1
102
RTVSPropertyOp3
 70
     1
102
RTVSPropertyOp4
 70
     1
102
RTVSPropertyOp5
 70
     1
102
RTVSPropertyOp6
 70
     1
102
RTVSPropertyOp7
 70
     1
102
RTVSPropertyOp8
 70
     1
102
RTVSPropertyOp9
 70
     1
102
RTVSPropertyOp10
 70
     1
102
RTVSPropertyOp11
 70
     1
102
RTVSPropertyOp12
 70
     1
102
RTVSPropertyOp13
 70
     1
102
RTVSPropertyOp14
 70
     1
102
RTVSPropertyOp15
 70
     1
102
RTVSPropertyOp16
 70
     1
102
RTVSPropertyOp17
 70
     1
102
RTVSPropertyOp18
 70
     1
102
RTVSPropertyOp19
 70
     1
102
RTVSPropertyOp20
 70
     1
102
RTVSPropertyOp21
 70
     1
102
RTVSPropertyOp22
 70
     1
102
RTVSPropertyOp23
 70
     1
102
RTVSPropertyOp24
 70
     1
102
RTVSPropertyOp25
 70
     1
102
RTVSPropertyOp26
 70
     1
102
RTVSPropertyOp27
 70
     1
102
RTVSPropertyOp28
 70
     1
102
RTVSPropertyOp29
 70
     1
102
RTVSPropertyOp30
 70
     1
102
RTVSPropertyOp31
 70
     1
102
RTVSPropertyOp32
 70
     1
102
RTVSPropertyOp33
 70
     1
102
RTVSPropertyOp34
 70
     1
102
RTVSPropertyOp35
 70
     1
102
RTVSPropertyOp36
 70
     1
102
RTVSPropertyOp37
 70
     1
102
RTVSPropertyOp38
 70
     1
102
RTVSPropertyOp39
 70
     1
102
RTVSPropertyOp40
 70
     1
102
RTVSPropertyOp41
 70
     1
102
RTVSPropertyOp42
 70
     1
102
RTVSPropertyOp43
 70
     1
102
RTVSPropertyOp44
 70
     1
102
RTVSPropertyOp45
 70
     1
102
RTVSPropertyOp46
 70
     1
102
RTVSPropertyOp47
 70
     1
102
RTVSPropertyOp48
 70
     1
102
RTVSPropertyOp49
 70
     1
102
RTVSPropertyOp50
 70
     1
102
RTVSPropertyOp51
 70
     0
102
RTVSPropertyOp52
 70
     0
102
RTVSPropertyOp53
 70
     1
102
RTVSPropertyOp54
 70
     1
102
RTVSPropertyOp55
 70
     1
102
RTVSPropertyOp56
 70
     1
102
RTVSPropertyOp57
 70
     1
102
RTVSPost2010Prop28
280
     1
102
RTVSPost2010PropOp28
 70
     1
102
RTVSPost2010Prop29
280
     1
102
RTVSPost2010PropOp29
 70
     1
102
RTVSPost2010Prop30
280
     0
102
RTVSPost2010PropOp30
 70
     1
102
RTVSPost2010Prop31
280
     0
102
RTVSPost2010PropOp31
 70
     1
102
RTVSPost2010Prop32
280
     0
102
RTVSPost2010PropOp32
 70
     1
102
RTVSPost2010Prop33
280
     0
102
RTVSPost2010PropOp33
 70
     1
102
RTVSPost2010Prop34
280
     0
102
RTVSPost2010PropOp34
 70
     1
102
RTVSPost2010Prop35
280
     0
102
RTVSPost2010PropOp35
 70
     1
102
RTVSPost2010Prop36
280
     0
102
RTVSPost2010PropOp36
 70
     1
102
RTVSPost2010Prop37
 90
       50
102
RTVSPost2010PropOp37
 70
     1
102
RTVSPost2010Prop38
140
0.0
102
RTVSPost2010PropOp38
 70
     1
102
RTVSPost2010Prop39
140
1.0
102
RTVSPost2010PropOp39
 70
     1
102
RTVSPost2010Prop40
 90
        0
102
RTVSPost2010PropOp40
 70
     1
102
RTVSPost2010Prop41ColorIndex
 90
       18
102
RTVSPost2010Prop41ColorRGB
 90
        0
102
RTVSPost2010PropOp41
 70
     1
102
RTVSPost2010Prop42
 90
       50
102
RTVSPost2010PropOp42
 70
     1
102
RTVSPost2010Prop43
 90
        3
102
RTVSPost2010PropOp43
 70
     1
102
RTVSPost2010Prop44ColorIndex
 90
        5
102
RTVSPost2010Prop44ColorRGB
 90
      255
102
RTVSPost2010PropOp44
 70
     1
102
RTVSPost2010Prop45
280
     0
102
RTVSPost2010PropOp45
 70
     1
102
RTVSPost2010Prop46
 90
       50
102
RTVSPost2010PropOp46
 70
     1
102
RTVSPost2010Prop47
 90
       50
102
RTVSPost2010PropOp47
 70
     1
102
RTVSPost2010Prop48
 90
       50
102
RTVSPost2010PropOp48
 70
     1
102
RTVSPost2010Prop49
280
     0
102
RTVSPost2010PropOp49
 70
     1
102
RTVSPost2010Prop50
 90
       50
102
RTVSPost2010PropOp50
 70
     1
102
RTVSPost2010Prop51ColorIndex
 90
      256
102
RTVSPost2010Prop51ColorRGB
 90
-16777216
102
RTVSPost2010PropOp51
 70
     0
102
RTVSPost2010Prop52
140
1.0
102
RTVSPost2010PropOp52
 70
     0
102
RTVSPost2010Prop53
 90
        2
102
RTVSPost2010PropOp53
 70
     1
102
RTVSPost2010Prop54
  1
strokes_ogs.tif
102
RTVSPost2010PropOp54
 70
     1
102
RTVSPost2010Prop55
280
     0
102
RTVSPost2010PropOp55
 70
     1
102
RTVSPost2010Prop56
140
1.0
102
RTVSPost2010PropOp56
 70
     1
102
RTVSPost2010Prop57
140
1.0
102
RTVSPost2010PropOp57
 70
     1
  0
XRECORD
  5
400
102
{ACAD_REACTORS
330
3FF
102
}
330
3FF
100
AcDbXrecord
280
     1
102
RTVSPropertyOp0
 70
     1
102
RTVSPropertyOp1
 70
     1
102
RTVSPropertyOp2
 70
     1
102
RTVSPropertyOp3
 70
     1
102
RTVSPropertyOp4
 70
     1
102
RTVSPropertyOp5
 70
     1
102
RTVSPropertyOp6
 70
     1
102
RTVSPropertyOp7
 70
     1
102
RTVSPropertyOp8
 70
     1
102
RTVSPropertyOp9
 70
     1
102
RTVSPropertyOp10
 70
     1
102
RTVSPropertyOp11
 70
     1
102
RTVSPropertyOp12
 70
     1
102
RTVSPropertyOp13
 70
     1
102
RTVSPropertyOp14
 70
     1
102
RTVSPropertyOp15
 70
     1
102
RTVSPropertyOp16
 70
     1
102
RTVSPropertyOp17
 70
     1
102
RTVSPropertyOp18
 70
     1
102
RTVSPropertyOp19
 70
     1
102
RTVSPropertyOp20
 70
     1
102
RTVSPropertyOp21
 70
     1
102
RTVSPropertyOp22
 70
     1
102
RTVSPropertyOp23
 70
     1
102
RTVSPropertyOp24
 70
     1
102
RTVSPropertyOp25
 70
     1
102
RTVSPropertyOp26
 70
     1
102
RTVSPropertyOp27
 70
     1
102
RTVSPropertyOp28
 70
     1
102
RTVSPropertyOp29
 70
     1
102
RTVSPropertyOp30
 70
     1
102
RTVSPropertyOp31
 70
     1
102
RTVSPropertyOp32
 70
     1
102
RTVSPropertyOp33
 70
     1
102
RTVSPropertyOp34
 70
     1
102
RTVSPropertyOp35
 70
     1
102
RTVSPropertyOp36
 70
     1
102
RTVSPropertyOp37
 70
     1
102
RTVSPropertyOp38
 70
     1
102
RTVSPropertyOp39
 70
     1
102
RTVSPropertyOp40
 70
     1
102
RTVSPropertyOp41
 70
     1
102
RTVSPropertyOp42
 70
     1
102
RTVSPropertyOp43
 70
     1
102
RTVSPropertyOp44
 70
     1
102
RTVSPropertyOp45
 70
     1
102
RTVSPropertyOp46
 70
     1
102
RTVSPropertyOp47
 70
     1
102
RTVSPropertyOp48
 70
     1
102
RTVSPropertyOp49
 70
     1
102
RTVSPropertyOp50
 70
     1
102
RTVSPropertyOp51
 70
     0
102
RTVSPropertyOp52
 70
     0
102
RTVSPropertyOp53
 70
     1
102
RTVSPropertyOp54
 70
     1
102
RTVSPropertyOp55
 70
     1
102
RTVSPropertyOp56
 70
     1
102
RTVSPropertyOp57
 70
     1
102
RTVSPost2010Prop28
280
     0
102
RTVSPost2010PropOp28
 70
     1
102
RTVSPost2010Prop29
280
     1
102
RTVSPost2010PropOp29
 70
     1
102
RTVSPost2010Prop30
280
     1
102
RTVSPost2010PropOp30
 70
     1
102
RTVSPost2010Prop31
280
     0
102
RTVSPost2010PropOp31
 70
     1
102
RTVSPost2010Prop32
280
     0
102
RTVSPost2010PropOp32
 70
     1
102
RTVSPost2010Prop33
280
     0
102
RTVSPost2010PropOp33
 70
     1
102
RTVSPost2010Prop34
280
     0
102
RTVSPost2010PropOp34
 70
     1
102
RTVSPost2010Prop35
280
     0
102
RTVSPost2010PropOp35
 70
     1
102
RTVSPost2010Prop36
280
     0
102
RTVSPost2010PropOp36
 70
     1
102
RTVSPost2010Prop37
 90
       50
102
RTVSPost2010PropOp37
 70
     1
102
RTVSPost2010Prop38
140
0.0
102
RTVSPost2010PropOp38
 70
     1
102
RTVSPost2010Prop39
140
1.0
102
RTVSPost2010PropOp39
 70
     1
102
RTVSPost2010Prop40
 90
        0
102
RTVSPost2010PropOp40
 70
     1
102
RTVSPost2010Prop41ColorIndex
 90
       18
102
RTVSPost2010Prop41ColorRGB
 90
        0
102
RTVSPost2010PropOp41
 70
     1
102
RTVSPost2010Prop42
 90
       50
102
RTVSPost2010PropOp42
 70
     1
102
RTVSPost2010Prop43
 90
        3
102
RTVSPost2010PropOp43
 70
     1
102
RTVSPost2010Prop44ColorIndex
 90
        5
102
RTVSPost2010Prop44ColorRGB
 90
      255
102
RTVSPost2010PropOp44
 70
     1
102
RTVSPost2010Prop45
280
     0
102
RTVSPost2010PropOp45
 70
     1
102
RTVSPost2010Prop46
 90
       50
102
RTVSPost2010PropOp46
 70
     1
102
RTVSPost2010Prop47
 90
       50
102
RTVSPost2010PropOp47
 70
     1
102
RTVSPost2010Prop48
 90
       50
102
RTVSPost2010PropOp48
 70
     1
102
RTVSPost2010Prop49
280
     0
102
RTVSPost2010PropOp49
 70
     1
102
RTVSPost2010Prop50
 90
       50
102
RTVSPost2010PropOp50
 70
     1
102
RTVSPost2010Prop51ColorIndex
 90
      256
102
RTVSPost2010Prop51ColorRGB
 90
-16777216
102
RTVSPost2010PropOp51
 70
     0
102
RTVSPost2010Prop52
140
1.0
102
RTVSPost2010PropOp52
 70
     0
102
RTVSPost2010Prop53
 90
        2
102
RTVSPost2010PropOp53
 70
     1
102
RTVSPost2010Prop54
  1
strokes_ogs.tif
102
RTVSPost2010PropOp54
 70
     1
102
RTVSPost2010Prop55
280
     0
102
RTVSPost2010PropOp55
 70
     1
102
RTVSPost2010Prop56
140
1.0
102
RTVSPost2010PropOp56
 70
     1
102
RTVSPost2010Prop57
140
1.0
102
RTVSPost2010PropOp57
 70
     1
  0
XRECORD
  5
408
102
{ACAD_REACTORS
330
407
102
}
330
407
100
AcDbXrecord
280
     1
102
RTVSPropertyOp0
 70
     1
102
RTVSPropertyOp1
 70
     1
102
RTVSPropertyOp2
 70
     1
102
RTVSPropertyOp3
 70
     1
102
RTVSPropertyOp4
 70
     1
102
RTVSPropertyOp5
 70
     1
102
RTVSPropertyOp6
 70
     1
102
RTVSPropertyOp7
 70
     1
102
RTVSPropertyOp8
 70
     1
102
RTVSPropertyOp9
 70
     1
102
RTVSPropertyOp10
 70
     1
102
RTVSPropertyOp11
 70
     1
102
RTVSPropertyOp12
 70
     1
102
RTVSPropertyOp13
 70
     1
102
RTVSPropertyOp14
 70
     1
102
RTVSPropertyOp15
 70
     1
102
RTVSPropertyOp16
 70
     1
102
RTVSPropertyOp17
 70
     1
102
RTVSPropertyOp18
 70
     1
102
RTVSPropertyOp19
 70
     1
102
RTVSPropertyOp20
 70
     1
102
RTVSPropertyOp21
 70
     1
102
RTVSPropertyOp22
 70
     1
102
RTVSPropertyOp23
 70
     1
102
RTVSPropertyOp24
 70
     1
102
RTVSPropertyOp25
 70
     1
102
RTVSPropertyOp26
 70
     1
102
RTVSPropertyOp27
 70
     1
102
RTVSPropertyOp28
 70
     1
102
RTVSPropertyOp29
 70
     1
102
RTVSPropertyOp30
 70
     1
102
RTVSPropertyOp31
 70
     1
102
RTVSPropertyOp32
 70
     1
102
RTVSPropertyOp33
 70
     1
102
RTVSPropertyOp34
 70
     1
102
RTVSPropertyOp35
 70
     1
102
RTVSPropertyOp36
 70
     1
102
RTVSPropertyOp37
 70
     1
102
RTVSPropertyOp38
 70
     1
102
RTVSPropertyOp39
 70
     1
102
RTVSPropertyOp40
 70
     1
102
RTVSPropertyOp41
 70
     1
102
RTVSPropertyOp42
 70
     1
102
RTVSPropertyOp43
 70
     1
102
RTVSPropertyOp44
 70
     1
102
RTVSPropertyOp45
 70
     1
102
RTVSPropertyOp46
 70
     1
102
RTVSPropertyOp47
 70
     1
102
RTVSPropertyOp48
 70
     1
102
RTVSPropertyOp49
 70
     1
102
RTVSPropertyOp50
 70
     1
102
RTVSPropertyOp51
 70
     0
102
RTVSPropertyOp52
 70
     0
102
RTVSPropertyOp53
 70
     1
102
RTVSPropertyOp54
 70
     1
102
RTVSPropertyOp55
 70
     1
102
RTVSPropertyOp56
 70
     1
102
RTVSPropertyOp57
 70
     1
102
RTVSPost2010Prop28
280
     0
102
RTVSPost2010PropOp28
 70
     1
102
RTVSPost2010Prop29
280
     1
102
RTVSPost2010PropOp29
 70
     1
102
RTVSPost2010Prop30
280
     1
102
RTVSPost2010PropOp30
 70
     1
102
RTVSPost2010Prop31
280
     0
102
RTVSPost2010PropOp31
 70
     1
102
RTVSPost2010Prop32
280
     0
102
RTVSPost2010PropOp32
 70
     1
102
RTVSPost2010Prop33
280
     0
102
RTVSPost2010PropOp33
 70
     1
102
RTVSPost2010Prop34
280
     0
102
RTVSPost2010PropOp34
 70
     1
102
RTVSPost2010Prop35
280
     0
102
RTVSPost2010PropOp35
 70
     1
102
RTVSPost2010Prop36
280
     0
102
RTVSPost2010PropOp36
 70
     1
102
RTVSPost2010Prop37
 90
       50
102
RTVSPost2010PropOp37
 70
     1
102
RTVSPost2010Prop38
140
0.0
102
RTVSPost2010PropOp38
 70
     1
102
RTVSPost2010Prop39
140
1.0
102
RTVSPost2010PropOp39
 70
     1
102
RTVSPost2010Prop40
 90
        0
102
RTVSPost2010PropOp40
 70
     1
102
RTVSPost2010Prop41ColorIndex
 90
       18
102
RTVSPost2010Prop41ColorRGB
 90
        0
102
RTVSPost2010PropOp41
 70
     1
102
RTVSPost2010Prop42
 90
       50
102
RTVSPost2010PropOp42
 70
     1
102
RTVSPost2010Prop43
 90
        3
102
RTVSPost2010PropOp43
 70
     1
102
RTVSPost2010Prop44ColorIndex
 90
        5
102
RTVSPost2010Prop44ColorRGB
 90
      255
102
RTVSPost2010PropOp44
 70
     1
102
RTVSPost2010Prop45
280
     0
102
RTVSPost2010PropOp45
 70
     1
102
RTVSPost2010Prop46
 90
       50
102
RTVSPost2010PropOp46
 70
     1
102
RTVSPost2010Prop47
 90
       50
102
RTVSPost2010PropOp47
 70
     1
102
RTVSPost2010Prop48
 90
       50
102
RTVSPost2010PropOp48
 70
     1
102
RTVSPost2010Prop49
280
     0
102
RTVSPost2010PropOp49
 70
     1
102
RTVSPost2010Prop50
 90
       50
102
RTVSPost2010PropOp50
 70
     1
102
RTVSPost2010Prop51ColorIndex
 90
      256
102
RTVSPost2010Prop51ColorRGB
 90
-16777216
102
RTVSPost2010PropOp51
 70
     0
102
RTVSPost2010Prop52
140
1.0
102
RTVSPost2010PropOp52
 70
     0
102
RTVSPost2010Prop53
 90
        2
102
RTVSPost2010PropOp53
 70
     1
102
RTVSPost2010Prop54
  1
strokes_ogs.tif
102
RTVSPost2010PropOp54
 70
     1
102
RTVSPost2010Prop55
280
     0
102
RTVSPost2010PropOp55
 70
     1
102
RTVSPost2010Prop56
140
1.0
102
RTVSPost2010PropOp56
 70
     1
102
RTVSPost2010Prop57
140
1.0
102
RTVSPost2010PropOp57
 70
     1
  0
XRECORD
  5
410
102
{ACAD_REACTORS
330
40F
102
}
330
40F
100
AcDbXrecord
280
     1
102
RTVSPropertyOp0
 70
     1
102
RTVSPropertyOp1
 70
     1
102
RTVSPropertyOp2
 70
     1
102
RTVSPropertyOp3
 70
     1
102
RTVSPropertyOp4
 70
     1
102
RTVSPropertyOp5
 70
     1
102
RTVSPropertyOp6
 70
     1
102
RTVSPropertyOp7
 70
     1
102
RTVSPropertyOp8
 70
     1
102
RTVSPropertyOp9
 70
     1
102
RTVSPropertyOp10
 70
     1
102
RTVSPropertyOp11
 70
     1
102
RTVSPropertyOp12
 70
     1
102
RTVSPropertyOp13
 70
     1
102
RTVSPropertyOp14
 70
     1
102
RTVSPropertyOp15
 70
     1
102
RTVSPropertyOp16
 70
     1
102
RTVSPropertyOp17
 70
     1
102
RTVSPropertyOp18
 70
     1
102
RTVSPropertyOp19
 70
     1
102
RTVSPropertyOp20
 70
     1
102
RTVSPropertyOp21
 70
     1
102
RTVSPropertyOp22
 70
     1
102
RTVSPropertyOp23
 70
     1
102
RTVSPropertyOp24
 70
     1
102
RTVSPropertyOp25
 70
     1
102
RTVSPropertyOp26
 70
     1
102
RTVSPropertyOp27
 70
     1
102
RTVSPropertyOp28
 70
     1
102
RTVSPropertyOp29
 70
     1
102
RTVSPropertyOp30
 70
     1
102
RTVSPropertyOp31
 70
     1
102
RTVSPropertyOp32
 70
     1
102
RTVSPropertyOp33
 70
     1
102
RTVSPropertyOp34
 70
     1
102
RTVSPropertyOp35
 70
     1
102
RTVSPropertyOp36
 70
     1
102
RTVSPropertyOp37
 70
     1
102
RTVSPropertyOp38
 70
     1
102
RTVSPropertyOp39
 70
     1
102
RTVSPropertyOp40
 70
     1
102
RTVSPropertyOp41
 70
     1
102
RTVSPropertyOp42
 70
     1
102
RTVSPropertyOp43
 70
     1
102
RTVSPropertyOp44
 70
     1
102
RTVSPropertyOp45
 70
     1
102
RTVSPropertyOp46
 70
     1
102
RTVSPropertyOp47
 70
     1
102
RTVSPropertyOp48
 70
     1
102
RTVSPropertyOp49
 70
     1
102
RTVSPropertyOp50
 70
     1
102
RTVSPropertyOp51
 70
     0
102
RTVSPropertyOp52
 70
     0
102
RTVSPropertyOp53
 70
     1
102
RTVSPropertyOp54
 70
     1
102
RTVSPropertyOp55
 70
     1
102
RTVSPropertyOp56
 70
     1
102
RTVSPropertyOp57
 70
     1
102
RTVSPost2010Prop28
280
     0
102
RTVSPost2010PropOp28
 70
     1
102
RTVSPost2010Prop29
280
     1
102
RTVSPost2010PropOp29
 70
     1
102
RTVSPost2010Prop30
280
     1
102
RTVSPost2010PropOp30
 70
     1
102
RTVSPost2010Prop31
280
     0
102
RTVSPost2010PropOp31
 70
     1
102
RTVSPost2010Prop32
280
     0
102
RTVSPost2010PropOp32
 70
     1
102
RTVSPost2010Prop33
280
     0
102
RTVSPost2010PropOp33
 70
     1
102
RTVSPost2010Prop34
280
     0
102
RTVSPost2010PropOp34
 70
     1
102
RTVSPost2010Prop35
280
     0
102
RTVSPost2010PropOp35
 70
     1
102
RTVSPost2010Prop36
280
     0
102
RTVSPost2010PropOp36
 70
     1
102
RTVSPost2010Prop37
 90
       50
102
RTVSPost2010PropOp37
 70
     1
102
RTVSPost2010Prop38
140
0.0
102
RTVSPost2010PropOp38
 70
     1
102
RTVSPost2010Prop39
140
1.0
102
RTVSPost2010PropOp39
 70
     1
102
RTVSPost2010Prop40
 90
        0
102
RTVSPost2010PropOp40
 70
     1
102
RTVSPost2010Prop41ColorIndex
 90
       18
102
RTVSPost2010Prop41ColorRGB
 90
        0
102
RTVSPost2010PropOp41
 70
     1
102
RTVSPost2010Prop42
 90
       50
102
RTVSPost2010PropOp42
 70
     1
102
RTVSPost2010Prop43
 90
        3
102
RTVSPost2010PropOp43
 70
     1
102
RTVSPost2010Prop44ColorIndex
 90
        5
102
RTVSPost2010Prop44ColorRGB
 90
      255
102
RTVSPost2010PropOp44
 70
     1
102
RTVSPost2010Prop45
280
     0
102
RTVSPost2010PropOp45
 70
     1
102
RTVSPost2010Prop46
 90
       50
102
RTVSPost2010PropOp46
 70
     1
102
RTVSPost2010Prop47
 90
       50
102
RTVSPost2010PropOp47
 70
     1
102
RTVSPost2010Prop48
 90
       50
102
RTVSPost2010PropOp48
 70
     1
102
RTVSPost2010Prop49
280
     0
102
RTVSPost2010PropOp49
 70
     1
102
RTVSPost2010Prop50
 90
       50
102
RTVSPost2010PropOp50
 70
     1
102
RTVSPost2010Prop51ColorIndex
 90
      256
102
RTVSPost2010Prop51ColorRGB
 90
-16777216
102
RTVSPost2010PropOp51
 70
     0
102
RTVSPost2010Prop52
140
1.0
102
RTVSPost2010PropOp52
 70
     0
102
RTVSPost2010Prop53
 90
        2
102
RTVSPost2010PropOp53
 70
     1
102
RTVSPost2010Prop54
  1
strokes_ogs.tif
102
RTVSPost2010PropOp54
 70
     1
102
RTVSPost2010Prop55
280
     0
102
RTVSPost2010PropOp55
 70
     1
102
RTVSPost2010Prop56
140
1.0
102
RTVSPost2010PropOp56
 70
     1
102
RTVSPost2010Prop57
140
1.0
102
RTVSPost2010PropOp57
 70
     1
  0
XRECORD
  5
404
102
{ACAD_REACTORS
330
403
102
}
330
403
100
AcDbXrecord
280
     1
102
RTVSPropertyOp0
 70
     1
102
RTVSPropertyOp1
 70
     1
102
RTVSPropertyOp2
 70
     1
102
RTVSPropertyOp3
 70
     1
102
RTVSPropertyOp4
 70
     1
102
RTVSPropertyOp5
 70
     1
102
RTVSPropertyOp6
 70
     1
102
RTVSPropertyOp7
 70
     1
102
RTVSPropertyOp8
 70
     1
102
RTVSPropertyOp9
 70
     1
102
RTVSPropertyOp10
 70
     1
102
RTVSPropertyOp11
 70
     1
102
RTVSPropertyOp12
 70
     1
102
RTVSPropertyOp13
 70
     1
102
RTVSPropertyOp14
 70
     1
102
RTVSPropertyOp15
 70
     1
102
RTVSPropertyOp16
 70
     1
102
RTVSPropertyOp17
 70
     1
102
RTVSPropertyOp18
 70
     1
102
RTVSPropertyOp19
 70
     1
102
RTVSPropertyOp20
 70
     1
102
RTVSPropertyOp21
 70
     1
102
RTVSPropertyOp22
 70
     1
102
RTVSPropertyOp23
 70
     1
102
RTVSPropertyOp24
 70
     1
102
RTVSPropertyOp25
 70
     1
102
RTVSPropertyOp26
 70
     1
102
RTVSPropertyOp27
 70
     1
102
RTVSPropertyOp28
 70
     1
102
RTVSPropertyOp29
 70
     1
102
RTVSPropertyOp30
 70
     1
102
RTVSPropertyOp31
 70
     1
102
RTVSPropertyOp32
 70
     1
102
RTVSPropertyOp33
 70
     1
102
RTVSPropertyOp34
 70
     1
102
RTVSPropertyOp35
 70
     1
102
RTVSPropertyOp36
 70
     1
102
RTVSPropertyOp37
 70
     1
102
RTVSPropertyOp38
 70
     1
102
RTVSPropertyOp39
 70
     1
102
RTVSPropertyOp40
 70
     1
102
RTVSPropertyOp41
 70
     1
102
RTVSPropertyOp42
 70
     1
102
RTVSPropertyOp43
 70
     1
102
RTVSPropertyOp44
 70
     1
102
RTVSPropertyOp45
 70
     1
102
RTVSPropertyOp46
 70
     1
102
RTVSPropertyOp47
 70
     1
102
RTVSPropertyOp48
 70
     1
102
RTVSPropertyOp49
 70
     1
102
RTVSPropertyOp50
 70
     1
102
RTVSPropertyOp51
 70
     0
102
RTVSPropertyOp52
 70
     0
102
RTVSPropertyOp53
 70
     1
102
RTVSPropertyOp54
 70
     1
102
RTVSPropertyOp55
 70
     1
102
RTVSPropertyOp56
 70
     1
102
RTVSPropertyOp57
 70
     1
102
RTVSPost2010Prop28
280
     0
102
RTVSPost2010PropOp28
 70
     1
102
RTVSPost2010Prop29
280
     1
102
RTVSPost2010PropOp29
 70
     1
102
RTVSPost2010Prop30
280
     1
102
RTVSPost2010PropOp30
 70
     1
102
RTVSPost2010Prop31
280
     0
102
RTVSPost2010PropOp31
 70
     1
102
RTVSPost2010Prop32
280
     0
102
RTVSPost2010PropOp32
 70
     1
102
RTVSPost2010Prop33
280
     0
102
RTVSPost2010PropOp33
 70
     1
102
RTVSPost2010Prop34
280
     0
102
RTVSPost2010PropOp34
 70
     1
102
RTVSPost2010Prop35
280
     0
102
RTVSPost2010PropOp35
 70
     1
102
RTVSPost2010Prop36
280
     0
102
RTVSPost2010PropOp36
 70
     1
102
RTVSPost2010Prop37
 90
       50
102
RTVSPost2010PropOp37
 70
     1
102
RTVSPost2010Prop38
140
0.0
102
RTVSPost2010PropOp38
 70
     1
102
RTVSPost2010Prop39
140
1.0
102
RTVSPost2010PropOp39
 70
     1
102
RTVSPost2010Prop40
 90
        0
102
RTVSPost2010PropOp40
 70
     1
102
RTVSPost2010Prop41ColorIndex
 90
       18
102
RTVSPost2010Prop41ColorRGB
 90
        0
102
RTVSPost2010PropOp41
 70
     1
102
RTVSPost2010Prop42
 90
       50
102
RTVSPost2010PropOp42
 70
     1
102
RTVSPost2010Prop43
 90
        3
102
RTVSPost2010PropOp43
 70
     1
102
RTVSPost2010Prop44ColorIndex
 90
        5
102
RTVSPost2010Prop44ColorRGB
 90
      255
102
RTVSPost2010PropOp44
 70
     1
102
RTVSPost2010Prop45
280
     0
102
RTVSPost2010PropOp45
 70
     1
102
RTVSPost2010Prop46
 90
       50
102
RTVSPost2010PropOp46
 70
     1
102
RTVSPost2010Prop47
 90
       50
102
RTVSPost2010PropOp47
 70
     1
102
RTVSPost2010Prop48
 90
       50
102
RTVSPost2010PropOp48
 70
     1
102
RTVSPost2010Prop49
280
     0
102
RTVSPost2010PropOp49
 70
     1
102
RTVSPost2010Prop50
 90
       50
102
RTVSPost2010PropOp50
 70
     1
102
RTVSPost2010Prop51ColorIndex
 90
      256
102
RTVSPost2010Prop51ColorRGB
 90
-16777216
102
RTVSPost2010PropOp51
 70
     0
102
RTVSPost2010Prop52
140
1.0
102
RTVSPost2010PropOp52
 70
     0
102
RTVSPost2010Prop53
 90
        2
102
RTVSPost2010PropOp53
 70
     1
102
RTVSPost2010Prop54
  1
strokes_ogs.tif
102
RTVSPost2010PropOp54
 70
     1
102
RTVSPost2010Prop55
280
     0
102
RTVSPost2010PropOp55
 70
     1
102
RTVSPost2010Prop56
140
1.0
102
RTVSPost2010PropOp56
 70
     1
102
RTVSPost2010Prop57
140
1.0
102
RTVSPost2010PropOp57
 70
     1
  0
XRECORD
  5
406
102
{ACAD_REACTORS
330
405
102
}
330
405
100
AcDbXrecord
280
     1
102
RTVSPropertyOp0
 70
     1
102
RTVSPropertyOp1
 70
     1
102
RTVSPropertyOp2
 70
     1
102
RTVSPropertyOp3
 70
     1
102
RTVSPropertyOp4
 70
     1
102
RTVSPropertyOp5
 70
     1
102
RTVSPropertyOp6
 70
     1
102
RTVSPropertyOp7
 70
     1
102
RTVSPropertyOp8
 70
     1
102
RTVSPropertyOp9
 70
     1
102
RTVSPropertyOp10
 70
     1
102
RTVSPropertyOp11
 70
     1
102
RTVSPropertyOp12
 70
     1
102
RTVSPropertyOp13
 70
     1
102
RTVSPropertyOp14
 70
     1
102
RTVSPropertyOp15
 70
     1
102
RTVSPropertyOp16
 70
     1
102
RTVSPropertyOp17
 70
     1
102
RTVSPropertyOp18
 70
     1
102
RTVSPropertyOp19
 70
     1
102
RTVSPropertyOp20
 70
     1
102
RTVSPropertyOp21
 70
     1
102
RTVSPropertyOp22
 70
     1
102
RTVSPropertyOp23
 70
     1
102
RTVSPropertyOp24
 70
     1
102
RTVSPropertyOp25
 70
     1
102
RTVSPropertyOp26
 70
     1
102
RTVSPropertyOp27
 70
     1
102
RTVSPropertyOp28
 70
     1
102
RTVSPropertyOp29
 70
     1
102
RTVSPropertyOp30
 70
     1
102
RTVSPropertyOp31
 70
     1
102
RTVSPropertyOp32
 70
     1
102
RTVSPropertyOp33
 70
     1
102
RTVSPropertyOp34
 70
     1
102
RTVSPropertyOp35
 70
     1
102
RTVSPropertyOp36
 70
     1
102
RTVSPropertyOp37
 70
     1
102
RTVSPropertyOp38
 70
     1
102
RTVSPropertyOp39
 70
     1
102
RTVSPropertyOp40
 70
     1
102
RTVSPropertyOp41
 70
     1
102
RTVSPropertyOp42
 70
     1
102
RTVSPropertyOp43
 70
     1
102
RTVSPropertyOp44
 70
     1
102
RTVSPropertyOp45
 70
     1
102
RTVSPropertyOp46
 70
     1
102
RTVSPropertyOp47
 70
     1
102
RTVSPropertyOp48
 70
     1
102
RTVSPropertyOp49
 70
     1
102
RTVSPropertyOp50
 70
     1
102
RTVSPropertyOp51
 70
     0
102
RTVSPropertyOp52
 70
     0
102
RTVSPropertyOp53
 70
     1
102
RTVSPropertyOp54
 70
     1
102
RTVSPropertyOp55
 70
     1
102
RTVSPropertyOp56
 70
     1
102
RTVSPropertyOp57
 70
     1
102
RTVSPost2010Prop28
280
     0
102
RTVSPost2010PropOp28
 70
     1
102
RTVSPost2010Prop29
280
     1
102
RTVSPost2010PropOp29
 70
     1
102
RTVSPost2010Prop30
280
     1
102
RTVSPost2010PropOp30
 70
     1
102
RTVSPost2010Prop31
280
     0
102
RTVSPost2010PropOp31
 70
     1
102
RTVSPost2010Prop32
280
     0
102
RTVSPost2010PropOp32
 70
     1
102
RTVSPost2010Prop33
280
     0
102
RTVSPost2010PropOp33
 70
     1
102
RTVSPost2010Prop34
280
     0
102
RTVSPost2010PropOp34
 70
     1
102
RTVSPost2010Prop35
280
     0
102
RTVSPost2010PropOp35
 70
     1
102
RTVSPost2010Prop36
280
     0
102
RTVSPost2010PropOp36
 70
     1
102
RTVSPost2010Prop37
 90
       50
102
RTVSPost2010PropOp37
 70
     1
102
RTVSPost2010Prop38
140
0.0
102
RTVSPost2010PropOp38
 70
     1
102
RTVSPost2010Prop39
140
1.0
102
RTVSPost2010PropOp39
 70
     1
102
RTVSPost2010Prop40
 90
        0
102
RTVSPost2010PropOp40
 70
     1
102
RTVSPost2010Prop41ColorIndex
 90
       18
102
RTVSPost2010Prop41ColorRGB
 90
        0
102
RTVSPost2010PropOp41
 70
     1
102
RTVSPost2010Prop42
 90
       50
102
RTVSPost2010PropOp42
 70
     1
102
RTVSPost2010Prop43
 90
        3
102
RTVSPost2010PropOp43
 70
     1
102
RTVSPost2010Prop44ColorIndex
 90
        5
102
RTVSPost2010Prop44ColorRGB
 90
      255
102
RTVSPost2010PropOp44
 70
     1
102
RTVSPost2010Prop45
280
     0
102
RTVSPost2010PropOp45
 70
     1
102
RTVSPost2010Prop46
 90
       50
102
RTVSPost2010PropOp46
 70
     1
102
RTVSPost2010Prop47
 90
       50
102
RTVSPost2010PropOp47
 70
     1
102
RTVSPost2010Prop48
 90
       50
102
RTVSPost2010PropOp48
 70
     1
102
RTVSPost2010Prop49
280
     0
102
RTVSPost2010PropOp49
 70
     1
102
RTVSPost2010Prop50
 90
       50
102
RTVSPost2010PropOp50
 70
     1
102
RTVSPost2010Prop51ColorIndex
 90
      256
102
RTVSPost2010Prop51ColorRGB
 90
-16777216
102
RTVSPost2010PropOp51
 70
     0
102
RTVSPost2010Prop52
140
1.0
102
RTVSPost2010PropOp52
 70
     0
102
RTVSPost2010Prop53
 90
        2
102
RTVSPost2010PropOp53
 70
     1
102
RTVSPost2010Prop54
  1
strokes_ogs.tif
102
RTVSPost2010PropOp54
 70
     1
102
RTVSPost2010Prop55
280
     0
102
RTVSPost2010PropOp55
 70
     1
102
RTVSPost2010Prop56
140
1.0
102
RTVSPost2010PropOp56
 70
     1
102
RTVSPost2010Prop57
140
1.0
102
RTVSPost2010PropOp57
 70
     1
  0
XRECORD
  5
416
102
{ACAD_REACTORS
330
415
102
}
330
415
100
AcDbXrecord
280
     1
102
RTVSPropertyOp0
 70
     0
102
RTVSPropertyOp1
 70
     0
102
RTVSPropertyOp2
 70
     0
102
RTVSPropertyOp3
 70
     0
102
RTVSPropertyOp4
 70
     0
102
RTVSPropertyOp5
 70
     0
102
RTVSPropertyOp6
 70
     0
102
RTVSPropertyOp7
 70
     0
102
RTVSPropertyOp8
 70
     0
102
RTVSPropertyOp9
 70
     0
102
RTVSPropertyOp10
 70
     0
102
RTVSPropertyOp11
 70
     0
102
RTVSPropertyOp12
 70
     0
102
RTVSPropertyOp13
 70
     0
102
RTVSPropertyOp14
 70
     2
102
RTVSPropertyOp15
 70
     0
102
RTVSPropertyOp16
 70
     0
102
RTVSPropertyOp17
 70
     0
102
RTVSPropertyOp18
 70
     0
102
RTVSPropertyOp19
 70
     0
102
RTVSPropertyOp20
 70
     0
102
RTVSPropertyOp21
 70
     0
102
RTVSPropertyOp22
 70
     0
102
RTVSPropertyOp23
 70
     0
102
RTVSPropertyOp24
 70
     0
102
RTVSPropertyOp25
 70
     0
102
RTVSPropertyOp26
 70
     0
102
RTVSPropertyOp27
 70
     0
102
RTVSPropertyOp28
 70
     0
102
RTVSPropertyOp29
 70
     0
102
RTVSPropertyOp30
 70
     0
102
RTVSPropertyOp31
 70
     0
102
RTVSPropertyOp32
 70
     0
102
RTVSPropertyOp33
 70
     0
102
RTVSPropertyOp34
 70
     0
102
RTVSPropertyOp35
 70
     0
102
RTVSPropertyOp36
 70
     0
102
RTVSPropertyOp37
 70
     0
102
RTVSPropertyOp38
 70
     0
102
RTVSPropertyOp39
 70
     0
102
RTVSPropertyOp40
 70
     0
102
RTVSPropertyOp41
 70
     0
102
RTVSPropertyOp42
 70
     0
102
RTVSPropertyOp43
 70
     0
102
RTVSPropertyOp44
 70
     0
102
RTVSPropertyOp45
 70
     0
102
RTVSPropertyOp46
 70
     0
102
RTVSPropertyOp47
 70
     0
102
RTVSPropertyOp48
 70
     0
102
RTVSPropertyOp49
 70
     0
102
RTVSPropertyOp50
 70
     0
102
RTVSPropertyOp51
 70
     0
102
RTVSPropertyOp52
 70
     0
102
RTVSPropertyOp53
 70
     0
102
RTVSPropertyOp54
 70
     0
102
RTVSPropertyOp55
 70
     0
102
RTVSPropertyOp56
 70
     0
102
RTVSPropertyOp57
 70
     0
102
RTVSPost2010Prop28
280
     0
102
RTVSPost2010PropOp28
 70
     0
102
RTVSPost2010Prop29
280
     1
102
RTVSPost2010PropOp29
 70
     0
102
RTVSPost2010Prop30
280
     1
102
RTVSPost2010PropOp30
 70
     0
102
RTVSPost2010Prop31
280
     0
102
RTVSPost2010PropOp31
 70
     0
102
RTVSPost2010Prop32
280
     0
102
RTVSPost2010PropOp32
 70
     0
102
RTVSPost2010Prop33
280
     0
102
RTVSPost2010PropOp33
 70
     0
102
RTVSPost2010Prop34
280
     0
102
RTVSPost2010PropOp34
 70
     0
102
RTVSPost2010Prop35
280
     0
102
RTVSPost2010PropOp35
 70
     0
102
RTVSPost2010Prop36
280
     0
102
RTVSPost2010PropOp36
 70
     0
102
RTVSPost2010Prop37
 90
       50
102
RTVSPost2010PropOp37
 70
     0
102
RTVSPost2010Prop38
140
0.0
102
RTVSPost2010PropOp38
 70
     0
102
RTVSPost2010Prop39
140
1.0
102
RTVSPost2010PropOp39
 70
     0
102
RTVSPost2010Prop40
 90
        0
102
RTVSPost2010PropOp40
 70
     0
102
RTVSPost2010Prop41ColorIndex
 90
       18
102
RTVSPost2010Prop41ColorRGB
 90
        0
102
RTVSPost2010PropOp41
 70
     0
102
RTVSPost2010Prop42
 90
       50
102
RTVSPost2010PropOp42
 70
     0
102
RTVSPost2010Prop43
 90
        3
102
RTVSPost2010PropOp43
 70
     0
102
RTVSPost2010Prop44ColorIndex
 90
        5
102
RTVSPost2010Prop44ColorRGB
 90
      255
102
RTVSPost2010PropOp44
 70
     0
102
RTVSPost2010Prop45
280
     0
102
RTVSPost2010PropOp45
 70
     0
102
RTVSPost2010Prop46
 90
       50
102
RTVSPost2010PropOp46
 70
     0
102
RTVSPost2010Prop47
 90
       50
102
RTVSPost2010PropOp47
 70
     0
102
RTVSPost2010Prop48
 90
       50
102
RTVSPost2010PropOp48
 70
     0
102
RTVSPost2010Prop49
280
     0
102
RTVSPost2010PropOp49
 70
     0
102
RTVSPost2010Prop50
 90
       50
102
RTVSPost2010PropOp50
 70
     0
102
RTVSPost2010Prop51ColorIndex
 90
      256
102
RTVSPost2010Prop51ColorRGB
 90
-16777216
102
RTVSPost2010PropOp51
 70
     0
102
RTVSPost2010Prop52
140
1.0
102
RTVSPost2010PropOp52
 70
     0
102
RTVSPost2010Prop53
 90
        2
102
RTVSPost2010PropOp53
 70
     0
102
RTVSPost2010Prop54
  1
strokes_ogs.tif
102
RTVSPost2010PropOp54
 70
     0
102
RTVSPost2010Prop55
280
     0
102
RTVSPost2010PropOp55
 70
     0
102
RTVSPost2010Prop56
140
1.0
102
RTVSPost2010PropOp56
 70
     0
102
RTVSPost2010Prop57
140
1.0
102
RTVSPost2010PropOp57
 70
     0
  0
XRECORD
  5
40E
102
{ACAD_REACTORS
330
40D
102
}
330
40D
100
AcDbXrecord
280
     1
102
RTVSPropertyOp0
 70
     1
102
RTVSPropertyOp1
 70
     1
102
RTVSPropertyOp2
 70
     1
102
RTVSPropertyOp3
 70
     1
102
RTVSPropertyOp4
 70
     1
102
RTVSPropertyOp5
 70
     1
102
RTVSPropertyOp6
 70
     1
102
RTVSPropertyOp7
 70
     1
102
RTVSPropertyOp8
 70
     1
102
RTVSPropertyOp9
 70
     1
102
RTVSPropertyOp10
 70
     1
102
RTVSPropertyOp11
 70
     1
102
RTVSPropertyOp12
 70
     1
102
RTVSPropertyOp13
 70
     1
102
RTVSPropertyOp14
 70
     1
102
RTVSPropertyOp15
 70
     1
102
RTVSPropertyOp16
 70
     1
102
RTVSPropertyOp17
 70
     1
102
RTVSPropertyOp18
 70
     1
102
RTVSPropertyOp19
 70
     1
102
RTVSPropertyOp20
 70
     1
102
RTVSPropertyOp21
 70
     1
102
RTVSPropertyOp22
 70
     1
102
RTVSPropertyOp23
 70
     1
102
RTVSPropertyOp24
 70
     1
102
RTVSPropertyOp25
 70
     1
102
RTVSPropertyOp26
 70
     1
102
RTVSPropertyOp27
 70
     1
102
RTVSPropertyOp28
 70
     1
102
RTVSPropertyOp29
 70
     1
102
RTVSPropertyOp30
 70
     1
102
RTVSPropertyOp31
 70
     1
102
RTVSPropertyOp32
 70
     1
102
RTVSPropertyOp33
 70
     1
102
RTVSPropertyOp34
 70
     1
102
RTVSPropertyOp35
 70
     1
102
RTVSPropertyOp36
 70
     1
102
RTVSPropertyOp37
 70
     1
102
RTVSPropertyOp38
 70
     1
102
RTVSPropertyOp39
 70
     1
102
RTVSPropertyOp40
 70
     1
102
RTVSPropertyOp41
 70
     1
102
RTVSPropertyOp42
 70
     1
102
RTVSPropertyOp43
 70
     1
102
RTVSPropertyOp44
 70
     1
102
RTVSPropertyOp45
 70
     1
102
RTVSPropertyOp46
 70
     1
102
RTVSPropertyOp47
 70
     1
102
RTVSPropertyOp48
 70
     1
102
RTVSPropertyOp49
 70
     1
102
RTVSPropertyOp50
 70
     1
102
RTVSPropertyOp51
 70
     0
102
RTVSPropertyOp52
 70
     0
102
RTVSPropertyOp53
 70
     1
102
RTVSPropertyOp54
 70
     1
102
RTVSPropertyOp55
 70
     1
102
RTVSPropertyOp56
 70
     1
102
RTVSPropertyOp57
 70
     1
102
RTVSPost2010Prop28
280
     0
102
RTVSPost2010PropOp28
 70
     1
102
RTVSPost2010Prop29
280
     1
102
RTVSPost2010PropOp29
 70
     1
102
RTVSPost2010Prop30
280
     1
102
RTVSPost2010PropOp30
 70
     1
102
RTVSPost2010Prop31
280
     0
102
RTVSPost2010PropOp31
 70
     1
102
RTVSPost2010Prop32
280
     0
102
RTVSPost2010PropOp32
 70
     1
102
RTVSPost2010Prop33
280
     0
102
RTVSPost2010PropOp33
 70
     1
102
RTVSPost2010Prop34
280
     0
102
RTVSPost2010PropOp34
 70
     1
102
RTVSPost2010Prop35
280
     0
102
RTVSPost2010PropOp35
 70
     1
102
RTVSPost2010Prop36
280
     0
102
RTVSPost2010PropOp36
 70
     1
102
RTVSPost2010Prop37
 90
       50
102
RTVSPost2010PropOp37
 70
     1
102
RTVSPost2010Prop38
140
0.0
102
RTVSPost2010PropOp38
 70
     1
102
RTVSPost2010Prop39
140
1.0
102
RTVSPost2010PropOp39
 70
     1
102
RTVSPost2010Prop40
 90
        0
102
RTVSPost2010PropOp40
 70
     1
102
RTVSPost2010Prop41ColorIndex
 90
       18
102
RTVSPost2010Prop41ColorRGB
 90
        0
102
RTVSPost2010PropOp41
 70
     1
102
RTVSPost2010Prop42
 90
       50
102
RTVSPost2010PropOp42
 70
     1
102
RTVSPost2010Prop43
 90
        3
102
RTVSPost2010PropOp43
 70
     1
102
RTVSPost2010Prop44ColorIndex
 90
        5
102
RTVSPost2010Prop44ColorRGB
 90
      255
102
RTVSPost2010PropOp44
 70
     1
102
RTVSPost2010Prop45
280
     0
102
RTVSPost2010PropOp45
 70
     1
102
RTVSPost2010Prop46
 90
       50
102
RTVSPost2010PropOp46
 70
     1
102
RTVSPost2010Prop47
 90
       50
102
RTVSPost2010PropOp47
 70
     1
102
RTVSPost2010Prop48
 90
       50
102
RTVSPost2010PropOp48
 70
     1
102
RTVSPost2010Prop49
280
     0
102
RTVSPost2010PropOp49
 70
     1
102
RTVSPost2010Prop50
 90
       50
102
RTVSPost2010PropOp50
 70
     1
102
RTVSPost2010Prop51ColorIndex
 90
      256
102
RTVSPost2010Prop51ColorRGB
 90
-16777216
102
RTVSPost2010PropOp51
 70
     0
102
RTVSPost2010Prop52
140
1.0
102
RTVSPost2010PropOp52
 70
     0
102
RTVSPost2010Prop53
 90
        2
102
RTVSPost2010PropOp53
 70
     1
102
RTVSPost2010Prop54
  1
strokes_ogs.tif
102
RTVSPost2010PropOp54
 70
     1
102
RTVSPost2010Prop55
280
     0
102
RTVSPost2010PropOp55
 70
     1
102
RTVSPost2010Prop56
140
1.0
102
RTVSPost2010PropOp56
 70
     1
102
RTVSPost2010Prop57
140
1.0
102
RTVSPost2010PropOp57
 70
     1
  0
XRECORD
  5
3F2
102
{ACAD_REACTORS
330
3F1
102
}
330
3F1
100
AcDbXrecord
280
     1
102
RTVSPropertyOp0
 70
     1
102
RTVSPropertyOp1
 70
     1
102
RTVSPropertyOp2
 70
     1
102
RTVSPropertyOp3
 70
     1
102
RTVSPropertyOp4
 70
     1
102
RTVSPropertyOp5
 70
     1
102
RTVSPropertyOp6
 70
     1
102
RTVSPropertyOp7
 70
     1
102
RTVSPropertyOp8
 70
     1
102
RTVSPropertyOp9
 70
     1
102
RTVSPropertyOp10
 70
     1
102
RTVSPropertyOp11
 70
     1
102
RTVSPropertyOp12
 70
     1
102
RTVSPropertyOp13
 70
     1
102
RTVSPropertyOp14
 70
     1
102
RTVSPropertyOp15
 70
     1
102
RTVSPropertyOp16
 70
     1
102
RTVSPropertyOp17
 70
     1
102
RTVSPropertyOp18
 70
     1
102
RTVSPropertyOp19
 70
     1
102
RTVSPropertyOp20
 70
     1
102
RTVSPropertyOp21
 70
     1
102
RTVSPropertyOp22
 70
     1
102
RTVSPropertyOp23
 70
     1
102
RTVSPropertyOp24
 70
     1
102
RTVSPropertyOp25
 70
     1
102
RTVSPropertyOp26
 70
     1
102
RTVSPropertyOp27
 70
     1
102
RTVSPropertyOp28
 70
     1
102
RTVSPropertyOp29
 70
     1
102
RTVSPropertyOp30
 70
     1
102
RTVSPropertyOp31
 70
     1
102
RTVSPropertyOp32
 70
     1
102
RTVSPropertyOp33
 70
     1
102
RTVSPropertyOp34
 70
     1
102
RTVSPropertyOp35
 70
     1
102
RTVSPropertyOp36
 70
     1
102
RTVSPropertyOp37
 70
     1
102
RTVSPropertyOp38
 70
     1
102
RTVSPropertyOp39
 70
     1
102
RTVSPropertyOp40
 70
     1
102
RTVSPropertyOp41
 70
     1
102
RTVSPropertyOp42
 70
     1
102
RTVSPropertyOp43
 70
     1
102
RTVSPropertyOp44
 70
     1
102
RTVSPropertyOp45
 70
     1
102
RTVSPropertyOp46
 70
     1
102
RTVSPropertyOp47
 70
     1
102
RTVSPropertyOp48
 70
     1
102
RTVSPropertyOp49
 70
     1
102
RTVSPropertyOp50
 70
     1
102
RTVSPropertyOp51
 70
     0
102
RTVSPropertyOp52
 70
     0
102
RTVSPropertyOp53
 70
     1
102
RTVSPropertyOp54
 70
     1
102
RTVSPropertyOp55
 70
     1
102
RTVSPropertyOp56
 70
     1
102
RTVSPropertyOp57
 70
     1
102
RTVSPost2010Prop28
280
     0
102
RTVSPost2010PropOp28
 70
     1
102
RTVSPost2010Prop29
280
     1
102
RTVSPost2010PropOp29
 70
     1
102
RTVSPost2010Prop30
280
     1
102
RTVSPost2010PropOp30
 70
     1
102
RTVSPost2010Prop31
280
     0
102
RTVSPost2010PropOp31
 70
     1
102
RTVSPost2010Prop32
280
     0
102
RTVSPost2010PropOp32
 70
     1
102
RTVSPost2010Prop33
280
     0
102
RTVSPost2010PropOp33
 70
     1
102
RTVSPost2010Prop34
280
     0
102
RTVSPost2010PropOp34
 70
     1
102
RTVSPost2010Prop35
280
     0
102
RTVSPost2010PropOp35
 70
     1
102
RTVSPost2010Prop36
280
     0
102
RTVSPost2010PropOp36
 70
     1
102
RTVSPost2010Prop37
 90
       50
102
RTVSPost2010PropOp37
 70
     1
102
RTVSPost2010Prop38
140
0.0
102
RTVSPost2010PropOp38
 70
     1
102
RTVSPost2010Prop39
140
1.0
102
RTVSPost2010PropOp39
 70
     1
102
RTVSPost2010Prop40
 90
        0
102
RTVSPost2010PropOp40
 70
     1
102
RTVSPost2010Prop41ColorIndex
 90
       18
102
RTVSPost2010Prop41ColorRGB
 90
        0
102
RTVSPost2010PropOp41
 70
     1
102
RTVSPost2010Prop42
 90
       50
102
RTVSPost2010PropOp42
 70
     1
102
RTVSPost2010Prop43
 90
        3
102
RTVSPost2010PropOp43
 70
     1
102
RTVSPost2010Prop44ColorIndex
 90
        5
102
RTVSPost2010Prop44ColorRGB
 90
      255
102
RTVSPost2010PropOp44
 70
     1
102
RTVSPost2010Prop45
280
     0
102
RTVSPost2010PropOp45
 70
     1
102
RTVSPost2010Prop46
 90
       50
102
RTVSPost2010PropOp46
 70
     1
102
RTVSPost2010Prop47
 90
       50
102
RTVSPost2010PropOp47
 70
     1
102
RTVSPost2010Prop48
 90
       50
102
RTVSPost2010PropOp48
 70
     1
102
RTVSPost2010Prop49
280
     0
102
RTVSPost2010PropOp49
 70
     1
102
RTVSPost2010Prop50
 90
       50
102
RTVSPost2010PropOp50
 70
     1
102
RTVSPost2010Prop51ColorIndex
 90
      256
102
RTVSPost2010Prop51ColorRGB
 90
-16777216
102
RTVSPost2010PropOp51
 70
     0
102
RTVSPost2010Prop52
140
1.0
102
RTVSPost2010PropOp52
 70
     0
102
RTVSPost2010Prop53
 90
        2
102
RTVSPost2010PropOp53
 70
     1
102
RTVSPost2010Prop54
  1
strokes_ogs.tif
102
RTVSPost2010PropOp54
 70
     1
102
RTVSPost2010Prop55
280
     0
102
RTVSPost2010PropOp55
 70
     1
102
RTVSPost2010Prop56
140
1.0
102
RTVSPost2010PropOp56
 70
     1
102
RTVSPost2010Prop57
140
1.0
102
RTVSPost2010PropOp57
 70
     1
  0
XRECORD
  5
3F4
102
{ACAD_REACTORS
330
3F3
102
}
330
3F3
100
AcDbXrecord
280
     1
102
RTVSPropertyOp0
 70
     1
102
RTVSPropertyOp1
 70
     1
102
RTVSPropertyOp2
 70
     1
102
RTVSPropertyOp3
 70
     1
102
RTVSPropertyOp4
 70
     1
102
RTVSPropertyOp5
 70
     1
102
RTVSPropertyOp6
 70
     1
102
RTVSPropertyOp7
 70
     1
102
RTVSPropertyOp8
 70
     1
102
RTVSPropertyOp9
 70
     1
102
RTVSPropertyOp10
 70
     1
102
RTVSPropertyOp11
 70
     1
102
RTVSPropertyOp12
 70
     1
102
RTVSPropertyOp13
 70
     1
102
RTVSPropertyOp14
 70
     1
102
RTVSPropertyOp15
 70
     1
102
RTVSPropertyOp16
 70
     1
102
RTVSPropertyOp17
 70
     1
102
RTVSPropertyOp18
 70
     1
102
RTVSPropertyOp19
 70
     1
102
RTVSPropertyOp20
 70
     1
102
RTVSPropertyOp21
 70
     1
102
RTVSPropertyOp22
 70
     1
102
RTVSPropertyOp23
 70
     1
102
RTVSPropertyOp24
 70
     1
102
RTVSPropertyOp25
 70
     1
102
RTVSPropertyOp26
 70
     1
102
RTVSPropertyOp27
 70
     1
102
RTVSPropertyOp28
 70
     1
102
RTVSPropertyOp29
 70
     1
102
RTVSPropertyOp30
 70
     1
102
RTVSPropertyOp31
 70
     1
102
RTVSPropertyOp32
 70
     1
102
RTVSPropertyOp33
 70
     1
102
RTVSPropertyOp34
 70
     1
102
RTVSPropertyOp35
 70
     1
102
RTVSPropertyOp36
 70
     1
102
RTVSPropertyOp37
 70
     1
102
RTVSPropertyOp38
 70
     1
102
RTVSPropertyOp39
 70
     1
102
RTVSPropertyOp40
 70
     1
102
RTVSPropertyOp41
 70
     1
102
RTVSPropertyOp42
 70
     1
102
RTVSPropertyOp43
 70
     1
102
RTVSPropertyOp44
 70
     1
102
RTVSPropertyOp45
 70
     1
102
RTVSPropertyOp46
 70
     1
102
RTVSPropertyOp47
 70
     1
102
RTVSPropertyOp48
 70
     1
102
RTVSPropertyOp49
 70
     1
102
RTVSPropertyOp50
 70
     1
102
RTVSPropertyOp51
 70
     0
102
RTVSPropertyOp52
 70
     0
102
RTVSPropertyOp53
 70
     1
102
RTVSPropertyOp54
 70
     1
102
RTVSPropertyOp55
 70
     1
102
RTVSPropertyOp56
 70
     1
102
RTVSPropertyOp57
 70
     1
102
RTVSPost2010Prop28
280
     0
102
RTVSPost2010PropOp28
 70
     1
102
RTVSPost2010Prop29
280
     1
102
RTVSPost2010PropOp29
 70
     1
102
RTVSPost2010Prop30
280
     1
102
RTVSPost2010PropOp30
 70
     1
102
RTVSPost2010Prop31
280
     0
102
RTVSPost2010PropOp31
 70
     1
102
RTVSPost2010Prop32
280
     0
102
RTVSPost2010PropOp32
 70
     1
102
RTVSPost2010Prop33
280
     0
102
RTVSPost2010PropOp33
 70
     1
102
RTVSPost2010Prop34
280
     0
102
RTVSPost2010PropOp34
 70
     1
102
RTVSPost2010Prop35
280
     0
102
RTVSPost2010PropOp35
 70
     1
102
RTVSPost2010Prop36
280
     0
102
RTVSPost2010PropOp36
 70
     1
102
RTVSPost2010Prop37
 90
       50
102
RTVSPost2010PropOp37
 70
     1
102
RTVSPost2010Prop38
140
0.0
102
RTVSPost2010PropOp38
 70
     1
102
RTVSPost2010Prop39
140
1.0
102
RTVSPost2010PropOp39
 70
     1
102
RTVSPost2010Prop40
 90
        0
102
RTVSPost2010PropOp40
 70
     1
102
RTVSPost2010Prop41ColorIndex
 90
       18
102
RTVSPost2010Prop41ColorRGB
 90
        0
102
RTVSPost2010PropOp41
 70
     1
102
RTVSPost2010Prop42
 90
       50
102
RTVSPost2010PropOp42
 70
     1
102
RTVSPost2010Prop43
 90
        3
102
RTVSPost2010PropOp43
 70
     1
102
RTVSPost2010Prop44ColorIndex
 90
        5
102
RTVSPost2010Prop44ColorRGB
 90
      255
102
RTVSPost2010PropOp44
 70
     1
102
RTVSPost2010Prop45
280
     0
102
RTVSPost2010PropOp45
 70
     1
102
RTVSPost2010Prop46
 90
       50
102
RTVSPost2010PropOp46
 70
     1
102
RTVSPost2010Prop47
 90
       50
102
RTVSPost2010PropOp47
 70
     1
102
RTVSPost2010Prop48
 90
       50
102
RTVSPost2010PropOp48
 70
     1
102
RTVSPost2010Prop49
280
     0
102
RTVSPost2010PropOp49
 70
     1
102
RTVSPost2010Prop50
 90
       50
102
RTVSPost2010PropOp50
 70
     1
102
RTVSPost2010Prop51ColorIndex
 90
      256
102
RTVSPost2010Prop51ColorRGB
 90
-16777216
102
RTVSPost2010PropOp51
 70
     0
102
RTVSPost2010Prop52
140
1.0
102
RTVSPost2010PropOp52
 70
     0
102
RTVSPost2010Prop53
 90
        2
102
RTVSPost2010PropOp53
 70
     1
102
RTVSPost2010Prop54
  1
strokes_ogs.tif
102
RTVSPost2010PropOp54
 70
     1
102
RTVSPost2010Prop55
280
     0
102
RTVSPost2010PropOp55
 70
     1
102
RTVSPost2010Prop56
140
1.0
102
RTVSPost2010PropOp56
 70
     1
102
RTVSPost2010Prop57
140
1.0
102
RTVSPost2010PropOp57
 70
     1
  0
XRECORD
  5
3F6
102
{ACAD_REACTORS
330
3F5
102
}
330
3F5
100
AcDbXrecord
280
     1
102
RTVSPropertyOp0
 70
     1
102
RTVSPropertyOp1
 70
     1
102
RTVSPropertyOp2
 70
     1
102
RTVSPropertyOp3
 70
     1
102
RTVSPropertyOp4
 70
     1
102
RTVSPropertyOp5
 70
     1
102
RTVSPropertyOp6
 70
     1
102
RTVSPropertyOp7
 70
     1
102
RTVSPropertyOp8
 70
     1
102
RTVSPropertyOp9
 70
     1
102
RTVSPropertyOp10
 70
     1
102
RTVSPropertyOp11
 70
     1
102
RTVSPropertyOp12
 70
     1
102
RTVSPropertyOp13
 70
     1
102
RTVSPropertyOp14
 70
     1
102
RTVSPropertyOp15
 70
     1
102
RTVSPropertyOp16
 70
     1
102
RTVSPropertyOp17
 70
     1
102
RTVSPropertyOp18
 70
     1
102
RTVSPropertyOp19
 70
     1
102
RTVSPropertyOp20
 70
     1
102
RTVSPropertyOp21
 70
     1
102
RTVSPropertyOp22
 70
     1
102
RTVSPropertyOp23
 70
     1
102
RTVSPropertyOp24
 70
     1
102
RTVSPropertyOp25
 70
     1
102
RTVSPropertyOp26
 70
     1
102
RTVSPropertyOp27
 70
     1
102
RTVSPropertyOp28
 70
     1
102
RTVSPropertyOp29
 70
     1
102
RTVSPropertyOp30
 70
     1
102
RTVSPropertyOp31
 70
     1
102
RTVSPropertyOp32
 70
     1
102
RTVSPropertyOp33
 70
     1
102
RTVSPropertyOp34
 70
     1
102
RTVSPropertyOp35
 70
     1
102
RTVSPropertyOp36
 70
     1
102
RTVSPropertyOp37
 70
     1
102
RTVSPropertyOp38
 70
     1
102
RTVSPropertyOp39
 70
     1
102
RTVSPropertyOp40
 70
     1
102
RTVSPropertyOp41
 70
     1
102
RTVSPropertyOp42
 70
     1
102
RTVSPropertyOp43
 70
     1
102
RTVSPropertyOp44
 70
     1
102
RTVSPropertyOp45
 70
     1
102
RTVSPropertyOp46
 70
     1
102
RTVSPropertyOp47
 70
     1
102
RTVSPropertyOp48
 70
     1
102
RTVSPropertyOp49
 70
     1
102
RTVSPropertyOp50
 70
     1
102
RTVSPropertyOp51
 70
     0
102
RTVSPropertyOp52
 70
     0
102
RTVSPropertyOp53
 70
     1
102
RTVSPropertyOp54
 70
     1
102
RTVSPropertyOp55
 70
     1
102
RTVSPropertyOp56
 70
     1
102
RTVSPropertyOp57
 70
     1
102
RTVSPost2010Prop28
280
     0
102
RTVSPost2010PropOp28
 70
     1
102
RTVSPost2010Prop29
280
     1
102
RTVSPost2010PropOp29
 70
     1
102
RTVSPost2010Prop30
280
     1
102
RTVSPost2010PropOp30
 70
     1
102
RTVSPost2010Prop31
280
     0
102
RTVSPost2010PropOp31
 70
     1
102
RTVSPost2010Prop32
280
     0
102
RTVSPost2010PropOp32
 70
     1
102
RTVSPost2010Prop33
280
     0
102
RTVSPost2010PropOp33
 70
     1
102
RTVSPost2010Prop34
280
     0
102
RTVSPost2010PropOp34
 70
     1
102
RTVSPost2010Prop35
280
     0
102
RTVSPost2010PropOp35
 70
     1
102
RTVSPost2010Prop36
280
     0
102
RTVSPost2010PropOp36
 70
     1
102
RTVSPost2010Prop37
 90
       50
102
RTVSPost2010PropOp37
 70
     1
102
RTVSPost2010Prop38
140
0.0
102
RTVSPost2010PropOp38
 70
     1
102
RTVSPost2010Prop39
140
1.0
102
RTVSPost2010PropOp39
 70
     1
102
RTVSPost2010Prop40
 90
        0
102
RTVSPost2010PropOp40
 70
     1
102
RTVSPost2010Prop41ColorIndex
 90
       18
102
RTVSPost2010Prop41ColorRGB
 90
        0
102
RTVSPost2010PropOp41
 70
     1
102
RTVSPost2010Prop42
 90
       50
102
RTVSPost2010PropOp42
 70
     1
102
RTVSPost2010Prop43
 90
        3
102
RTVSPost2010PropOp43
 70
     1
102
RTVSPost2010Prop44ColorIndex
 90
        5
102
RTVSPost2010Prop44ColorRGB
 90
      255
102
RTVSPost2010PropOp44
 70
     1
102
RTVSPost2010Prop45
280
     0
102
RTVSPost2010PropOp45
 70
     1
102
RTVSPost2010Prop46
 90
       50
102
RTVSPost2010PropOp46
 70
     1
102
RTVSPost2010Prop47
 90
       50
102
RTVSPost2010PropOp47
 70
     1
102
RTVSPost2010Prop48
 90
       50
102
RTVSPost2010PropOp48
 70
     1
102
RTVSPost2010Prop49
280
     0
102
RTVSPost2010PropOp49
 70
     1
102
RTVSPost2010Prop50
 90
       50
102
RTVSPost2010PropOp50
 70
     1
102
RTVSPost2010Prop51ColorIndex
 90
      256
102
RTVSPost2010Prop51ColorRGB
 90
-16777216
102
RTVSPost2010PropOp51
 70
     0
102
RTVSPost2010Prop52
140
1.0
102
RTVSPost2010PropOp52
 70
     0
102
RTVSPost2010Prop53
 90
        2
102
RTVSPost2010PropOp53
 70
     1
102
RTVSPost2010Prop54
  1
strokes_ogs.tif
102
RTVSPost2010PropOp54
 70
     1
102
RTVSPost2010Prop55
280
     0
102
RTVSPost2010PropOp55
 70
     1
102
RTVSPost2010Prop56
140
1.0
102
RTVSPost2010PropOp56
 70
     1
102
RTVSPost2010Prop57
140
1.0
102
RTVSPost2010PropOp57
 70
     1
  0
XRECORD
  5
3F8
102
{ACAD_REACTORS
330
3F7
102
}
330
3F7
100
AcDbXrecord
280
     1
102
RTVSPropertyOp0
 70
     1
102
RTVSPropertyOp1
 70
     1
102
RTVSPropertyOp2
 70
     1
102
RTVSPropertyOp3
 70
     1
102
RTVSPropertyOp4
 70
     1
102
RTVSPropertyOp5
 70
     1
102
RTVSPropertyOp6
 70
     1
102
RTVSPropertyOp7
 70
     1
102
RTVSPropertyOp8
 70
     1
102
RTVSPropertyOp9
 70
     1
102
RTVSPropertyOp10
 70
     1
102
RTVSPropertyOp11
 70
     1
102
RTVSPropertyOp12
 70
     1
102
RTVSPropertyOp13
 70
     1
102
RTVSPropertyOp14
 70
     1
102
RTVSPropertyOp15
 70
     1
102
RTVSPropertyOp16
 70
     1
102
RTVSPropertyOp17
 70
     1
102
RTVSPropertyOp18
 70
     1
102
RTVSPropertyOp19
 70
     1
102
RTVSPropertyOp20
 70
     1
102
RTVSPropertyOp21
 70
     1
102
RTVSPropertyOp22
 70
     1
102
RTVSPropertyOp23
 70
     1
102
RTVSPropertyOp24
 70
     1
102
RTVSPropertyOp25
 70
     1
102
RTVSPropertyOp26
 70
     1
102
RTVSPropertyOp27
 70
     1
102
RTVSPropertyOp28
 70
     1
102
RTVSPropertyOp29
 70
     1
102
RTVSPropertyOp30
 70
     1
102
RTVSPropertyOp31
 70
     1
102
RTVSPropertyOp32
 70
     1
102
RTVSPropertyOp33
 70
     1
102
RTVSPropertyOp34
 70
     1
102
RTVSPropertyOp35
 70
     1
102
RTVSPropertyOp36
 70
     1
102
RTVSPropertyOp37
 70
     1
102
RTVSPropertyOp38
 70
     1
102
RTVSPropertyOp39
 70
     1
102
RTVSPropertyOp40
 70
     1
102
RTVSPropertyOp41
 70
     1
102
RTVSPropertyOp42
 70
     1
102
RTVSPropertyOp43
 70
     1
102
RTVSPropertyOp44
 70
     1
102
RTVSPropertyOp45
 70
     1
102
RTVSPropertyOp46
 70
     1
102
RTVSPropertyOp47
 70
     1
102
RTVSPropertyOp48
 70
     1
102
RTVSPropertyOp49
 70
     1
102
RTVSPropertyOp50
 70
     1
102
RTVSPropertyOp51
 70
     0
102
RTVSPropertyOp52
 70
     0
102
RTVSPropertyOp53
 70
     1
102
RTVSPropertyOp54
 70
     1
102
RTVSPropertyOp55
 70
     1
102
RTVSPropertyOp56
 70
     1
102
RTVSPropertyOp57
 70
     1
102
RTVSPost2010Prop28
280
     0
102
RTVSPost2010PropOp28
 70
     1
102
RTVSPost2010Prop29
280
     1
102
RTVSPost2010PropOp29
 70
     1
102
RTVSPost2010Prop30
280
     1
102
RTVSPost2010PropOp30
 70
     1
102
RTVSPost2010Prop31
280
     0
102
RTVSPost2010PropOp31
 70
     1
102
RTVSPost2010Prop32
280
     0
102
RTVSPost2010PropOp32
 70
     1
102
RTVSPost2010Prop33
280
     0
102
RTVSPost2010PropOp33
 70
     1
102
RTVSPost2010Prop34
280
     0
102
RTVSPost2010PropOp34
 70
     1
102
RTVSPost2010Prop35
280
     0
102
RTVSPost2010PropOp35
 70
     1
102
RTVSPost2010Prop36
280
     0
102
RTVSPost2010PropOp36
 70
     1
102
RTVSPost2010Prop37
 90
       50
102
RTVSPost2010PropOp37
 70
     1
102
RTVSPost2010Prop38
140
0.0
102
RTVSPost2010PropOp38
 70
     1
102
RTVSPost2010Prop39
140
1.0
102
RTVSPost2010PropOp39
 70
     1
102
RTVSPost2010Prop40
 90
        0
102
RTVSPost2010PropOp40
 70
     1
102
RTVSPost2010Prop41ColorIndex
 90
       18
102
RTVSPost2010Prop41ColorRGB
 90
        0
102
RTVSPost2010PropOp41
 70
     1
102
RTVSPost2010Prop42
 90
       50
102
RTVSPost2010PropOp42
 70
     1
102
RTVSPost2010Prop43
 90
        3
102
RTVSPost2010PropOp43
 70
     1
102
RTVSPost2010Prop44ColorIndex
 90
        5
102
RTVSPost2010Prop44ColorRGB
 90
      255
102
RTVSPost2010PropOp44
 70
     1
102
RTVSPost2010Prop45
280
     0
102
RTVSPost2010PropOp45
 70
     1
102
RTVSPost2010Prop46
 90
       50
102
RTVSPost2010PropOp46
 70
     1
102
RTVSPost2010Prop47
 90
       50
102
RTVSPost2010PropOp47
 70
     1
102
RTVSPost2010Prop48
 90
       50
102
RTVSPost2010PropOp48
 70
     1
102
RTVSPost2010Prop49
280
     0
102
RTVSPost2010PropOp49
 70
     1
102
RTVSPost2010Prop50
 90
       50
102
RTVSPost2010PropOp50
 70
     1
102
RTVSPost2010Prop51ColorIndex
 90
      256
102
RTVSPost2010Prop51ColorRGB
 90
-16777216
102
RTVSPost2010PropOp51
 70
     0
102
RTVSPost2010Prop52
140
1.0
102
RTVSPost2010PropOp52
 70
     0
102
RTVSPost2010Prop53
 90
        2
102
RTVSPost2010PropOp53
 70
     1
102
RTVSPost2010Prop54
  1
strokes_ogs.tif
102
RTVSPost2010PropOp54
 70
     1
102
RTVSPost2010Prop55
280
     0
102
RTVSPost2010PropOp55
 70
     1
102
RTVSPost2010Prop56
140
1.0
102
RTVSPost2010PropOp56
 70
     1
102
RTVSPost2010Prop57
140
1.0
102
RTVSPost2010PropOp57
 70
     1
  0
XRECORD
  5
3FE
102
{ACAD_REACTORS
330
3FD
102
}
330
3FD
100
AcDbXrecord
280
     1
102
RTVSPropertyOp0
 70
     1
102
RTVSPropertyOp1
 70
     1
102
RTVSPropertyOp2
 70
     1
102
RTVSPropertyOp3
 70
     1
102
RTVSPropertyOp4
 70
     1
102
RTVSPropertyOp5
 70
     1
102
RTVSPropertyOp6
 70
     1
102
RTVSPropertyOp7
 70
     1
102
RTVSPropertyOp8
 70
     1
102
RTVSPropertyOp9
 70
     1
102
RTVSPropertyOp10
 70
     1
102
RTVSPropertyOp11
 70
     1
102
RTVSPropertyOp12
 70
     1
102
RTVSPropertyOp13
 70
     1
102
RTVSPropertyOp14
 70
     1
102
RTVSPropertyOp15
 70
     1
102
RTVSPropertyOp16
 70
     1
102
RTVSPropertyOp17
 70
     1
102
RTVSPropertyOp18
 70
     1
102
RTVSPropertyOp19
 70
     1
102
RTVSPropertyOp20
 70
     1
102
RTVSPropertyOp21
 70
     1
102
RTVSPropertyOp22
 70
     1
102
RTVSPropertyOp23
 70
     1
102
RTVSPropertyOp24
 70
     1
102
RTVSPropertyOp25
 70
     1
102
RTVSPropertyOp26
 70
     1
102
RTVSPropertyOp27
 70
     1
102
RTVSPropertyOp28
 70
     1
102
RTVSPropertyOp29
 70
     1
102
RTVSPropertyOp30
 70
     1
102
RTVSPropertyOp31
 70
     1
102
RTVSPropertyOp32
 70
     1
102
RTVSPropertyOp33
 70
     1
102
RTVSPropertyOp34
 70
     1
102
RTVSPropertyOp35
 70
     1
102
RTVSPropertyOp36
 70
     1
102
RTVSPropertyOp37
 70
     1
102
RTVSPropertyOp38
 70
     1
102
RTVSPropertyOp39
 70
     1
102
RTVSPropertyOp40
 70
     1
102
RTVSPropertyOp41
 70
     1
102
RTVSPropertyOp42
 70
     1
102
RTVSPropertyOp43
 70
     1
102
RTVSPropertyOp44
 70
     1
102
RTVSPropertyOp45
 70
     1
102
RTVSPropertyOp46
 70
     1
102
RTVSPropertyOp47
 70
     1
102
RTVSPropertyOp48
 70
     1
102
RTVSPropertyOp49
 70
     1
102
RTVSPropertyOp50
 70
     1
102
RTVSPropertyOp51
 70
     0
102
RTVSPropertyOp52
 70
     0
102
RTVSPropertyOp53
 70
     1
102
RTVSPropertyOp54
 70
     1
102
RTVSPropertyOp55
 70
     1
102
RTVSPropertyOp56
 70
     1
102
RTVSPropertyOp57
 70
     1
102
RTVSPost2010Prop28
280
     0
102
RTVSPost2010PropOp28
 70
     1
102
RTVSPost2010Prop29
280
     1
102
RTVSPost2010PropOp29
 70
     1
102
RTVSPost2010Prop30
280
     1
102
RTVSPost2010PropOp30
 70
     1
102
RTVSPost2010Prop31
280
     0
102
RTVSPost2010PropOp31
 70
     1
102
RTVSPost2010Prop32
280
     0
102
RTVSPost2010PropOp32
 70
     1
102
RTVSPost2010Prop33
280
     0
102
RTVSPost2010PropOp33
 70
     1
102
RTVSPost2010Prop34
280
     0
102
RTVSPost2010PropOp34
 70
     1
102
RTVSPost2010Prop35
280
     0
102
RTVSPost2010PropOp35
 70
     1
102
RTVSPost2010Prop36
280
     0
102
RTVSPost2010PropOp36
 70
     1
102
RTVSPost2010Prop37
 90
       50
102
RTVSPost2010PropOp37
 70
     1
102
RTVSPost2010Prop38
140
0.0
102
RTVSPost2010PropOp38
 70
     1
102
RTVSPost2010Prop39
140
1.0
102
RTVSPost2010PropOp39
 70
     1
102
RTVSPost2010Prop40
 90
        0
102
RTVSPost2010PropOp40
 70
     1
102
RTVSPost2010Prop41ColorIndex
 90
       18
102
RTVSPost2010Prop41ColorRGB
 90
        0
102
RTVSPost2010PropOp41
 70
     1
102
RTVSPost2010Prop42
 90
       50
102
RTVSPost2010PropOp42
 70
     1
102
RTVSPost2010Prop43
 90
        3
102
RTVSPost2010PropOp43
 70
     1
102
RTVSPost2010Prop44ColorIndex
 90
        5
102
RTVSPost2010Prop44ColorRGB
 90
      255
102
RTVSPost2010PropOp44
 70
     1
102
RTVSPost2010Prop45
280
     0
102
RTVSPost2010PropOp45
 70
     1
102
RTVSPost2010Prop46
 90
       50
102
RTVSPost2010PropOp46
 70
     1
102
RTVSPost2010Prop47
 90
       50
102
RTVSPost2010PropOp47
 70
     1
102
RTVSPost2010Prop48
 90
       50
102
RTVSPost2010PropOp48
 70
     1
102
RTVSPost2010Prop49
280
     0
102
RTVSPost2010PropOp49
 70
     1
102
RTVSPost2010Prop50
 90
       50
102
RTVSPost2010PropOp50
 70
     1
102
RTVSPost2010Prop51ColorIndex
 90
      256
102
RTVSPost2010Prop51ColorRGB
 90
-16777216
102
RTVSPost2010PropOp51
 70
     0
102
RTVSPost2010Prop52
140
1.0
102
RTVSPost2010PropOp52
 70
     0
102
RTVSPost2010Prop53
 90
        2
102
RTVSPost2010PropOp53
 70
     1
102
RTVSPost2010Prop54
  1
strokes_ogs.tif
102
RTVSPost2010PropOp54
 70
     1
102
RTVSPost2010Prop55
280
     0
102
RTVSPost2010PropOp55
 70
     1
102
RTVSPost2010Prop56
140
1.0
102
RTVSPost2010PropOp56
 70
     1
102
RTVSPost2010Prop57
140
1.0
102
RTVSPost2010PropOp57
 70
     1
  0
XRECORD
  5
412
102
{ACAD_REACTORS
330
411
102
}
330
411
100
AcDbXrecord
280
     1
102
RTVSPropertyOp0
 70
     0
102
RTVSPropertyOp1
 70
     0
102
RTVSPropertyOp2
 70
     0
102
RTVSPropertyOp3
 70
     0
102
RTVSPropertyOp4
 70
     0
102
RTVSPropertyOp5
 70
     0
102
RTVSPropertyOp6
 70
     0
102
RTVSPropertyOp7
 70
     0
102
RTVSPropertyOp8
 70
     0
102
RTVSPropertyOp9
 70
     0
102
RTVSPropertyOp10
 70
     0
102
RTVSPropertyOp11
 70
     0
102
RTVSPropertyOp12
 70
     0
102
RTVSPropertyOp13
 70
     0
102
RTVSPropertyOp14
 70
     2
102
RTVSPropertyOp15
 70
     0
102
RTVSPropertyOp16
 70
     0
102
RTVSPropertyOp17
 70
     0
102
RTVSPropertyOp18
 70
     0
102
RTVSPropertyOp19
 70
     0
102
RTVSPropertyOp20
 70
     0
102
RTVSPropertyOp21
 70
     0
102
RTVSPropertyOp22
 70
     0
102
RTVSPropertyOp23
 70
     0
102
RTVSPropertyOp24
 70
     0
102
RTVSPropertyOp25
 70
     0
102
RTVSPropertyOp26
 70
     0
102
RTVSPropertyOp27
 70
     0
102
RTVSPropertyOp28
 70
     0
102
RTVSPropertyOp29
 70
     0
102
RTVSPropertyOp30
 70
     0
102
RTVSPropertyOp31
 70
     0
102
RTVSPropertyOp32
 70
     0
102
RTVSPropertyOp33
 70
     0
102
RTVSPropertyOp34
 70
     0
102
RTVSPropertyOp35
 70
     0
102
RTVSPropertyOp36
 70
     0
102
RTVSPropertyOp37
 70
     0
102
RTVSPropertyOp38
 70
     0
102
RTVSPropertyOp39
 70
     0
102
RTVSPropertyOp40
 70
     0
102
RTVSPropertyOp41
 70
     0
102
RTVSPropertyOp42
 70
     0
102
RTVSPropertyOp43
 70
     0
102
RTVSPropertyOp44
 70
     0
102
RTVSPropertyOp45
 70
     0
102
RTVSPropertyOp46
 70
     0
102
RTVSPropertyOp47
 70
     0
102
RTVSPropertyOp48
 70
     0
102
RTVSPropertyOp49
 70
     0
102
RTVSPropertyOp50
 70
     0
102
RTVSPropertyOp51
 70
     0
102
RTVSPropertyOp52
 70
     0
102
RTVSPropertyOp53
 70
     0
102
RTVSPropertyOp54
 70
     0
102
RTVSPropertyOp55
 70
     0
102
RTVSPropertyOp56
 70
     0
102
RTVSPropertyOp57
 70
     0
102
RTVSPost2010Prop28
280
     0
102
RTVSPost2010PropOp28
 70
     0
102
RTVSPost2010Prop29
280
     1
102
RTVSPost2010PropOp29
 70
     0
102
RTVSPost2010Prop30
280
     1
102
RTVSPost2010PropOp30
 70
     0
102
RTVSPost2010Prop31
280
     0
102
RTVSPost2010PropOp31
 70
     0
102
RTVSPost2010Prop32
280
     0
102
RTVSPost2010PropOp32
 70
     0
102
RTVSPost2010Prop33
280
     0
102
RTVSPost2010PropOp33
 70
     0
102
RTVSPost2010Prop34
280
     0
102
RTVSPost2010PropOp34
 70
     0
102
RTVSPost2010Prop35
280
     0
102
RTVSPost2010PropOp35
 70
     0
102
RTVSPost2010Prop36
280
     0
102
RTVSPost2010PropOp36
 70
     0
102
RTVSPost2010Prop37
 90
       50
102
RTVSPost2010PropOp37
 70
     0
102
RTVSPost2010Prop38
140
0.0
102
RTVSPost2010PropOp38
 70
     0
102
RTVSPost2010Prop39
140
1.0
102
RTVSPost2010PropOp39
 70
     0
102
RTVSPost2010Prop40
 90
        0
102
RTVSPost2010PropOp40
 70
     0
102
RTVSPost2010Prop41ColorIndex
 90
       18
102
RTVSPost2010Prop41ColorRGB
 90
        0
102
RTVSPost2010PropOp41
 70
     0
102
RTVSPost2010Prop42
 90
       50
102
RTVSPost2010PropOp42
 70
     0
102
RTVSPost2010Prop43
 90
        3
102
RTVSPost2010PropOp43
 70
     0
102
RTVSPost2010Prop44ColorIndex
 90
        5
102
RTVSPost2010Prop44ColorRGB
 90
      255
102
RTVSPost2010PropOp44
 70
     0
102
RTVSPost2010Prop45
280
     0
102
RTVSPost2010PropOp45
 70
     0
102
RTVSPost2010Prop46
 90
       50
102
RTVSPost2010PropOp46
 70
     0
102
RTVSPost2010Prop47
 90
       50
102
RTVSPost2010PropOp47
 70
     0
102
RTVSPost2010Prop48
 90
       50
102
RTVSPost2010PropOp48
 70
     0
102
RTVSPost2010Prop49
280
     0
102
RTVSPost2010PropOp49
 70
     0
102
RTVSPost2010Prop50
 90
       50
102
RTVSPost2010PropOp50
 70
     0
102
RTVSPost2010Prop51ColorIndex
 90
      256
102
RTVSPost2010Prop51ColorRGB
 90
-16777216
102
RTVSPost2010PropOp51
 70
     0
102
RTVSPost2010Prop52
140
1.0
102
RTVSPost2010PropOp52
 70
     0
102
RTVSPost2010Prop53
 90
        2
102
RTVSPost2010PropOp53
 70
     0
102
RTVSPost2010Prop54
  1
strokes_ogs.tif
102
RTVSPost2010PropOp54
 70
     0
102
RTVSPost2010Prop55
280
     0
102
RTVSPost2010PropOp55
 70
     0
102
RTVSPost2010Prop56
140
1.0
102
RTVSPost2010PropOp56
 70
     0
102
RTVSPost2010Prop57
140
1.0
102
RTVSPost2010PropOp57
 70
     0
  0
XRECORD
  5
40C
102
{ACAD_REACTORS
330
40B
102
}
330
40B
100
AcDbXrecord
280
     1
102
RTVSPropertyOp0
 70
     1
102
RTVSPropertyOp1
 70
     1
102
RTVSPropertyOp2
 70
     1
102
RTVSPropertyOp3
 70
     1
102
RTVSPropertyOp4
 70
     1
102
RTVSPropertyOp5
 70
     1
102
RTVSPropertyOp6
 70
     1
102
RTVSPropertyOp7
 70
     1
102
RTVSPropertyOp8
 70
     1
102
RTVSPropertyOp9
 70
     1
102
RTVSPropertyOp10
 70
     1
102
RTVSPropertyOp11
 70
     1
102
RTVSPropertyOp12
 70
     1
102
RTVSPropertyOp13
 70
     1
102
RTVSPropertyOp14
 70
     1
102
RTVSPropertyOp15
 70
     1
102
RTVSPropertyOp16
 70
     1
102
RTVSPropertyOp17
 70
     1
102
RTVSPropertyOp18
 70
     1
102
RTVSPropertyOp19
 70
     1
102
RTVSPropertyOp20
 70
     1
102
RTVSPropertyOp21
 70
     1
102
RTVSPropertyOp22
 70
     1
102
RTVSPropertyOp23
 70
     1
102
RTVSPropertyOp24
 70
     1
102
RTVSPropertyOp25
 70
     1
102
RTVSPropertyOp26
 70
     1
102
RTVSPropertyOp27
 70
     1
102
RTVSPropertyOp28
 70
     1
102
RTVSPropertyOp29
 70
     1
102
RTVSPropertyOp30
 70
     1
102
RTVSPropertyOp31
 70
     1
102
RTVSPropertyOp32
 70
     1
102
RTVSPropertyOp33
 70
     1
102
RTVSPropertyOp34
 70
     1
102
RTVSPropertyOp35
 70
     1
102
RTVSPropertyOp36
 70
     1
102
RTVSPropertyOp37
 70
     1
102
RTVSPropertyOp38
 70
     1
102
RTVSPropertyOp39
 70
     1
102
RTVSPropertyOp40
 70
     1
102
RTVSPropertyOp41
 70
     1
102
RTVSPropertyOp42
 70
     1
102
RTVSPropertyOp43
 70
     1
102
RTVSPropertyOp44
 70
     1
102
RTVSPropertyOp45
 70
     1
102
RTVSPropertyOp46
 70
     1
102
RTVSPropertyOp47
 70
     1
102
RTVSPropertyOp48
 70
     1
102
RTVSPropertyOp49
 70
     1
102
RTVSPropertyOp50
 70
     1
102
RTVSPropertyOp51
 70
     0
102
RTVSPropertyOp52
 70
     0
102
RTVSPropertyOp53
 70
     1
102
RTVSPropertyOp54
 70
     1
102
RTVSPropertyOp55
 70
     1
102
RTVSPropertyOp56
 70
     1
102
RTVSPropertyOp57
 70
     1
102
RTVSPost2010Prop28
280
     0
102
RTVSPost2010PropOp28
 70
     1
102
RTVSPost2010Prop29
280
     1
102
RTVSPost2010PropOp29
 70
     1
102
RTVSPost2010Prop30
280
     1
102
RTVSPost2010PropOp30
 70
     1
102
RTVSPost2010Prop31
280
     0
102
RTVSPost2010PropOp31
 70
     1
102
RTVSPost2010Prop32
280
     0
102
RTVSPost2010PropOp32
 70
     1
102
RTVSPost2010Prop33
280
     0
102
RTVSPost2010PropOp33
 70
     1
102
RTVSPost2010Prop34
280
     0
102
RTVSPost2010PropOp34
 70
     1
102
RTVSPost2010Prop35
280
     0
102
RTVSPost2010PropOp35
 70
     1
102
RTVSPost2010Prop36
280
     0
102
RTVSPost2010PropOp36
 70
     1
102
RTVSPost2010Prop37
 90
       50
102
RTVSPost2010PropOp37
 70
     1
102
RTVSPost2010Prop38
140
0.0
102
RTVSPost2010PropOp38
 70
     1
102
RTVSPost2010Prop39
140
1.0
102
RTVSPost2010PropOp39
 70
     1
102
RTVSPost2010Prop40
 90
        0
102
RTVSPost2010PropOp40
 70
     1
102
RTVSPost2010Prop41ColorIndex
 90
       18
102
RTVSPost2010Prop41ColorRGB
 90
        0
102
RTVSPost2010PropOp41
 70
     1
102
RTVSPost2010Prop42
 90
       50
102
RTVSPost2010PropOp42
 70
     1
102
RTVSPost2010Prop43
 90
        3
102
RTVSPost2010PropOp43
 70
     1
102
RTVSPost2010Prop44ColorIndex
 90
        5
102
RTVSPost2010Prop44ColorRGB
 90
      255
102
RTVSPost2010PropOp44
 70
     1
102
RTVSPost2010Prop45
280
     0
102
RTVSPost2010PropOp45
 70
     1
102
RTVSPost2010Prop46
 90
       50
102
RTVSPost2010PropOp46
 70
     1
102
RTVSPost2010Prop47
 90
       50
102
RTVSPost2010PropOp47
 70
     1
102
RTVSPost2010Prop48
 90
       50
102
RTVSPost2010PropOp48
 70
     1
102
RTVSPost2010Prop49
280
     0
102
RTVSPost2010PropOp49
 70
     1
102
RTVSPost2010Prop50
 90
       50
102
RTVSPost2010PropOp50
 70
     1
102
RTVSPost2010Prop51ColorIndex
 90
      256
102
RTVSPost2010Prop51ColorRGB
 90
-16777216
102
RTVSPost2010PropOp51
 70
     0
102
RTVSPost2010Prop52
140
1.0
102
RTVSPost2010PropOp52
 70
     0
102
RTVSPost2010Prop53
 90
        2
102
RTVSPost2010PropOp53
 70
     1
102
RTVSPost2010Prop54
  1
strokes_ogs.tif
102
RTVSPost2010PropOp54
 70
     1
102
RTVSPost2010Prop55
280
     0
102
RTVSPost2010PropOp55
 70
     1
102
RTVSPost2010Prop56
140
1.0
102
RTVSPost2010PropOp56
 70
     1
102
RTVSPost2010Prop57
140
1.0
102
RTVSPost2010PropOp57
 70
     1
  0
XRECORD
  5
414
102
{ACAD_REACTORS
330
413
102
}
330
413
100
AcDbXrecord
280
     1
102
RTVSPropertyOp0
 70
     0
102
RTVSPropertyOp1
 70
     0
102
RTVSPropertyOp2
 70
     0
102
RTVSPropertyOp3
 70
     0
102
RTVSPropertyOp4
 70
     0
102
RTVSPropertyOp5
 70
     0
102
RTVSPropertyOp6
 70
     0
102
RTVSPropertyOp7
 70
     0
102
RTVSPropertyOp8
 70
     0
102
RTVSPropertyOp9
 70
     0
102
RTVSPropertyOp10
 70
     0
102
RTVSPropertyOp11
 70
     0
102
RTVSPropertyOp12
 70
     0
102
RTVSPropertyOp13
 70
     0
102
RTVSPropertyOp14
 70
     2
102
RTVSPropertyOp15
 70
     0
102
RTVSPropertyOp16
 70
     0
102
RTVSPropertyOp17
 70
     0
102
RTVSPropertyOp18
 70
     0
102
RTVSPropertyOp19
 70
     0
102
RTVSPropertyOp20
 70
     0
102
RTVSPropertyOp21
 70
     0
102
RTVSPropertyOp22
 70
     0
102
RTVSPropertyOp23
 70
     0
102
RTVSPropertyOp24
 70
     0
102
RTVSPropertyOp25
 70
     0
102
RTVSPropertyOp26
 70
     0
102
RTVSPropertyOp27
 70
     0
102
RTVSPropertyOp28
 70
     0
102
RTVSPropertyOp29
 70
     0
102
RTVSPropertyOp30
 70
     0
102
RTVSPropertyOp31
 70
     0
102
RTVSPropertyOp32
 70
     0
102
RTVSPropertyOp33
 70
     0
102
RTVSPropertyOp34
 70
     0
102
RTVSPropertyOp35
 70
     0
102
RTVSPropertyOp36
 70
     0
102
RTVSPropertyOp37
 70
     0
102
RTVSPropertyOp38
 70
     0
102
RTVSPropertyOp39
 70
     0
102
RTVSPropertyOp40
 70
     0
102
RTVSPropertyOp41
 70
     0
102
RTVSPropertyOp42
 70
     0
102
RTVSPropertyOp43
 70
     0
102
RTVSPropertyOp44
 70
     0
102
RTVSPropertyOp45
 70
     0
102
RTVSPropertyOp46
 70
     0
102
RTVSPropertyOp47
 70
     0
102
RTVSPropertyOp48
 70
     0
102
RTVSPropertyOp49
 70
     0
102
RTVSPropertyOp50
 70
     0
102
RTVSPropertyOp51
 70
     0
102
RTVSPropertyOp52
 70
     0
102
RTVSPropertyOp53
 70
     0
102
RTVSPropertyOp54
 70
     0
102
RTVSPropertyOp55
 70
     0
102
RTVSPropertyOp56
 70
     0
102
RTVSPropertyOp57
 70
     0
102
RTVSPost2010Prop28
280
     0
102
RTVSPost2010PropOp28
 70
     0
102
RTVSPost2010Prop29
280
     1
102
RTVSPost2010PropOp29
 70
     0
102
RTVSPost2010Prop30
280
     1
102
RTVSPost2010PropOp30
 70
     0
102
RTVSPost2010Prop31
280
     0
102
RTVSPost2010PropOp31
 70
     0
102
RTVSPost2010Prop32
280
     0
102
RTVSPost2010PropOp32
 70
     0
102
RTVSPost2010Prop33
280
     0
102
RTVSPost2010PropOp33
 70
     0
102
RTVSPost2010Prop34
280
     0
102
RTVSPost2010PropOp34
 70
     0
102
RTVSPost2010Prop35
280
     0
102
RTVSPost2010PropOp35
 70
     0
102
RTVSPost2010Prop36
280
     0
102
RTVSPost2010PropOp36
 70
     0
102
RTVSPost2010Prop37
 90
       50
102
RTVSPost2010PropOp37
 70
     0
102
RTVSPost2010Prop38
140
0.0
102
RTVSPost2010PropOp38
 70
     0
102
RTVSPost2010Prop39
140
1.0
102
RTVSPost2010PropOp39
 70
     0
102
RTVSPost2010Prop40
 90
        0
102
RTVSPost2010PropOp40
 70
     0
102
RTVSPost2010Prop41ColorIndex
 90
       18
102
RTVSPost2010Prop41ColorRGB
 90
        0
102
RTVSPost2010PropOp41
 70
     0
102
RTVSPost2010Prop42
 90
       50
102
RTVSPost2010PropOp42
 70
     0
102
RTVSPost2010Prop43
 90
        3
102
RTVSPost2010PropOp43
 70
     0
102
RTVSPost2010Prop44ColorIndex
 90
        5
102
RTVSPost2010Prop44ColorRGB
 90
      255
102
RTVSPost2010PropOp44
 70
     0
102
RTVSPost2010Prop45
280
     0
102
RTVSPost2010PropOp45
 70
     0
102
RTVSPost2010Prop46
 90
       50
102
RTVSPost2010PropOp46
 70
     0
102
RTVSPost2010Prop47
 90
       50
102
RTVSPost2010PropOp47
 70
     0
102
RTVSPost2010Prop48
 90
       50
102
RTVSPost2010PropOp48
 70
     0
102
RTVSPost2010Prop49
280
     0
102
RTVSPost2010PropOp49
 70
     0
102
RTVSPost2010Prop50
 90
       50
102
RTVSPost2010PropOp50
 70
     0
102
RTVSPost2010Prop51ColorIndex
 90
      256
102
RTVSPost2010Prop51ColorRGB
 90
-16777216
102
RTVSPost2010PropOp51
 70
     0
102
RTVSPost2010Prop52
140
1.0
102
RTVSPost2010PropOp52
 70
     0
102
RTVSPost2010Prop53
 90
        2
102
RTVSPost2010PropOp53
 70
     0
102
RTVSPost2010Prop54
  1
strokes_ogs.tif
102
RTVSPost2010PropOp54
 70
     0
102
RTVSPost2010Prop55
280
     0
102
RTVSPost2010PropOp55
 70
     0
102
RTVSPost2010Prop56
140
1.0
102
RTVSPost2010PropOp56
 70
     0
102
RTVSPost2010Prop57
140
1.0
102
RTVSPost2010PropOp57
 70
     0
  0
XRECORD
  5
402
102
{ACAD_REACTORS
330
401
102
}
330
401
100
AcDbXrecord
280
     1
102
RTVSPropertyOp0
 70
     1
102
RTVSPropertyOp1
 70
     1
102
RTVSPropertyOp2
 70
     1
102
RTVSPropertyOp3
 70
     1
102
RTVSPropertyOp4
 70
     1
102
RTVSPropertyOp5
 70
     1
102
RTVSPropertyOp6
 70
     1
102
RTVSPropertyOp7
 70
     1
102
RTVSPropertyOp8
 70
     1
102
RTVSPropertyOp9
 70
     1
102
RTVSPropertyOp10
 70
     1
102
RTVSPropertyOp11
 70
     1
102
RTVSPropertyOp12
 70
     1
102
RTVSPropertyOp13
 70
     1
102
RTVSPropertyOp14
 70
     1
102
RTVSPropertyOp15
 70
     1
102
RTVSPropertyOp16
 70
     1
102
RTVSPropertyOp17
 70
     1
102
RTVSPropertyOp18
 70
     1
102
RTVSPropertyOp19
 70
     1
102
RTVSPropertyOp20
 70
     1
102
RTVSPropertyOp21
 70
     1
102
RTVSPropertyOp22
 70
     1
102
RTVSPropertyOp23
 70
     1
102
RTVSPropertyOp24
 70
     1
102
RTVSPropertyOp25
 70
     1
102
RTVSPropertyOp26
 70
     1
102
RTVSPropertyOp27
 70
     1
102
RTVSPropertyOp28
 70
     1
102
RTVSPropertyOp29
 70
     1
102
RTVSPropertyOp30
 70
     1
102
RTVSPropertyOp31
 70
     1
102
RTVSPropertyOp32
 70
     1
102
RTVSPropertyOp33
 70
     1
102
RTVSPropertyOp34
 70
     1
102
RTVSPropertyOp35
 70
     1
102
RTVSPropertyOp36
 70
     1
102
RTVSPropertyOp37
 70
     1
102
RTVSPropertyOp38
 70
     1
102
RTVSPropertyOp39
 70
     1
102
RTVSPropertyOp40
 70
     1
102
RTVSPropertyOp41
 70
     1
102
RTVSPropertyOp42
 70
     1
102
RTVSPropertyOp43
 70
     1
102
RTVSPropertyOp44
 70
     1
102
RTVSPropertyOp45
 70
     1
102
RTVSPropertyOp46
 70
     1
102
RTVSPropertyOp47
 70
     1
102
RTVSPropertyOp48
 70
     1
102
RTVSPropertyOp49
 70
     1
102
RTVSPropertyOp50
 70
     1
102
RTVSPropertyOp51
 70
     0
102
RTVSPropertyOp52
 70
     0
102
RTVSPropertyOp53
 70
     1
102
RTVSPropertyOp54
 70
     1
102
RTVSPropertyOp55
 70
     1
102
RTVSPropertyOp56
 70
     1
102
RTVSPropertyOp57
 70
     1
102
RTVSPost2010Prop28
280
     0
102
RTVSPost2010PropOp28
 70
     1
102
RTVSPost2010Prop29
280
     1
102
RTVSPost2010PropOp29
 70
     1
102
RTVSPost2010Prop30
280
     1
102
RTVSPost2010PropOp30
 70
     1
102
RTVSPost2010Prop31
280
     0
102
RTVSPost2010PropOp31
 70
     1
102
RTVSPost2010Prop32
280
     0
102
RTVSPost2010PropOp32
 70
     1
102
RTVSPost2010Prop33
280
     0
102
RTVSPost2010PropOp33
 70
     1
102
RTVSPost2010Prop34
280
     0
102
RTVSPost2010PropOp34
 70
     1
102
RTVSPost2010Prop35
280
     0
102
RTVSPost2010PropOp35
 70
     1
102
RTVSPost2010Prop36
280
     0
102
RTVSPost2010PropOp36
 70
     1
102
RTVSPost2010Prop37
 90
       50
102
RTVSPost2010PropOp37
 70
     1
102
RTVSPost2010Prop38
140
0.0
102
RTVSPost2010PropOp38
 70
     1
102
RTVSPost2010Prop39
140
1.0
102
RTVSPost2010PropOp39
 70
     1
102
RTVSPost2010Prop40
 90
        0
102
RTVSPost2010PropOp40
 70
     1
102
RTVSPost2010Prop41ColorIndex
 90
       18
102
RTVSPost2010Prop41ColorRGB
 90
        0
102
RTVSPost2010PropOp41
 70
     1
102
RTVSPost2010Prop42
 90
       50
102
RTVSPost2010PropOp42
 70
     1
102
RTVSPost2010Prop43
 90
        3
102
RTVSPost2010PropOp43
 70
     1
102
RTVSPost2010Prop44ColorIndex
 90
        5
102
RTVSPost2010Prop44ColorRGB
 90
      255
102
RTVSPost2010PropOp44
 70
     1
102
RTVSPost2010Prop45
280
     0
102
RTVSPost2010PropOp45
 70
     1
102
RTVSPost2010Prop46
 90
       50
102
RTVSPost2010PropOp46
 70
     1
102
RTVSPost2010Prop47
 90
       50
102
RTVSPost2010PropOp47
 70
     1
102
RTVSPost2010Prop48
 90
       50
102
RTVSPost2010PropOp48
 70
     1
102
RTVSPost2010Prop49
280
     0
102
RTVSPost2010PropOp49
 70
     1
102
RTVSPost2010Prop50
 90
       50
102
RTVSPost2010PropOp50
 70
     1
102
RTVSPost2010Prop51ColorIndex
 90
      256
102
RTVSPost2010Prop51ColorRGB
 90
-16777216
102
RTVSPost2010PropOp51
 70
     0
102
RTVSPost2010Prop52
140
1.0
102
RTVSPost2010PropOp52
 70
     0
102
RTVSPost2010Prop53
 90
        2
102
RTVSPost2010PropOp53
 70
     1
102
RTVSPost2010Prop54
  1
strokes_ogs.tif
102
RTVSPost2010PropOp54
 70
     1
102
RTVSPost2010Prop55
280
     0
102
RTVSPost2010PropOp55
 70
     1
102
RTVSPost2010Prop56
140
1.0
102
RTVSPost2010PropOp56
 70
     1
102
RTVSPost2010Prop57
140
1.0
102
RTVSPost2010PropOp57
 70
     1
  0
XRECORD
  5
420
102
{ACAD_REACTORS
330
41F
102
}
330
41F
100
AcDbXrecord
280
     1
102
RTVSPropertyOp0
 70
     1
102
RTVSPropertyOp1
 70
     1
102
RTVSPropertyOp2
 70
     1
102
RTVSPropertyOp3
 70
     1
102
RTVSPropertyOp4
 70
     1
102
RTVSPropertyOp5
 70
     1
102
RTVSPropertyOp6
 70
     1
102
RTVSPropertyOp7
 70
     1
102
RTVSPropertyOp8
 70
     1
102
RTVSPropertyOp9
 70
     1
102
RTVSPropertyOp10
 70
     1
102
RTVSPropertyOp11
 70
     1
102
RTVSPropertyOp12
 70
     1
102
RTVSPropertyOp13
 70
     1
102
RTVSPropertyOp14
 70
     1
102
RTVSPropertyOp15
 70
     1
102
RTVSPropertyOp16
 70
     1
102
RTVSPropertyOp17
 70
     1
102
RTVSPropertyOp18
 70
     1
102
RTVSPropertyOp19
 70
     1
102
RTVSPropertyOp20
 70
     1
102
RTVSPropertyOp21
 70
     1
102
RTVSPropertyOp22
 70
     1
102
RTVSPropertyOp23
 70
     1
102
RTVSPropertyOp24
 70
     1
102
RTVSPropertyOp25
 70
     1
102
RTVSPropertyOp26
 70
     1
102
RTVSPropertyOp27
 70
     1
102
RTVSPropertyOp28
 70
     1
102
RTVSPropertyOp29
 70
     1
102
RTVSPropertyOp30
 70
     1
102
RTVSPropertyOp31
 70
     1
102
RTVSPropertyOp32
 70
     1
102
RTVSPropertyOp33
 70
     1
102
RTVSPropertyOp34
 70
     1
102
RTVSPropertyOp35
 70
     1
102
RTVSPropertyOp36
 70
     1
102
RTVSPropertyOp37
 70
     1
102
RTVSPropertyOp38
 70
     1
102
RTVSPropertyOp39
 70
     1
102
RTVSPropertyOp40
 70
     1
102
RTVSPropertyOp41
 70
     1
102
RTVSPropertyOp42
 70
     1
102
RTVSPropertyOp43
 70
     1
102
RTVSPropertyOp44
 70
     1
102
RTVSPropertyOp45
 70
     1
102
RTVSPropertyOp46
 70
     1
102
RTVSPropertyOp47
 70
     1
102
RTVSPropertyOp48
 70
     1
102
RTVSPropertyOp49
 70
     1
102
RTVSPropertyOp50
 70
     1
102
RTVSPropertyOp51
 70
     0
102
RTVSPropertyOp52
 70
     0
102
RTVSPropertyOp53
 70
     1
102
RTVSPropertyOp54
 70
     1
102
RTVSPropertyOp55
 70
     1
102
RTVSPropertyOp56
 70
     1
102
RTVSPropertyOp57
 70
     1
102
RTVSPost2010Prop28
280
     0
102
RTVSPost2010PropOp28
 70
     1
102
RTVSPost2010Prop29
280
     1
102
RTVSPost2010PropOp29
 70
     1
102
RTVSPost2010Prop30
280
     1
102
RTVSPost2010PropOp30
 70
     1
102
RTVSPost2010Prop31
280
     0
102
RTVSPost2010PropOp31
 70
     1
102
RTVSPost2010Prop32
280
     0
102
RTVSPost2010PropOp32
 70
     1
102
RTVSPost2010Prop33
280
     0
102
RTVSPost2010PropOp33
 70
     1
102
RTVSPost2010Prop34
280
     0
102
RTVSPost2010PropOp34
 70
     1
102
RTVSPost2010Prop35
280
     0
102
RTVSPost2010PropOp35
 70
     1
102
RTVSPost2010Prop36
280
     0
102
RTVSPost2010PropOp36
 70
     1
102
RTVSPost2010Prop37
 90
       50
102
RTVSPost2010PropOp37
 70
     1
102
RTVSPost2010Prop38
140
0.0
102
RTVSPost2010PropOp38
 70
     1
102
RTVSPost2010Prop39
140
1.0
102
RTVSPost2010PropOp39
 70
     1
102
RTVSPost2010Prop40
 90
        0
102
RTVSPost2010PropOp40
 70
     1
102
RTVSPost2010Prop41ColorIndex
 90
       18
102
RTVSPost2010Prop41ColorRGB
 90
        0
102
RTVSPost2010PropOp41
 70
     1
102
RTVSPost2010Prop42
 90
       50
102
RTVSPost2010PropOp42
 70
     1
102
RTVSPost2010Prop43
 90
        3
102
RTVSPost2010PropOp43
 70
     1
102
RTVSPost2010Prop44ColorIndex
 90
        5
102
RTVSPost2010Prop44ColorRGB
 90
      255
102
RTVSPost2010PropOp44
 70
     1
102
RTVSPost2010Prop45
280
     0
102
RTVSPost2010PropOp45
 70
     1
102
RTVSPost2010Prop46
 90
       50
102
RTVSPost2010PropOp46
 70
     1
102
RTVSPost2010Prop47
 90
       50
102
RTVSPost2010PropOp47
 70
     1
102
RTVSPost2010Prop48
 90
       50
102
RTVSPost2010PropOp48
 70
     1
102
RTVSPost2010Prop49
280
     0
102
RTVSPost2010PropOp49
 70
     1
102
RTVSPost2010Prop50
 90
       50
102
RTVSPost2010PropOp50
 70
     1
102
RTVSPost2010Prop51ColorIndex
 90
      256
102
RTVSPost2010Prop51ColorRGB
 90
-16777216
102
RTVSPost2010PropOp51
 70
     0
102
RTVSPost2010Prop52
140
1.0
102
RTVSPost2010PropOp52
 70
     0
102
RTVSPost2010Prop53
 90
        2
102
RTVSPost2010PropOp53
 70
     1
102
RTVSPost2010Prop54
  1
strokes_ogs.tif
102
RTVSPost2010PropOp54
 70
     1
102
RTVSPost2010Prop55
280
     0
102
RTVSPost2010PropOp55
 70
     1
102
RTVSPost2010Prop56
140
1.0
102
RTVSPost2010PropOp56
 70
     1
102
RTVSPost2010Prop57
140
1.0
102
RTVSPost2010PropOp57
 70
     1
  0
XRECORD
  5
41E
102
{ACAD_REACTORS
330
41D
102
}
330
41D
100
AcDbXrecord
280
     1
102
RTVSPropertyOp0
 70
     1
102
RTVSPropertyOp1
 70
     1
102
RTVSPropertyOp2
 70
     1
102
RTVSPropertyOp3
 70
     1
102
RTVSPropertyOp4
 70
     1
102
RTVSPropertyOp5
 70
     1
102
RTVSPropertyOp6
 70
     1
102
RTVSPropertyOp7
 70
     1
102
RTVSPropertyOp8
 70
     1
102
RTVSPropertyOp9
 70
     1
102
RTVSPropertyOp10
 70
     1
102
RTVSPropertyOp11
 70
     1
102
RTVSPropertyOp12
 70
     1
102
RTVSPropertyOp13
 70
     1
102
RTVSPropertyOp14
 70
     1
102
RTVSPropertyOp15
 70
     1
102
RTVSPropertyOp16
 70
     1
102
RTVSPropertyOp17
 70
     1
102
RTVSPropertyOp18
 70
     1
102
RTVSPropertyOp19
 70
     1
102
RTVSPropertyOp20
 70
     1
102
RTVSPropertyOp21
 70
     1
102
RTVSPropertyOp22
 70
     1
102
RTVSPropertyOp23
 70
     1
102
RTVSPropertyOp24
 70
     1
102
RTVSPropertyOp25
 70
     1
102
RTVSPropertyOp26
 70
     1
102
RTVSPropertyOp27
 70
     1
102
RTVSPropertyOp28
 70
     1
102
RTVSPropertyOp29
 70
     1
102
RTVSPropertyOp30
 70
     1
102
RTVSPropertyOp31
 70
     1
102
RTVSPropertyOp32
 70
     1
102
RTVSPropertyOp33
 70
     1
102
RTVSPropertyOp34
 70
     1
102
RTVSPropertyOp35
 70
     1
102
RTVSPropertyOp36
 70
     1
102
RTVSPropertyOp37
 70
     1
102
RTVSPropertyOp38
 70
     1
102
RTVSPropertyOp39
 70
     1
102
RTVSPropertyOp40
 70
     1
102
RTVSPropertyOp41
 70
     1
102
RTVSPropertyOp42
 70
     1
102
RTVSPropertyOp43
 70
     1
102
RTVSPropertyOp44
 70
     1
102
RTVSPropertyOp45
 70
     1
102
RTVSPropertyOp46
 70
     1
102
RTVSPropertyOp47
 70
     1
102
RTVSPropertyOp48
 70
     1
102
RTVSPropertyOp49
 70
     1
102
RTVSPropertyOp50
 70
     1
102
RTVSPropertyOp51
 70
     0
102
RTVSPropertyOp52
 70
     0
102
RTVSPropertyOp53
 70
     1
102
RTVSPropertyOp54
 70
     1
102
RTVSPropertyOp55
 70
     1
102
RTVSPropertyOp56
 70
     1
102
RTVSPropertyOp57
 70
     1
102
RTVSPost2010Prop28
280
     0
102
RTVSPost2010PropOp28
 70
     1
102
RTVSPost2010Prop29
280
     1
102
RTVSPost2010PropOp29
 70
     1
102
RTVSPost2010Prop30
280
     1
102
RTVSPost2010PropOp30
 70
     1
102
RTVSPost2010Prop31
280
     0
102
RTVSPost2010PropOp31
 70
     1
102
RTVSPost2010Prop32
280
     0
102
RTVSPost2010PropOp32
 70
     1
102
RTVSPost2010Prop33
280
     0
102
RTVSPost2010PropOp33
 70
     1
102
RTVSPost2010Prop34
280
     0
102
RTVSPost2010PropOp34
 70
     1
102
RTVSPost2010Prop35
280
     0
102
RTVSPost2010PropOp35
 70
     1
102
RTVSPost2010Prop36
280
     0
102
RTVSPost2010PropOp36
 70
     1
102
RTVSPost2010Prop37
 90
       50
102
RTVSPost2010PropOp37
 70
     1
102
RTVSPost2010Prop38
140
0.0
102
RTVSPost2010PropOp38
 70
     1
102
RTVSPost2010Prop39
140
1.0
102
RTVSPost2010PropOp39
 70
     1
102
RTVSPost2010Prop40
 90
        0
102
RTVSPost2010PropOp40
 70
     1
102
RTVSPost2010Prop41ColorIndex
 90
       18
102
RTVSPost2010Prop41ColorRGB
 90
        0
102
RTVSPost2010PropOp41
 70
     1
102
RTVSPost2010Prop42
 90
       50
102
RTVSPost2010PropOp42
 70
     1
102
RTVSPost2010Prop43
 90
        3
102
RTVSPost2010PropOp43
 70
     1
102
RTVSPost2010Prop44ColorIndex
 90
        5
102
RTVSPost2010Prop44ColorRGB
 90
      255
102
RTVSPost2010PropOp44
 70
     1
102
RTVSPost2010Prop45
280
     0
102
RTVSPost2010PropOp45
 70
     1
102
RTVSPost2010Prop46
 90
       50
102
RTVSPost2010PropOp46
 70
     1
102
RTVSPost2010Prop47
 90
       50
102
RTVSPost2010PropOp47
 70
     1
102
RTVSPost2010Prop48
 90
       50
102
RTVSPost2010PropOp48
 70
     1
102
RTVSPost2010Prop49
280
     0
102
RTVSPost2010PropOp49
 70
     1
102
RTVSPost2010Prop50
 90
       50
102
RTVSPost2010PropOp50
 70
     1
102
RTVSPost2010Prop51ColorIndex
 90
      256
102
RTVSPost2010Prop51ColorRGB
 90
-16777216
102
RTVSPost2010PropOp51
 70
     0
102
RTVSPost2010Prop52
140
1.0
102
RTVSPost2010PropOp52
 70
     0
102
RTVSPost2010Prop53
 90
        2
102
RTVSPost2010PropOp53
 70
     1
102
RTVSPost2010Prop54
  1
strokes_ogs.tif
102
RTVSPost2010PropOp54
 70
     1
102
RTVSPost2010Prop55
280
     0
102
RTVSPost2010PropOp55
 70
     1
102
RTVSPost2010Prop56
140
1.0
102
RTVSPost2010PropOp56
 70
     1
102
RTVSPost2010Prop57
140
1.0
102
RTVSPost2010PropOp57
 70
     1
  0
XRECORD
  5
418
102
{ACAD_REACTORS
330
417
102
}
330
417
100
AcDbXrecord
280
     1
102
RTVSPropertyOp0
 70
     1
102
RTVSPropertyOp1
 70
     1
102
RTVSPropertyOp2
 70
     1
102
RTVSPropertyOp3
 70
     1
102
RTVSPropertyOp4
 70
     1
102
RTVSPropertyOp5
 70
     1
102
RTVSPropertyOp6
 70
     1
102
RTVSPropertyOp7
 70
     1
102
RTVSPropertyOp8
 70
     1
102
RTVSPropertyOp9
 70
     1
102
RTVSPropertyOp10
 70
     1
102
RTVSPropertyOp11
 70
     1
102
RTVSPropertyOp12
 70
     1
102
RTVSPropertyOp13
 70
     1
102
RTVSPropertyOp14
 70
     1
102
RTVSPropertyOp15
 70
     1
102
RTVSPropertyOp16
 70
     1
102
RTVSPropertyOp17
 70
     1
102
RTVSPropertyOp18
 70
     1
102
RTVSPropertyOp19
 70
     1
102
RTVSPropertyOp20
 70
     1
102
RTVSPropertyOp21
 70
     1
102
RTVSPropertyOp22
 70
     1
102
RTVSPropertyOp23
 70
     1
102
RTVSPropertyOp24
 70
     1
102
RTVSPropertyOp25
 70
     1
102
RTVSPropertyOp26
 70
     1
102
RTVSPropertyOp27
 70
     1
102
RTVSPropertyOp28
 70
     1
102
RTVSPropertyOp29
 70
     1
102
RTVSPropertyOp30
 70
     1
102
RTVSPropertyOp31
 70
     1
102
RTVSPropertyOp32
 70
     1
102
RTVSPropertyOp33
 70
     1
102
RTVSPropertyOp34
 70
     1
102
RTVSPropertyOp35
 70
     1
102
RTVSPropertyOp36
 70
     1
102
RTVSPropertyOp37
 70
     1
102
RTVSPropertyOp38
 70
     1
102
RTVSPropertyOp39
 70
     1
102
RTVSPropertyOp40
 70
     1
102
RTVSPropertyOp41
 70
     1
102
RTVSPropertyOp42
 70
     1
102
RTVSPropertyOp43
 70
     1
102
RTVSPropertyOp44
 70
     1
102
RTVSPropertyOp45
 70
     1
102
RTVSPropertyOp46
 70
     1
102
RTVSPropertyOp47
 70
     1
102
RTVSPropertyOp48
 70
     1
102
RTVSPropertyOp49
 70
     1
102
RTVSPropertyOp50
 70
     1
102
RTVSPropertyOp51
 70
     0
102
RTVSPropertyOp52
 70
     0
102
RTVSPropertyOp53
 70
     1
102
RTVSPropertyOp54
 70
     1
102
RTVSPropertyOp55
 70
     1
102
RTVSPropertyOp56
 70
     1
102
RTVSPropertyOp57
 70
     1
102
RTVSPost2010Prop28
280
     0
102
RTVSPost2010PropOp28
 70
     1
102
RTVSPost2010Prop29
280
     1
102
RTVSPost2010PropOp29
 70
     1
102
RTVSPost2010Prop30
280
     1
102
RTVSPost2010PropOp30
 70
     1
102
RTVSPost2010Prop31
280
     0
102
RTVSPost2010PropOp31
 70
     1
102
RTVSPost2010Prop32
280
     0
102
RTVSPost2010PropOp32
 70
     1
102
RTVSPost2010Prop33
280
     0
102
RTVSPost2010PropOp33
 70
     1
102
RTVSPost2010Prop34
280
     0
102
RTVSPost2010PropOp34
 70
     1
102
RTVSPost2010Prop35
280
     0
102
RTVSPost2010PropOp35
 70
     1
102
RTVSPost2010Prop36
280
     0
102
RTVSPost2010PropOp36
 70
     1
102
RTVSPost2010Prop37
 90
       50
102
RTVSPost2010PropOp37
 70
     1
102
RTVSPost2010Prop38
140
0.0
102
RTVSPost2010PropOp38
 70
     1
102
RTVSPost2010Prop39
140
1.0
102
RTVSPost2010PropOp39
 70
     1
102
RTVSPost2010Prop40
 90
        0
102
RTVSPost2010PropOp40
 70
     1
102
RTVSPost2010Prop41ColorIndex
 90
       18
102
RTVSPost2010Prop41ColorRGB
 90
        0
102
RTVSPost2010PropOp41
 70
     1
102
RTVSPost2010Prop42
 90
       50
102
RTVSPost2010PropOp42
 70
     1
102
RTVSPost2010Prop43
 90
        3
102
RTVSPost2010PropOp43
 70
     1
102
RTVSPost2010Prop44ColorIndex
 90
        5
102
RTVSPost2010Prop44ColorRGB
 90
      255
102
RTVSPost2010PropOp44
 70
     1
102
RTVSPost2010Prop45
280
     0
102
RTVSPost2010PropOp45
 70
     1
102
RTVSPost2010Prop46
 90
       50
102
RTVSPost2010PropOp46
 70
     1
102
RTVSPost2010Prop47
 90
       50
102
RTVSPost2010PropOp47
 70
     1
102
RTVSPost2010Prop48
 90
       50
102
RTVSPost2010PropOp48
 70
     1
102
RTVSPost2010Prop49
280
     0
102
RTVSPost2010PropOp49
 70
     1
102
RTVSPost2010Prop50
 90
       50
102
RTVSPost2010PropOp50
 70
     1
102
RTVSPost2010Prop51ColorIndex
 90
      256
102
RTVSPost2010Prop51ColorRGB
 90
-16777216
102
RTVSPost2010PropOp51
 70
     0
102
RTVSPost2010Prop52
140
1.0
102
RTVSPost2010PropOp52
 70
     0
102
RTVSPost2010Prop53
 90
        2
102
RTVSPost2010PropOp53
 70
     1
102
RTVSPost2010Prop54
  1
strokes_ogs.tif
102
RTVSPost2010PropOp54
 70
     1
102
RTVSPost2010Prop55
280
     0
102
RTVSPost2010PropOp55
 70
     1
102
RTVSPost2010Prop56
140
1.0
102
RTVSPost2010PropOp56
 70
     1
102
RTVSPost2010Prop57
140
1.0
102
RTVSPost2010PropOp57
 70
     1
  0
XRECORD
  5
41A
102
{ACAD_REACTORS
330
419
102
}
330
419
100
AcDbXrecord
280
     1
102
RTVSPropertyOp0
 70
     1
102
RTVSPropertyOp1
 70
     1
102
RTVSPropertyOp2
 70
     1
102
RTVSPropertyOp3
 70
     1
102
RTVSPropertyOp4
 70
     1
102
RTVSPropertyOp5
 70
     1
102
RTVSPropertyOp6
 70
     1
102
RTVSPropertyOp7
 70
     1
102
RTVSPropertyOp8
 70
     1
102
RTVSPropertyOp9
 70
     1
102
RTVSPropertyOp10
 70
     1
102
RTVSPropertyOp11
 70
     1
102
RTVSPropertyOp12
 70
     1
102
RTVSPropertyOp13
 70
     1
102
RTVSPropertyOp14
 70
     1
102
RTVSPropertyOp15
 70
     1
102
RTVSPropertyOp16
 70
     1
102
RTVSPropertyOp17
 70
     1
102
RTVSPropertyOp18
 70
     1
102
RTVSPropertyOp19
 70
     1
102
RTVSPropertyOp20
 70
     1
102
RTVSPropertyOp21
 70
     1
102
RTVSPropertyOp22
 70
     1
102
RTVSPropertyOp23
 70
     1
102
RTVSPropertyOp24
 70
     1
102
RTVSPropertyOp25
 70
     1
102
RTVSPropertyOp26
 70
     1
102
RTVSPropertyOp27
 70
     1
102
RTVSPropertyOp28
 70
     1
102
RTVSPropertyOp29
 70
     1
102
RTVSPropertyOp30
 70
     1
102
RTVSPropertyOp31
 70
     1
102
RTVSPropertyOp32
 70
     1
102
RTVSPropertyOp33
 70
     1
102
RTVSPropertyOp34
 70
     1
102
RTVSPropertyOp35
 70
     1
102
RTVSPropertyOp36
 70
     1
102
RTVSPropertyOp37
 70
     1
102
RTVSPropertyOp38
 70
     1
102
RTVSPropertyOp39
 70
     1
102
RTVSPropertyOp40
 70
     1
102
RTVSPropertyOp41
 70
     1
102
RTVSPropertyOp42
 70
     1
102
RTVSPropertyOp43
 70
     1
102
RTVSPropertyOp44
 70
     1
102
RTVSPropertyOp45
 70
     1
102
RTVSPropertyOp46
 70
     1
102
RTVSPropertyOp47
 70
     1
102
RTVSPropertyOp48
 70
     1
102
RTVSPropertyOp49
 70
     1
102
RTVSPropertyOp50
 70
     1
102
RTVSPropertyOp51
 70
     0
102
RTVSPropertyOp52
 70
     0
102
RTVSPropertyOp53
 70
     1
102
RTVSPropertyOp54
 70
     1
102
RTVSPropertyOp55
 70
     1
102
RTVSPropertyOp56
 70
     1
102
RTVSPropertyOp57
 70
     1
102
RTVSPost2010Prop28
280
     0
102
RTVSPost2010PropOp28
 70
     1
102
RTVSPost2010Prop29
280
     1
102
RTVSPost2010PropOp29
 70
     1
102
RTVSPost2010Prop30
280
     1
102
RTVSPost2010PropOp30
 70
     1
102
RTVSPost2010Prop31
280
     0
102
RTVSPost2010PropOp31
 70
     1
102
RTVSPost2010Prop32
280
     0
102
RTVSPost2010PropOp32
 70
     1
102
RTVSPost2010Prop33
280
     0
102
RTVSPost2010PropOp33
 70
     1
102
RTVSPost2010Prop34
280
     0
102
RTVSPost2010PropOp34
 70
     1
102
RTVSPost2010Prop35
280
     0
102
RTVSPost2010PropOp35
 70
     1
102
RTVSPost2010Prop36
280
     0
102
RTVSPost2010PropOp36
 70
     1
102
RTVSPost2010Prop37
 90
       50
102
RTVSPost2010PropOp37
 70
     1
102
RTVSPost2010Prop38
140
0.0
102
RTVSPost2010PropOp38
 70
     1
102
RTVSPost2010Prop39
140
1.0
102
RTVSPost2010PropOp39
 70
     1
102
RTVSPost2010Prop40
 90
        0
102
RTVSPost2010PropOp40
 70
     1
102
RTVSPost2010Prop41ColorIndex
 90
       18
102
RTVSPost2010Prop41ColorRGB
 90
        0
102
RTVSPost2010PropOp41
 70
     1
102
RTVSPost2010Prop42
 90
       50
102
RTVSPost2010PropOp42
 70
     1
102
RTVSPost2010Prop43
 90
        3
102
RTVSPost2010PropOp43
 70
     1
102
RTVSPost2010Prop44ColorIndex
 90
        5
102
RTVSPost2010Prop44ColorRGB
 90
      255
102
RTVSPost2010PropOp44
 70
     1
102
RTVSPost2010Prop45
280
     0
102
RTVSPost2010PropOp45
 70
     1
102
RTVSPost2010Prop46
 90
       50
102
RTVSPost2010PropOp46
 70
     1
102
RTVSPost2010Prop47
 90
       50
102
RTVSPost2010PropOp47
 70
     1
102
RTVSPost2010Prop48
 90
       50
102
RTVSPost2010PropOp48
 70
     1
102
RTVSPost2010Prop49
280
     0
102
RTVSPost2010PropOp49
 70
     1
102
RTVSPost2010Prop50
 90
       50
102
RTVSPost2010PropOp50
 70
     1
102
RTVSPost2010Prop51ColorIndex
 90
      256
102
RTVSPost2010Prop51ColorRGB
 90
-16777216
102
RTVSPost2010PropOp51
 70
     0
102
RTVSPost2010Prop52
140
1.0
102
RTVSPost2010PropOp52
 70
     0
102
RTVSPost2010Prop53
 90
        2
102
RTVSPost2010PropOp53
 70
     1
102
RTVSPost2010Prop54
  1
strokes_ogs.tif
102
RTVSPost2010PropOp54
 70
     1
102
RTVSPost2010Prop55
280
     0
102
RTVSPost2010PropOp55
 70
     1
102
RTVSPost2010Prop56
140
1.0
102
RTVSPost2010PropOp56
 70
     1
102
RTVSPost2010Prop57
140
1.0
102
RTVSPost2010PropOp57
 70
     1
  0
XRECORD
  5
40A
102
{ACAD_REACTORS
330
409
102
}
330
409
100
AcDbXrecord
280
     1
102
RTVSPropertyOp0
 70
     1
102
RTVSPropertyOp1
 70
     1
102
RTVSPropertyOp2
 70
     1
102
RTVSPropertyOp3
 70
     1
102
RTVSPropertyOp4
 70
     1
102
RTVSPropertyOp5
 70
     1
102
RTVSPropertyOp6
 70
     1
102
RTVSPropertyOp7
 70
     1
102
RTVSPropertyOp8
 70
     1
102
RTVSPropertyOp9
 70
     1
102
RTVSPropertyOp10
 70
     1
102
RTVSPropertyOp11
 70
     1
102
RTVSPropertyOp12
 70
     1
102
RTVSPropertyOp13
 70
     1
102
RTVSPropertyOp14
 70
     1
102
RTVSPropertyOp15
 70
     1
102
RTVSPropertyOp16
 70
     1
102
RTVSPropertyOp17
 70
     1
102
RTVSPropertyOp18
 70
     1
102
RTVSPropertyOp19
 70
     1
102
RTVSPropertyOp20
 70
     1
102
RTVSPropertyOp21
 70
     1
102
RTVSPropertyOp22
 70
     1
102
RTVSPropertyOp23
 70
     1
102
RTVSPropertyOp24
 70
     1
102
RTVSPropertyOp25
 70
     1
102
RTVSPropertyOp26
 70
     1
102
RTVSPropertyOp27
 70
     1
102
RTVSPropertyOp28
 70
     1
102
RTVSPropertyOp29
 70
     1
102
RTVSPropertyOp30
 70
     1
102
RTVSPropertyOp31
 70
     1
102
RTVSPropertyOp32
 70
     1
102
RTVSPropertyOp33
 70
     1
102
RTVSPropertyOp34
 70
     1
102
RTVSPropertyOp35
 70
     1
102
RTVSPropertyOp36
 70
     1
102
RTVSPropertyOp37
 70
     1
102
RTVSPropertyOp38
 70
     1
102
RTVSPropertyOp39
 70
     1
102
RTVSPropertyOp40
 70
     1
102
RTVSPropertyOp41
 70
     1
102
RTVSPropertyOp42
 70
     1
102
RTVSPropertyOp43
 70
     1
102
RTVSPropertyOp44
 70
     1
102
RTVSPropertyOp45
 70
     1
102
RTVSPropertyOp46
 70
     1
102
RTVSPropertyOp47
 70
     1
102
RTVSPropertyOp48
 70
     1
102
RTVSPropertyOp49
 70
     1
102
RTVSPropertyOp50
 70
     1
102
RTVSPropertyOp51
 70
     0
102
RTVSPropertyOp52
 70
     0
102
RTVSPropertyOp53
 70
     1
102
RTVSPropertyOp54
 70
     1
102
RTVSPropertyOp55
 70
     1
102
RTVSPropertyOp56
 70
     1
102
RTVSPropertyOp57
 70
     1
102
RTVSPost2010Prop28
280
     0
102
RTVSPost2010PropOp28
 70
     1
102
RTVSPost2010Prop29
280
     1
102
RTVSPost2010PropOp29
 70
     1
102
RTVSPost2010Prop30
280
     1
102
RTVSPost2010PropOp30
 70
     1
102
RTVSPost2010Prop31
280
     0
102
RTVSPost2010PropOp31
 70
     1
102
RTVSPost2010Prop32
280
     0
102
RTVSPost2010PropOp32
 70
     1
102
RTVSPost2010Prop33
280
     0
102
RTVSPost2010PropOp33
 70
     1
102
RTVSPost2010Prop34
280
     0
102
RTVSPost2010PropOp34
 70
     1
102
RTVSPost2010Prop35
280
     0
102
RTVSPost2010PropOp35
 70
     1
102
RTVSPost2010Prop36
280
     0
102
RTVSPost2010PropOp36
 70
     1
102
RTVSPost2010Prop37
 90
       50
102
RTVSPost2010PropOp37
 70
     1
102
RTVSPost2010Prop38
140
0.0
102
RTVSPost2010PropOp38
 70
     1
102
RTVSPost2010Prop39
140
1.0
102
RTVSPost2010PropOp39
 70
     1
102
RTVSPost2010Prop40
 90
        0
102
RTVSPost2010PropOp40
 70
     1
102
RTVSPost2010Prop41ColorIndex
 90
       18
102
RTVSPost2010Prop41ColorRGB
 90
        0
102
RTVSPost2010PropOp41
 70
     1
102
RTVSPost2010Prop42
 90
       50
102
RTVSPost2010PropOp42
 70
     1
102
RTVSPost2010Prop43
 90
        3
102
RTVSPost2010PropOp43
 70
     1
102
RTVSPost2010Prop44ColorIndex
 90
        5
102
RTVSPost2010Prop44ColorRGB
 90
      255
102
RTVSPost2010PropOp44
 70
     1
102
RTVSPost2010Prop45
280
     0
102
RTVSPost2010PropOp45
 70
     1
102
RTVSPost2010Prop46
 90
       50
102
RTVSPost2010PropOp46
 70
     1
102
RTVSPost2010Prop47
 90
       50
102
RTVSPost2010PropOp47
 70
     1
102
RTVSPost2010Prop48
 90
       50
102
RTVSPost2010PropOp48
 70
     1
102
RTVSPost2010Prop49
280
     0
102
RTVSPost2010PropOp49
 70
     1
102
RTVSPost2010Prop50
 90
       50
102
RTVSPost2010PropOp50
 70
     1
102
RTVSPost2010Prop51ColorIndex
 90
      256
102
RTVSPost2010Prop51ColorRGB
 90
-16777216
102
RTVSPost2010PropOp51
 70
     0
102
RTVSPost2010Prop52
140
1.0
102
RTVSPost2010PropOp52
 70
     0
102
RTVSPost2010Prop53
 90
        2
102
RTVSPost2010PropOp53
 70
     1
102
RTVSPost2010Prop54
  1
strokes_ogs.tif
102
RTVSPost2010PropOp54
 70
     1
102
RTVSPost2010Prop55
280
     0
102
RTVSPost2010PropOp55
 70
     1
102
RTVSPost2010Prop56
140
1.0
102
RTVSPost2010PropOp56
 70
     1
102
RTVSPost2010Prop57
140
1.0
102
RTVSPost2010PropOp57
 70
     1
  0
XRECORD
  5
3FC
102
{ACAD_REACTORS
330
3FB
102
}
330
3FB
100
AcDbXrecord
280
     1
102
RTVSPropertyOp0
 70
     1
102
RTVSPropertyOp1
 70
     1
102
RTVSPropertyOp2
 70
     1
102
RTVSPropertyOp3
 70
     1
102
RTVSPropertyOp4
 70
     1
102
RTVSPropertyOp5
 70
     1
102
RTVSPropertyOp6
 70
     1
102
RTVSPropertyOp7
 70
     1
102
RTVSPropertyOp8
 70
     1
102
RTVSPropertyOp9
 70
     1
102
RTVSPropertyOp10
 70
     1
102
RTVSPropertyOp11
 70
     1
102
RTVSPropertyOp12
 70
     1
102
RTVSPropertyOp13
 70
     1
102
RTVSPropertyOp14
 70
     1
102
RTVSPropertyOp15
 70
     1
102
RTVSPropertyOp16
 70
     1
102
RTVSPropertyOp17
 70
     1
102
RTVSPropertyOp18
 70
     1
102
RTVSPropertyOp19
 70
     1
102
RTVSPropertyOp20
 70
     1
102
RTVSPropertyOp21
 70
     1
102
RTVSPropertyOp22
 70
     1
102
RTVSPropertyOp23
 70
     1
102
RTVSPropertyOp24
 70
     1
102
RTVSPropertyOp25
 70
     1
102
RTVSPropertyOp26
 70
     1
102
RTVSPropertyOp27
 70
     1
102
RTVSPropertyOp28
 70
     1
102
RTVSPropertyOp29
 70
     1
102
RTVSPropertyOp30
 70
     1
102
RTVSPropertyOp31
 70
     1
102
RTVSPropertyOp32
 70
     1
102
RTVSPropertyOp33
 70
     1
102
RTVSPropertyOp34
 70
     1
102
RTVSPropertyOp35
 70
     1
102
RTVSPropertyOp36
 70
     1
102
RTVSPropertyOp37
 70
     1
102
RTVSPropertyOp38
 70
     1
102
RTVSPropertyOp39
 70
     1
102
RTVSPropertyOp40
 70
     1
102
RTVSPropertyOp41
 70
     1
102
RTVSPropertyOp42
 70
     1
102
RTVSPropertyOp43
 70
     1
102
RTVSPropertyOp44
 70
     1
102
RTVSPropertyOp45
 70
     1
102
RTVSPropertyOp46
 70
     1
102
RTVSPropertyOp47
 70
     1
102
RTVSPropertyOp48
 70
     1
102
RTVSPropertyOp49
 70
     1
102
RTVSPropertyOp50
 70
     1
102
RTVSPropertyOp51
 70
     0
102
RTVSPropertyOp52
 70
     0
102
RTVSPropertyOp53
 70
     1
102
RTVSPropertyOp54
 70
     1
102
RTVSPropertyOp55
 70
     1
102
RTVSPropertyOp56
 70
     1
102
RTVSPropertyOp57
 70
     1
102
RTVSPost2010Prop28
280
     0
102
RTVSPost2010PropOp28
 70
     1
102
RTVSPost2010Prop29
280
     1
102
RTVSPost2010PropOp29
 70
     1
102
RTVSPost2010Prop30
280
     1
102
RTVSPost2010PropOp30
 70
     1
102
RTVSPost2010Prop31
280
     0
102
RTVSPost2010PropOp31
 70
     1
102
RTVSPost2010Prop32
280
     0
102
RTVSPost2010PropOp32
 70
     1
102
RTVSPost2010Prop33
280
     0
102
RTVSPost2010PropOp33
 70
     1
102
RTVSPost2010Prop34
280
     0
102
RTVSPost2010PropOp34
 70
     1
102
RTVSPost2010Prop35
280
     0
102
RTVSPost2010PropOp35
 70
     1
102
RTVSPost2010Prop36
280
     0
102
RTVSPost2010PropOp36
 70
     1
102
RTVSPost2010Prop37
 90
       50
102
RTVSPost2010PropOp37
 70
     1
102
RTVSPost2010Prop38
140
0.0
102
RTVSPost2010PropOp38
 70
     1
102
RTVSPost2010Prop39
140
1.0
102
RTVSPost2010PropOp39
 70
     1
102
RTVSPost2010Prop40
 90
        0
102
RTVSPost2010PropOp40
 70
     1
102
RTVSPost2010Prop41ColorIndex
 90
       18
102
RTVSPost2010Prop41ColorRGB
 90
        0
102
RTVSPost2010PropOp41
 70
     1
102
RTVSPost2010Prop42
 90
       50
102
RTVSPost2010PropOp42
 70
     1
102
RTVSPost2010Prop43
 90
        3
102
RTVSPost2010PropOp43
 70
     1
102
RTVSPost2010Prop44ColorIndex
 90
        5
102
RTVSPost2010Prop44ColorRGB
 90
      255
102
RTVSPost2010PropOp44
 70
     1
102
RTVSPost2010Prop45
280
     0
102
RTVSPost2010PropOp45
 70
     1
102
RTVSPost2010Prop46
 90
       50
102
RTVSPost2010PropOp46
 70
     1
102
RTVSPost2010Prop47
 90
       50
102
RTVSPost2010PropOp47
 70
     1
102
RTVSPost2010Prop48
 90
       50
102
RTVSPost2010PropOp48
 70
     1
102
RTVSPost2010Prop49
280
     0
102
RTVSPost2010PropOp49
 70
     1
102
RTVSPost2010Prop50
 90
       50
102
RTVSPost2010PropOp50
 70
     1
102
RTVSPost2010Prop51ColorIndex
 90
      256
102
RTVSPost2010Prop51ColorRGB
 90
-16777216
102
RTVSPost2010PropOp51
 70
     0
102
RTVSPost2010Prop52
140
1.0
102
RTVSPost2010PropOp52
 70
     0
102
RTVSPost2010Prop53
 90
        2
102
RTVSPost2010PropOp53
 70
     1
102
RTVSPost2010Prop54
  1
strokes_ogs.tif
102
RTVSPost2010PropOp54
 70
     1
102
RTVSPost2010Prop55
280
     0
102
RTVSPost2010PropOp55
 70
     1
102
RTVSPost2010Prop56
140
1.0
102
RTVSPost2010PropOp56
 70
     1
102
RTVSPost2010Prop57
140
1.0
102
RTVSPost2010PropOp57
 70
     1
  0
XRECORD
  5
41C
102
{ACAD_REACTORS
330
41B
102
}
330
41B
100
AcDbXrecord
280
     1
102
RTVSPropertyOp0
 70
     1
102
RTVSPropertyOp1
 70
     1
102
RTVSPropertyOp2
 70
     1
102
RTVSPropertyOp3
 70
     1
102
RTVSPropertyOp4
 70
     1
102
RTVSPropertyOp5
 70
     1
102
RTVSPropertyOp6
 70
     1
102
RTVSPropertyOp7
 70
     1
102
RTVSPropertyOp8
 70
     1
102
RTVSPropertyOp9
 70
     1
102
RTVSPropertyOp10
 70
     1
102
RTVSPropertyOp11
 70
     1
102
RTVSPropertyOp12
 70
     1
102
RTVSPropertyOp13
 70
     1
102
RTVSPropertyOp14
 70
     1
102
RTVSPropertyOp15
 70
     1
102
RTVSPropertyOp16
 70
     1
102
RTVSPropertyOp17
 70
     1
102
RTVSPropertyOp18
 70
     1
102
RTVSPropertyOp19
 70
     1
102
RTVSPropertyOp20
 70
     1
102
RTVSPropertyOp21
 70
     1
102
RTVSPropertyOp22
 70
     1
102
RTVSPropertyOp23
 70
     1
102
RTVSPropertyOp24
 70
     1
102
RTVSPropertyOp25
 70
     1
102
RTVSPropertyOp26
 70
     1
102
RTVSPropertyOp27
 70
     1
102
RTVSPropertyOp28
 70
     1
102
RTVSPropertyOp29
 70
     1
102
RTVSPropertyOp30
 70
     1
102
RTVSPropertyOp31
 70
     1
102
RTVSPropertyOp32
 70
     1
102
RTVSPropertyOp33
 70
     1
102
RTVSPropertyOp34
 70
     1
102
RTVSPropertyOp35
 70
     1
102
RTVSPropertyOp36
 70
     1
102
RTVSPropertyOp37
 70
     1
102
RTVSPropertyOp38
 70
     1
102
RTVSPropertyOp39
 70
     1
102
RTVSPropertyOp40
 70
     1
102
RTVSPropertyOp41
 70
     1
102
RTVSPropertyOp42
 70
     1
102
RTVSPropertyOp43
 70
     1
102
RTVSPropertyOp44
 70
     1
102
RTVSPropertyOp45
 70
     1
102
RTVSPropertyOp46
 70
     1
102
RTVSPropertyOp47
 70
     1
102
RTVSPropertyOp48
 70
     1
102
RTVSPropertyOp49
 70
     1
102
RTVSPropertyOp50
 70
     1
102
RTVSPropertyOp51
 70
     0
102
RTVSPropertyOp52
 70
     0
102
RTVSPropertyOp53
 70
     1
102
RTVSPropertyOp54
 70
     1
102
RTVSPropertyOp55
 70
     1
102
RTVSPropertyOp56
 70
     1
102
RTVSPropertyOp57
 70
     1
102
RTVSPost2010Prop28
280
     0
102
RTVSPost2010PropOp28
 70
     1
102
RTVSPost2010Prop29
280
     1
102
RTVSPost2010PropOp29
 70
     1
102
RTVSPost2010Prop30
280
     1
102
RTVSPost2010PropOp30
 70
     1
102
RTVSPost2010Prop31
280
     0
102
RTVSPost2010PropOp31
 70
     1
102
RTVSPost2010Prop32
280
     0
102
RTVSPost2010PropOp32
 70
     1
102
RTVSPost2010Prop33
280
     0
102
RTVSPost2010PropOp33
 70
     1
102
RTVSPost2010Prop34
280
     0
102
RTVSPost2010PropOp34
 70
     1
102
RTVSPost2010Prop35
280
     0
102
RTVSPost2010PropOp35
 70
     1
102
RTVSPost2010Prop36
280
     0
102
RTVSPost2010PropOp36
 70
     1
102
RTVSPost2010Prop37
 90
       50
102
RTVSPost2010PropOp37
 70
     1
102
RTVSPost2010Prop38
140
0.0
102
RTVSPost2010PropOp38
 70
     1
102
RTVSPost2010Prop39
140
1.0
102
RTVSPost2010PropOp39
 70
     1
102
RTVSPost2010Prop40
 90
        0
102
RTVSPost2010PropOp40
 70
     1
102
RTVSPost2010Prop41ColorIndex
 90
       18
102
RTVSPost2010Prop41ColorRGB
 90
        0
102
RTVSPost2010PropOp41
 70
     1
102
RTVSPost2010Prop42
 90
       50
102
RTVSPost2010PropOp42
 70
     1
102
RTVSPost2010Prop43
 90
        3
102
RTVSPost2010PropOp43
 70
     1
102
RTVSPost2010Prop44ColorIndex
 90
        5
102
RTVSPost2010Prop44ColorRGB
 90
      255
102
RTVSPost2010PropOp44
 70
     1
102
RTVSPost2010Prop45
280
     0
102
RTVSPost2010PropOp45
 70
     1
102
RTVSPost2010Prop46
 90
       50
102
RTVSPost2010PropOp46
 70
     1
102
RTVSPost2010Prop47
 90
       50
102
RTVSPost2010PropOp47
 70
     1
102
RTVSPost2010Prop48
 90
       50
102
RTVSPost2010PropOp48
 70
     1
102
RTVSPost2010Prop49
280
     0
102
RTVSPost2010PropOp49
 70
     1
102
RTVSPost2010Prop50
 90
       50
102
RTVSPost2010PropOp50
 70
     1
102
RTVSPost2010Prop51ColorIndex
 90
      256
102
RTVSPost2010Prop51ColorRGB
 90
-16777216
102
RTVSPost2010PropOp51
 70
     0
102
RTVSPost2010Prop52
140
1.0
102
RTVSPost2010PropOp52
 70
     0
102
RTVSPost2010Prop53
 90
        2
102
RTVSPost2010PropOp53
 70
     1
102
RTVSPost2010Prop54
  1
strokes_ogs.tif
102
RTVSPost2010PropOp54
 70
     1
102
RTVSPost2010Prop55
280
     0
102
RTVSPost2010PropOp55
 70
     1
102
RTVSPost2010Prop56
140
1.0
102
RTVSPost2010PropOp56
 70
     1
102
RTVSPost2010Prop57
140
1.0
102
RTVSPost2010PropOp57
 70
     1
  0
ENDSEC
  0
EOF
