  0
SECTION
  2
HEADER
  9
$ACADVER
  1
AC1015
  9
$ACADMAINTVER
 70
     6
  9
$DWGCODEPAGE
  3
ANSI_932
  9
$INSBASE
 10
0.0
 20
0.0
 30
0.0
  9
$EXTMIN
 10
-2.99374708938558
 20
-146.1450983195054
 30
0.0
  9
$EXTMAX
 10
87.00625291061435
 20
-17.97317896029287
 30
0.0
  9
$LIMMIN
 10
0.0
 20
0.0
  9
$LIMMAX
 10
12.0
 20
9.0
  9
$ORTHOMODE
 70
     0
  9
$REGENMODE
 70
     1
  9
$FILLMODE
 70
     1
  9
$QTEXTMODE
 70
     0
  9
$MIRRTEXT
 70
     1
  9
$LTSCALE
 40
1.0
  9
$ATTMODE
 70
     1
  9
$TEXTSIZE
 40
0.2
  9
$TRACEWID
 40
0.05
  9
$TEXTSTYLE
  7
Standard
  9
$CLAYER
  8
0
  9
$CELTYPE
  6
ByLayer
  9
$CECOLOR
 62
   256
  9
$CELTSCALE
 40
1.0
  9
$DISPSILH
 70
     0
  9
$DIMSCALE
 40
1.0
  9
$DIMASZ
 40
0.18
  9
$DIMEXO
 40
0.0625
  9
$DIMDLI
 40
0.38
  9
$DIMRND
 40
0.0
  9
$DIMDLE
 40
0.0
  9
$DIMEXE
 40
0.18
  9
$DIMTP
 40
0.0
  9
$DIMTM
 40
0.0
  9
$DIMTXT
 40
0.18
  9
$DIMCEN
 40
0.09
  9
$DIMTSZ
 40
0.0
  9
$DIMTOL
 70
     0
  9
$DIMLIM
 70
     0
  9
$DIMTIH
 70
     1
  9
$DIMTOH
 70
     1
  9
$DIMSE1
 70
     0
  9
$DIMSE2
 70
     0
  9
$DIMTAD
 70
     0
  9
$DIMZIN
 70
     0
  9
$DIMBLK
  1

  9
$DIMASO
 70
     1
  9
$DIMSHO
 70
     1
  9
$DIMPOST
  1

  9
$DIMAPOST
  1

  9
$DIMALT
 70
     0
  9
$DIMALTD
 70
     2
  9
$DIMALTF
 40
25.4
  9
$DIMLFAC
 40
1.0
  9
$DIMTOFL
 70
     0
  9
$DIMTVP
 40
0.0
  9
$DIMTIX
 70
     0
  9
$DIMSOXD
 70
     0
  9
$DIMSAH
 70
     0
  9
$DIMBLK1
  1

  9
$DIMBLK2
  1

  9
$DIMSTYLE
  2
Standard
  9
$DIMCLRD
 70
     0
  9
$DIMCLRE
 70
     0
  9
$DIMCLRT
 70
     0
  9
$DIMTFAC
 40
1.0
  9
$DIMGAP
 40
0.09
  9
$DIMJUST
 70
     0
  9
$DIMSD1
 70
     0
  9
$DIMSD2
 70
     0
  9
$DIMTOLJ
 70
     1
  9
$DIMTZIN
 70
     0
  9
$DIMALTZ
 70
     0
  9
$DIMALTTZ
 70
     0
  9
$DIMUPT
 70
     0
  9
$DIMDEC
 70
     4
  9
$DIMTDEC
 70
     4
  9
$DIMALTU
 70
     2
  9
$DIMALTTD
 70
     2
  9
$DIMTXSTY
  7
Standard
  9
$DIMAUNIT
 70
     0
  9
$DIMADEC
 70
     0
  9
$DIMALTRND
 40
0.0
  9
$DIMAZIN
 70
     0
  9
$DIMDSEP
 70
    46
  9
$DIMATFIT
 70
     3
  9
$DIMFRAC
 70
     0
  9
$DIMLDRBLK
  1

  9
$DIMLUNIT
 70
     2
  9
$DIMLWD
 70
    -2
  9
$DIMLWE
 70
    -2
  9
$DIMTMOVE
 70
     0
  9
$LUNITS
 70
     2
  9
$LUPREC
 70
     4
  9
$SKETCHINC
 40
0.1
  9
$FILLETRAD
 40
0.5
  9
$AUNITS
 70
     0
  9
$AUPREC
 70
     0
  9
$MENU
  1
.
  9
$ELEVATION
 40
0.0
  9
$PELEVATION
 40
0.0
  9
$THICKNESS
 40
0.0
  9
$LIMCHECK
 70
     0
  9
$CHAMFERA
 40
0.0
  9
$CHAMFERB
 40
0.0
  9
$CHAMFERC
 40
0.0
  9
$CHAMFERD
 40
0.0
  9
$SKPOLY
 70
     0
  9
$TDCREATE
 40
2459969.419265637
  9
$TDUCREATE
 40
2459969.044265637
  9
$TDUPDATE
 40
2459969.419267361
  9
$TDUUPDATE
 40
2459969.044267361
  9
$TDINDWG
 40
0.0000000116
  9
$TDUSRTIMER
 40
0.0000000116
  9
$USRTIMER
 70
     1
  9
$ANGBASE
 50
0.0
  9
$ANGDIR
 70
     0
  9
$PDMODE
 70
     0
  9
$PDSIZE
 40
0.0
  9
$PLINEWID
 40
0.0
  9
$SPLFRAME
 70
     0
  9
$SPLINETYPE
 70
     6
  9
$SPLINESEGS
 70
     8
  9
$HANDSEED
  5
440
  9
$SURFTAB1
 70
     6
  9
$SURFTAB2
 70
     6
  9
$SURFTYPE
 70
     6
  9
$SURFU
 70
     6
  9
$SURFV
 70
     6
  9
$UCSBASE
  2

  9
$UCSNAME
  2

  9
$UCSORG
 10
0.0
 20
0.0
 30
0.0
  9
$UCSXDIR
 10
1.0
 20
0.0
 30
0.0
  9
$UCSYDIR
 10
0.0
 20
1.0
 30
0.0
  9
$UCSORTHOREF
  2

  9
$UCSORTHOVIEW
 70
     0
  9
$UCSORGTOP
 10
0.0
 20
0.0
 30
0.0
  9
$UCSORGBOTTOM
 10
0.0
 20
0.0
 30
0.0
  9
$UCSORGLEFT
 10
0.0
 20
0.0
 30
0.0
  9
$UCSORGRIGHT
 10
0.0
 20
0.0
 30
0.0
  9
$UCSORGFRONT
 10
0.0
 20
0.0
 30
0.0
  9
$UCSORGBACK
 10
0.0
 20
0.0
 30
0.0
  9
$PUCSBASE
  2

  9
$PUCSNAME
  2

  9
$PUCSORG
 10
0.0
 20
0.0
 30
0.0
  9
$PUCSXDIR
 10
1.0
 20
0.0
 30
0.0
  9
$PUCSYDIR
 10
0.0
 20
1.0
 30
0.0
  9
$PUCSORTHOREF
  2

  9
$PUCSORTHOVIEW
 70
     0
  9
$PUCSORGTOP
 10
0.0
 20
0.0
 30
0.0
  9
$PUCSORGBOTTOM
 10
0.0
 20
0.0
 30
0.0
  9
$PUCSORGLEFT
 10
0.0
 20
0.0
 30
0.0
  9
$PUCSORGRIGHT
 10
0.0
 20
0.0
 30
0.0
  9
$PUCSORGFRONT
 10
0.0
 20
0.0
 30
0.0
  9
$PUCSORGBACK
 10
0.0
 20
0.0
 30
0.0
  9
$USERI1
 70
     0
  9
$USERI2
 70
     0
  9
$USERI3
 70
     0
  9
$USERI4
 70
     0
  9
$USERI5
 70
     0
  9
$USERR1
 40
20.0
  9
$USERR2
 40
0.0
  9
$USERR3
 40
0.0
  9
$USERR4
 40
0.0
  9
$USERR5
 40
0.0
  9
$WORLDVIEW
 70
     1
  9
$SHADEDGE
 70
     3
  9
$SHADEDIF
 70
    70
  9
$TILEMODE
 70
     1
  9
$MAXACTVP
 70
    64
  9
$PINSBASE
 10
0.0
 20
0.0
 30
0.0
  9
$PLIMCHECK
 70
     0
  9
$PEXTMIN
 10
1.00000000000000E+20
 20
1.00000000000000E+20
 30
1.00000000000000E+20
  9
$PEXTMAX
 10
-1.00000000000000E+20
 20
-1.00000000000000E+20
 30
-1.00000000000000E+20
  9
$PLIMMIN
 10
0.0
 20
0.0
  9
$PLIMMAX
 10
12.0
 20
9.0
  9
$UNITMODE
 70
     0
  9
$VISRETAIN
 70
     1
  9
$PLINEGEN
 70
     0
  9
$PSLTSCALE
 70
     1
  9
$TREEDEPTH
 70
  3020
  9
$CMLSTYLE
  2
Standard
  9
$CMLJUST
 70
     0
  9
$CMLSCALE
 40
1.0
  9
$PROXYGRAPHICS
 70
     1
  9
$MEASUREMENT
 70
     1
  9
$CELWEIGHT
370
    -1
  9
$ENDCAPS
280
     0
  9
$JOINSTYLE
280
     0
  9
$LWDISPLAY
290
     0
  9
$INSUNITS
 70
     4
  9
$HYPERLINKBASE
  1

  9
$STYLESHEET
  1

  9
$XEDIT
290
     1
  9
$CEPSNTYPE
380
     0
  9
$PSTYLEMODE
290
     1
  9
$FINGERPRINTGUID
  2
{8774E5DD-58B8-451E-80BD-AB6EA1B7082B}
  9
$VERSIONGUID
  2
{FAEB1C32-E019-11D5-929B-00C0DF256EC4}
  9
$EXTNAMES
290
     1
  9
$PSVPSCALE
 40
0.0
  9
$OLESTARTUP
290
     0
  0
ENDSEC
  0
SECTION
  2
CLASSES
  0
CLASS
  1
ACDBDICTIONARYWDFLT
  2
AcDbDictionaryWithDefault
  3
ObjectDBX Classes
 90
        0
280
     0
281
     0
  0
CLASS
  1
VISUALSTYLE
  2
AcDbVisualStyle
  3
ObjectDBX Classes
 90
     4095
280
     0
281
     0
  0
CLASS
  1
MATERIAL
  2
AcDbMaterial
  3
ObjectDBX Classes
 90
     1153
280
     0
281
     0
  0
CLASS
  1
SCALE
  2
AcDbScale
  3
ObjectDBX Classes
 90
     1153
280
     0
281
     0
  0
CLASS
  1
TABLESTYLE
  2
AcDbTableStyle
  3
ObjectDBX Classes
 90
     4095
280
     0
281
     0
  0
CLASS
  1
MLEADERSTYLE
  2
AcDbMLeaderStyle
  3
ACDB_MLEADERSTYLE_CLASS
 90
     4095
280
     0
281
     0
  0
CLASS
  1
SUN
  2
AcDbSun
  3
SCENEOE
 90
     1153
280
     0
281
     0
  0
CLASS
  1
DICTIONARYVAR
  2
AcDbDictionaryVar
  3
ObjectDBX Classes
 90
        0
280
     0
281
     0
  0
CLASS
  1
ACDBPLACEHOLDER
  2
AcDbPlaceHolder
  3
ObjectDBX Classes
 90
        0
280
     0
281
     0
  0
CLASS
  1
LAYOUT
  2
AcDbLayout
  3
ObjectDBX Classes
 90
        0
280
     0
281
     0
  0
ENDSEC
  0
SECTION
  2
TABLES
  0
TABLE
  2
VPORT
  5
8
102
{ACAD_XDICTIONARY
360
403
102
}
330
0
100
AcDbSymbolTable
 70
     1
  0
VPORT
  5
29
330
8
100
AcDbSymbolTableRecord
100
AcDbViewportTableRecord
  2
*Active
 70
     0
 10
0.0
 20
0.0
 11
1.0
 21
1.0
 12
42.00625291061439
 22
-82.05913863989913
 13
0.0
 23
0.0
 14
0.5
 24
0.5
 15
0.5
 25
0.5
 16
0.0
 26
0.0
 36
1.0
 17
0.0
 27
0.0
 37
0.0
 40
140.9891112951338
 41
1.60267857142857
 42
50.0
 43
0.0
 44
0.0
 50
0.0
 51
0.0
 71
     0
 72
   100
 73
     1
 74
     3
 75
     0
 76
     0
 77
     0
 78
     0
281
     0
 65
     1
110
0.0
120
0.0
130
0.0
111
1.0
121
0.0
131
0.0
112
0.0
122
1.0
132
0.0
 79
     0
146
0.0
  0
ENDTAB
  0
TABLE
  2
LTYPE
  5
5
330
0
100
AcDbSymbolTable
 70
     8
  0
LTYPE
  5
14
330
5
100
AcDbSymbolTableRecord
100
AcDbLinetypeTableRecord
  2
ByBlock
 70
     0
  3

 72
    65
 73
     0
 40
0.0
  0
LTYPE
  5
15
330
5
100
AcDbSymbolTableRecord
100
AcDbLinetypeTableRecord
  2
ByLayer
 70
     0
  3

 72
    65
 73
     0
 40
0.0
  0
LTYPE
  5
16
330
5
100
AcDbSymbolTableRecord
100
AcDbLinetypeTableRecord
  2
Continuous
 70
     0
  3
Solid line
 72
    65
 73
     0
 40
0.0
  0
LTYPE
  5
6E
330
5
100
AcDbSymbolTableRecord
100
AcDbLinetypeTableRecord
  2
DASHED
 70
     0
  3
Dashed
 72
    65
 73
     2
 40
15.0
 49
7.0
 74
     0
 49
-8.0
 74
     0
  0
LTYPE
  5
6F
330
5
100
AcDbSymbolTableRecord
100
AcDbLinetypeTableRecord
  2
DOTTED
 70
     0
  3
Dotted
 72
    65
 73
     2
 40
1.0
 49
0.0
 74
     0
 49
-1.0
 74
     0
  0
LTYPE
  5
70
330
5
100
AcDbSymbolTableRecord
100
AcDbLinetypeTableRecord
  2
DOT_CENTER
 70
     0
  3
Dot_Center
 72
    65
 73
     4
 40
14.0
 49
12.0
 74
     0
 49
-1.0
 74
     0
 49
0.0
 74
     0
 49
-1.0
 74
     0
  0
LTYPE
  5
71
330
5
100
AcDbSymbolTableRecord
100
AcDbLinetypeTableRecord
  2
LONG_DASHED
 70
     0
  3
Long_Dashed
 72
    65
 73
     2
 40
15.0
 49
10.0
 74
     0
 49
-5.0
 74
     0
  0
LTYPE
  5
72
330
5
100
AcDbSymbolTableRecord
100
AcDbLinetypeTableRecord
  2
DASH_CENTER
 70
     0
  3
Dash_Center
 72
    65
 73
     4
 40
14.0
 49
11.0
 74
     0
 49
-1.0
 74
     0
 49
1.0
 74
     0
 49
-1.0
 74
     0
  0
LTYPE
  5
73
330
5
100
AcDbSymbolTableRecord
100
AcDbLinetypeTableRecord
  2
PHANTOM
 70
     0
  3
Phantom
 72
    65
 73
     6
 40
13.0
 49
10.0
 74
     0
 49
-1.0
 74
     0
 49
0.0
 74
     0
 49
-1.0
 74
     0
 49
0.0
 74
     0
 49
-1.0
 74
     0
  0
LTYPE
  5
74
330
5
100
AcDbSymbolTableRecord
100
AcDbLinetypeTableRecord
  2
CENTER_DASH_DASH
 70
     0
  3
Center_Dash_Dash
 72
    65
 73
     6
 40
14.0
 49
9.0
 74
     0
 49
-1.0
 74
     0
 49
1.0
 74
     0
 49
-1.0
 74
     0
 49
1.0
 74
     0
 49
-1.0
 74
     0
  0
ENDTAB
  0
TABLE
  2
LAYER
  5
2
330
0
100
AcDbSymbolTable
 70
     2
  0
LAYER
  5
10
330
2
100
AcDbSymbolTableRecord
100
AcDbLayerTableRecord
  2
0
 70
     0
 62
     7
  6
Continuous
370
    -3
390
F
  0
LAYER
  5
75
330
2
100
AcDbSymbolTableRecord
100
AcDbLayerTableRecord
  2
1
 70
     0
 62
     7
  6
Continuous
370
    -3
390
F
  0
ENDTAB
  0
TABLE
  2
STYLE
  5
3
330
0
100
AcDbSymbolTable
 70
     8
  0
STYLE
  5
11
330
3
100
AcDbSymbolTableRecord
100
AcDbTextStyleTableRecord
  2
Standard
 70
     0
 40
0.0
 41
1.0
 50
0.0
 71
     0
 42
0.2
  3
txt
  4

  0
STYLE
  5
7E
330
3
100
AcDbSymbolTableRecord
100
AcDbTextStyleTableRecord
  2
CONVERTER_11
 70
     0
 40
0.0
 41
0.9
 50
10.0
 71
     0
 42
0.2
  3
txt.shx
  4

  0
STYLE
  5
80
330
3
100
AcDbSymbolTableRecord
100
AcDbTextStyleTableRecord
  2
CONVERTER_12
 70
     0
 40
0.0
 41
0.89
 50
10.0
 71
     0
 42
0.2
  3
MS Mincho.ttf
  4

1001
ACAD
1000
MS Mincho
1071
    32785
  0
STYLE
  5
82
330
3
100
AcDbSymbolTableRecord
100
AcDbTextStyleTableRecord
  2
CONVERTER_13
 70
     0
 40
0.0
 41
0.73125
 50
10.0
 71
     0
 42
0.2
  3
txt.shx
  4

  0
STYLE
  5
86
330
3
100
AcDbSymbolTableRecord
100
AcDbTextStyleTableRecord
  2
CONVERTER_14
 70
     0
 40
0.0
 41
0.84825
 50
10.0
 71
     0
 42
0.2
  3
txt.shx
  4

  0
STYLE
  5
139
330
3
100
AcDbSymbolTableRecord
100
AcDbTextStyleTableRecord
  2
CONVERTER_15
 70
     0
 40
0.0
 41
0.9
 50
0.0
 71
     0
 42
0.2
  3
txt.shx
  4

  0
STYLE
  5
159
330
3
100
AcDbSymbolTableRecord
100
AcDbTextStyleTableRecord
  2
CONVERTER_16
 70
     0
 40
0.0
 41
0.89
 50
0.0
 71
     0
 42
0.2
  3
msmincho.ttc
  4

1001
ACAD
1000
MS Mincho
1071
    32785
  0
STYLE
  5
16F
330
3
100
AcDbSymbolTableRecord
100
AcDbTextStyleTableRecord
  2
CONVERTER_17
 70
     0
 40
0.0
 41
0.95
 50
10.0
 71
     0
 42
0.2
  3
complex.shx
  4

  0
ENDTAB
  0
TABLE
  2
VIEW
  5
6
330
0
100
AcDbSymbolTable
 70
     0
  0
ENDTAB
  0
TABLE
  2
UCS
  5
7
330
0
100
AcDbSymbolTable
 70
     0
  0
ENDTAB
  0
TABLE
  2
APPID
  5
9
330
0
100
AcDbSymbolTable
 70
     2
  0
APPID
  5
12
330
9
100
AcDbSymbolTableRecord
100
AcDbRegAppTableRecord
  2
ACAD
 70
     0
  0
APPID
  5
43D
330
9
100
AcDbSymbolTableRecord
100
AcDbRegAppTableRecord
  2
ACAD_MLEADERVER
 70
     0
  0
ENDTAB
  0
TABLE
  2
DIMSTYLE
  5
A
330
0
100
AcDbSymbolTable
 70
    15
100
AcDbDimStyleTable
  0
DIMSTYLE
105
27
330
A
100
AcDbSymbolTableRecord
100
AcDbDimStyleTableRecord
  2
Standard
 70
     0
178
     0
340
11
  0
DIMSTYLE
105
324
102
{ACAD_REACTORS
330
325
102
}
330
A
100
AcDbSymbolTableRecord
100
AcDbDimStyleTableRecord
  2
ME10_DIM_10
 70
     0
 41
0.875
 42
0.0
 44
0.5
 47
0.3
 71
     1
 73
     0
 74
     0
 77
     1
 78
     8
140
1.25
146
0.7
147
0.5
172
     1
173
     1
174
     1
175
     1
176
     2
177
     2
271
     3
178
     3
271
     3
272
     1
340
7E
343
31E
344
31E
  0
DIMSTYLE
105
331
102
{ACAD_REACTORS
330
332
102
}
330
A
100
AcDbSymbolTableRecord
100
AcDbDimStyleTableRecord
  2
ME10_DIM_11
 70
     0
  3
(<>)
 41
0.875
 42
0.5
 44
0.5
 73
     0
 74
     0
 77
     1
 78
     8
140
1.25
147
0.5
172
     1
173
     1
174
     1
175
     1
176
     2
177
     2
271
     3
178
     3
271
     3
340
7E
343
31E
344
31E
  0
DIMSTYLE
105
33E
102
{ACAD_REACTORS
330
33F
102
}
330
A
100
AcDbSymbolTableRecord
100
AcDbDimStyleTableRecord
  2
ME10_DIM_12
 70
     0
 41
0.875
 42
0.0
 44
0.5
 73
     0
 74
     0
 77
     1
 78
     8
140
1.25
147
0.5
172
     1
173
     1
174
     1
175
     1
176
     2
177
     2
271
     3
178
     3
271
     3
340
7E
343
31E
344
31E
  0
DIMSTYLE
105
34B
102
{ACAD_REACTORS
330
34C
102
}
330
A
100
AcDbSymbolTableRecord
100
AcDbDimStyleTableRecord
  2
ME10_DIM_13
 70
     0
 41
0.875
 42
0.5
 44
0.5
 73
     0
 74
     0
 77
     1
 78
     8
140
1.25
147
0.5
172
     1
173
     1
174
     1
175
     1
176
     2
177
     2
271
     3
178
     3
271
     3
340
7E
343
31E
344
31E
  0
DIMSTYLE
105
358
102
{ACAD_REACTORS
330
359
102
}
330
A
100
AcDbSymbolTableRecord
100
AcDbDimStyleTableRecord
  2
ME10_DIM_14
 70
     0
 41
0.875
 42
0.5
 44
0.5
 73
     0
 74
     0
 77
     1
 78
     8
140
1.25
147
0.5
172
     1
173
     1
174
     1
175
     1
176
     2
177
     2
271
     3
178
     3
271
     3
340
7E
343
31E
344
31E
  0
DIMSTYLE
105
367
102
{ACAD_REACTORS
330
368
102
}
330
A
100
AcDbSymbolTableRecord
100
AcDbDimStyleTableRecord
  2
ME10_DIM_15
 70
     0
 41
0.875
 42
0.5
 44
0.5
 73
     0
 74
     0
 77
     1
 78
     8
140
1.25
147
0.5
172
     1
173
     1
174
     1
175
     1
176
     2
177
     2
271
     3
178
     3
271
     3
340
7E
343
31E
344
31E
  0
DIMSTYLE
105
374
102
{ACAD_REACTORS
330
375
102
}
330
A
100
AcDbSymbolTableRecord
100
AcDbDimStyleTableRecord
  2
ME10_DIM_16
 70
     0
  3
(HEX)
 41
0.875
 42
0.5
 44
0.5
 73
     0
 74
     0
 77
     1
 78
     8
140
1.25
147
0.5
172
     1
173
     1
174
     1
175
     1
176
     2
177
     2
271
     3
178
     3
271
     3
340
7E
343
31E
344
31E
  0
DIMSTYLE
105
383
102
{ACAD_REACTORS
330
384
102
}
330
A
100
AcDbSymbolTableRecord
100
AcDbDimStyleTableRecord
  2
ME10_DIM_17
 70
     0
 41
0.875
 42
0.5
 44
0.5
 73
     0
 74
     0
 77
     1
 78
     8
140
1.25
147
0.5
172
     1
173
     1
174
     1
175
     1
176
     2
177
     2
271
     3
178
     3
271
     3
340
7E
343
31E
344
31E
  0
DIMSTYLE
105
390
102
{ACAD_REACTORS
330
391
102
}
330
A
100
AcDbSymbolTableRecord
100
AcDbDimStyleTableRecord
  2
ME10_DIM_18
 70
     0
  3
(<>)
 41
0.875
 42
0.5
 44
0.5
 73
     0
 74
     0
 77
     1
 78
     8
140
1.25
147
0.5
172
     1
173
     1
174
     1
175
     1
176
     2
177
     2
271
     3
178
     3
271
     3
340
7E
343
31E
344
31E
  0
DIMSTYLE
105
39D
102
{ACAD_REACTORS
330
39E
102
}
330
A
100
AcDbSymbolTableRecord
100
AcDbDimStyleTableRecord
  2
ME10_DIM_19
 70
     0
  3
{\Fgdt;n}<>
 41
0.875
 42
0.5
 44
0.5
 73
     0
 74
     0
 77
     1
 78
     8
140
1.25
147
0.5
172
     1
173
     1
174
     1
175
     1
176
     2
177
     2
271
     3
178
     3
271
     3
340
7E
343
31E
344
31E
  0
DIMSTYLE
105
3AA
102
{ACAD_REACTORS
330
3AB
102
}
330
A
100
AcDbSymbolTableRecord
100
AcDbDimStyleTableRecord
  2
ME10_DIM_20
 70
     0
  3
(Hｶｯﾄ)
 41
0.875
 42
0.5
 44
0.5
 73
     0
 74
     0
 77
     1
 78
     8
140
1.25
147
0.5
172
     1
173
     1
174
     1
175
     1
176
     2
177
     2
271
     3
178
     3
271
     3
340
7E
343
31E
344
31E
  0
DIMSTYLE
105
3CD
102
{ACAD_REACTORS
330
3CE
102
}
330
A
100
AcDbSymbolTableRecord
100
AcDbDimStyleTableRecord
  2
ME10_DIM_21
 70
     0
  3
(<>)
 41
0.875
 42
0.5
 44
0.5
 73
     0
 74
     0
 77
     1
 78
     8
140
1.25
147
0.5
172
     1
173
     1
174
     1
175
     1
176
     2
177
     2
271
     3
178
     3
271
     3
340
7E
343
31E
344
31E
  0
DIMSTYLE
105
3DC
102
{ACAD_REACTORS
330
3DD
102
}
330
A
100
AcDbSymbolTableRecord
100
AcDbDimStyleTableRecord
  2
ME10_DIM_22
 70
     0
 41
0.875
 42
0.0
 44
0.5
 73
     0
 74
     0
 77
     1
 78
     8
140
1.25
147
0.5
172
     1
173
     1
174
     1
175
     1
176
     2
177
     2
271
     3
178
     3
271
     3
340
7E
343
31E
344
31E
  0
DIMSTYLE
105
3E9
102
{ACAD_REACTORS
330
3EA
102
}
330
A
100
AcDbSymbolTableRecord
100
AcDbDimStyleTableRecord
  2
ME10_DIM_23
 70
     0
 41
0.875
 42
0.5
 44
0.5
 73
     0
 74
     0
 77
     1
 78
     8
140
1.25
147
0.5
172
     1
173
     1
174
     1
175
     1
176
     2
177
     2
271
     3
178
     3
271
     3
340
7E
343
31E
344
31E
  0
ENDTAB
  0
TABLE
  2
BLOCK_RECORD
  5
1
330
0
100
AcDbSymbolTable
 70
    22
  0
BLOCK_RECORD
  5
1F
330
1
100
AcDbSymbolTableRecord
100
AcDbBlockTableRecord
  2
*Model_Space
340
22
  0
BLOCK_RECORD
  5
1B
330
1
100
AcDbSymbolTableRecord
100
AcDbBlockTableRecord
  2
*Paper_Space
340
1E
  0
BLOCK_RECORD
  5
23
330
1
100
AcDbSymbolTableRecord
100
AcDbBlockTableRecord
  2
*Paper_Space0
340
26
  0
BLOCK_RECORD
  5
76
330
1
100
AcDbSymbolTableRecord
100
AcDbBlockTableRecord
  2
P_TEXT
340
0
102
{BLKREFS
331
7A
102
}
  0
BLOCK_RECORD
  5
79
330
1
100
AcDbSymbolTableRecord
100
AcDbBlockTableRecord
  2
FRAME
340
0
102
{BLKREFS
331
7D
102
}
  0
BLOCK_RECORD
  5
313
330
1
100
AcDbSymbolTableRecord
100
AcDbBlockTableRecord
  2
*D3
340
0
  0
BLOCK_RECORD
  5
31E
330
1
100
AcDbSymbolTableRecord
100
AcDbBlockTableRecord
  2
_OPEN30
340
0
  0
BLOCK_RECORD
  5
326
330
1
100
AcDbSymbolTableRecord
100
AcDbBlockTableRecord
  2
*D5
340
0
  0
BLOCK_RECORD
  5
333
330
1
100
AcDbSymbolTableRecord
100
AcDbBlockTableRecord
  2
*D6
340
0
  0
BLOCK_RECORD
  5
340
330
1
100
AcDbSymbolTableRecord
100
AcDbBlockTableRecord
  2
*D7
340
0
  0
BLOCK_RECORD
  5
34D
330
1
100
AcDbSymbolTableRecord
100
AcDbBlockTableRecord
  2
*D8
340
0
  0
BLOCK_RECORD
  5
35A
330
1
100
AcDbSymbolTableRecord
100
AcDbBlockTableRecord
  2
*D9
340
0
  0
BLOCK_RECORD
  5
369
330
1
100
AcDbSymbolTableRecord
100
AcDbBlockTableRecord
  2
*D10
340
0
  0
BLOCK_RECORD
  5
376
330
1
100
AcDbSymbolTableRecord
100
AcDbBlockTableRecord
  2
*D11
340
0
  0
BLOCK_RECORD
  5
385
330
1
100
AcDbSymbolTableRecord
100
AcDbBlockTableRecord
  2
*D12
340
0
  0
BLOCK_RECORD
  5
392
330
1
100
AcDbSymbolTableRecord
100
AcDbBlockTableRecord
  2
*D13
340
0
  0
BLOCK_RECORD
  5
39F
330
1
100
AcDbSymbolTableRecord
100
AcDbBlockTableRecord
  2
*D14
340
0
  0
BLOCK_RECORD
  5
3AC
330
1
100
AcDbSymbolTableRecord
100
AcDbBlockTableRecord
  2
*D15
340
0
102
{BLKREFS
331
3B6
102
}
  0
BLOCK_RECORD
  5
3B7
330
1
100
AcDbSymbolTableRecord
100
AcDbBlockTableRecord
  2
*D16
340
0
102
{BLKREFS
331
3C1
102
}
  0
BLOCK_RECORD
  5
3C2
330
1
100
AcDbSymbolTableRecord
100
AcDbBlockTableRecord
  2
*D17
340
0
  0
BLOCK_RECORD
  5
3CF
330
1
100
AcDbSymbolTableRecord
100
AcDbBlockTableRecord
  2
*D18
340
0
  0
BLOCK_RECORD
  5
3DE
330
1
100
AcDbSymbolTableRecord
100
AcDbBlockTableRecord
  2
*D19
340
0
  0
BLOCK_RECORD
  5
3EB
330
1
100
AcDbSymbolTableRecord
100
AcDbBlockTableRecord
  2
*D20
340
0
102
{BLKREFS
331
3F3
102
}
  0
BLOCK_RECORD
  5
3F4
330
1
100
AcDbSymbolTableRecord
100
AcDbBlockTableRecord
  2
*D21
340
0
102
{BLKREFS
331
3FB
102
}
  0
ENDTAB
  0
ENDSEC
  0
SECTION
  2
BLOCKS
  0
BLOCK
  5
20
330
1F
100
AcDbEntity
  8
0
100
AcDbBlockBegin
  2
*Model_Space
 70
     0
 10
0.0
 20
0.0
 30
0.0
  3
*Model_Space
  1

  0
ENDBLK
  5
21
330
1F
100
AcDbEntity
  8
0
100
AcDbBlockEnd
  0
BLOCK
  5
1C
330
1B
100
AcDbEntity
 67
     1
  8
0
100
AcDbBlockBegin
  2
*Paper_Space
 70
     0
 10
0.0
 20
0.0
 30
0.0
  3
*Paper_Space
  1

  0
ENDBLK
  5
1D
330
1B
100
AcDbEntity
 67
     1
  8
0
100
AcDbBlockEnd
  0
BLOCK
  5
24
330
23
100
AcDbEntity
  8
0
100
AcDbBlockBegin
  2
*Paper_Space0
 70
     0
 10
0.0
 20
0.0
 30
0.0
  3
*Paper_Space0
  1

  0
ENDBLK
  5
25
330
23
100
AcDbEntity
  8
0
100
AcDbBlockEnd
  0
BLOCK
  5
77
330
76
100
AcDbEntity
  8
0
100
AcDbBlockBegin
  2
P_TEXT
 70
     0
 10
174.0125058212287
 20
-287.0401966390108
 30
0.0
  3
P_TEXT
  1

  0
MTEXT
  5
7F
330
76
100
AcDbEntity
  8
1
 62
     3
100
AcDbMText
 10
108.5125058212287
 20
-274.0401966390108
 30
0.0
 40
3.0
 41
0.0
 71
     5
 72
     1
  1
2
  7
CONVERTER_11
 73
     1
 44
1.0
  0
MTEXT
  5
81
330
76
100
AcDbEntity
  8
1
 62
     3
100
AcDbMText
 10
89.41250582122873
 20
-280.5401966390108
 30
0.0
 40
3.0
 41
0.0
 71
     5
 72
     1
  1
桶田
  7
CONVERTER_12
 73
     1
 44
1.0
  0
MTEXT
  5
83
330
76
100
AcDbEntity
  8
1
 62
     3
100
AcDbMText
 10
89.41250582122873
 20
-285.5401966390108
 30
0.0
 40
2.0
 41
0.0
 71
     5
 72
     1
  1
23/01/24
  7
CONVERTER_13
 73
     1
 44
1.0
  0
MTEXT
  5
84
330
76
100
AcDbEntity
  8
1
 62
     3
100
AcDbMText
 10
63.41250582122873
 20
-285.5401966390108
 30
0.0
 40
2.0
 41
0.0
 71
     5
 72
     1
  1
23/01/24
  7
CONVERTER_13
 73
     1
 44
1.0
  0
MTEXT
  5
85
330
76
100
AcDbEntity
  8
1
 62
     3
100
AcDbMText
 10
63.41250582122873
 20
-280.5401966390108
 30
0.0
 40
3.0
 41
0.0
 71
     5
 72
     1
  1
近藤
  7
CONVERTER_12
 73
     1
 44
1.0
  0
MTEXT
  5
87
330
76
100
AcDbEntity
  8
1
 62
     3
100
AcDbMText
 10
130.2125058212287
 20
-282.0401966390108
 30
0.0
 40
4.0
 41
0.0
 71
     5
 72
     1
  1
QC02066010
  7
CONVERTER_14
 73
     1
 44
1.0
  0
MTEXT
  5
88
330
76
100
AcDbEntity
  8
1
 62
     3
100
AcDbMText
 10
138.7125058212287
 20
-271.0401966390108
 30
0.0
 40
5.0
 41
0.0
 71
     5
 72
     1
  1
BNC066(R0)(外観図)
  7
CONVERTER_12
 73
     1
 44
1.0
  0
MTEXT
  5
89
330
76
100
AcDbEntity
  8
1
 62
     3
100
AcDbMText
 10
37.41250582122873
 20
-280.5401966390108
 30
0.0
 40
3.0
 41
0.0
 71
     5
 72
     1
  1
森高
  7
CONVERTER_12
 73
     1
 44
1.0
  0
MTEXT
  5
8A
330
76
100
AcDbEntity
  8
1
 62
     3
100
AcDbMText
 10
11.51250582122873
 20
-280.5401966390108
 30
0.0
 40
3.0
 41
0.0
 71
     5
 72
     1
  1
川田
  7
CONVERTER_12
 73
     1
 44
1.0
  0
MTEXT
  5
8B
330
76
100
AcDbEntity
  8
1
 62
     3
100
AcDbMText
 10
11.51250582122873
 20
-285.5401966390108
 30
0.0
 40
2.0
 41
0.0
 71
     5
 72
     1
  1
85/01/14
  7
CONVERTER_13
 73
     1
 44
1.0
  0
MTEXT
  5
8C
330
76
100
AcDbEntity
  8
1
 62
     3
100
AcDbMText
 10
37.41250582122873
 20
-285.5401966390108
 30
0.0
 40
2.0
 41
0.0
 71
     5
 72
     1
  1
23/01/23
  7
CONVERTER_13
 73
     1
 44
1.0
  0
MTEXT
  5
8D
330
76
100
AcDbEntity
  8
1
 62
     3
100
AcDbMText
 10
82.51250582122873
 20
-274.0401966390108
 30
0.0
 40
3.0
 41
0.0
 71
     5
 72
     1
  1
2
  7
CONVERTER_11
 73
     1
 44
1.0
  0
MTEXT
  5
8E
330
76
100
AcDbEntity
  8
1
 62
     3
100
AcDbMText
 10
95.31250582122873
 20
-274.0401966390108
 30
0.0
 40
3.0
 41
0.0
 71
     5
 72
     1
  1
1
  7
CONVERTER_11
 73
     1
 44
1.0
  0
ENDBLK
  5
78
330
76
100
AcDbEntity
  8
0
100
AcDbBlockEnd
  0
BLOCK
  5
7B
330
79
100
AcDbEntity
  8
0
100
AcDbBlockBegin
  2
FRAME
 70
     0
 10
174.0125058212287
 20
-287.0401966390108
 30
0.0
  3
FRAME
  1

  0
INSERT
  5
7A
330
79
100
AcDbEntity
  8
1
100
AcDbBlockReference
  2
P_TEXT
 10
174.0125058212287
 20
-287.0401966390108
 30
0.0
  0
LINE
  5
8F
330
79
100
AcDbEntity
  8
1
  6
Continuous
 62
     2
100
AcDbLine
 10
152.0125058212288
 20
-239.9463579205859
 30
0.0
 11
174.0125058212287
 21
-239.9463579205859
 31
0.0
  0
LINE
  5
90
330
79
100
AcDbEntity
  8
1
  6
Continuous
 62
     2
100
AcDbLine
 10
144.0125058212288
 20
-239.9463579205859
 30
0.0
 11
152.0125058212288
 21
-239.9463579205859
 31
0.0
  0
LINE
  5
91
330
79
100
AcDbEntity
  8
1
  6
Continuous
 62
     2
100
AcDbLine
 10
132.0125058212288
 20
-239.9463579205859
 30
0.0
 11
144.0125058212288
 21
-239.9463579205859
 31
0.0
  0
LINE
  5
92
330
79
100
AcDbEntity
  8
1
  6
Continuous
 62
     2
100
AcDbLine
 10
104.0125058212288
 20
-239.9463579205859
 30
0.0
 11
132.0125058212288
 21
-239.9463579205859
 31
0.0
  0
LINE
  5
93
330
79
100
AcDbEntity
  8
1
  6
Continuous
 62
     2
100
AcDbLine
 10
74.01250582122884
 20
-239.9463579205859
 30
0.0
 11
104.0125058212288
 21
-239.9463579205859
 31
0.0
  0
LINE
  5
94
330
79
100
AcDbEntity
  8
1
  6
Continuous
 62
     2
100
AcDbLine
 10
66.01250582122884
 20
-239.9463579205859
 30
0.0
 11
74.01250582122884
 21
-239.9463579205859
 31
0.0
  0
LINE
  5
95
330
79
100
AcDbEntity
  8
1
  6
Continuous
 62
     2
100
AcDbLine
 10
66.01250582122884
 20
-244.9463579205859
 30
0.0
 11
74.01250582122884
 21
-244.9463579205859
 31
0.0
  0
LINE
  5
96
330
79
100
AcDbEntity
  8
1
  6
Continuous
 62
     2
100
AcDbLine
 10
74.01250582122884
 20
-244.9463579205859
 30
0.0
 11
104.0125058212288
 21
-244.9463579205859
 31
0.0
  0
LINE
  5
97
330
79
100
AcDbEntity
  8
1
  6
Continuous
 62
     2
100
AcDbLine
 10
104.0125058212288
 20
-244.9463579205859
 30
0.0
 11
132.0125058212288
 21
-244.9463579205859
 31
0.0
  0
LINE
  5
98
330
79
100
AcDbEntity
  8
1
  6
Continuous
 62
     2
100
AcDbLine
 10
132.0125058212288
 20
-244.9463579205859
 30
0.0
 11
144.0125058212288
 21
-244.9463579205859
 31
0.0
  0
LINE
  5
99
330
79
100
AcDbEntity
  8
1
  6
Continuous
 62
     2
100
AcDbLine
 10
144.0125058212288
 20
-244.9463579205859
 30
0.0
 11
152.0125058212288
 21
-244.9463579205859
 31
0.0
  0
LINE
  5
9A
330
79
100
AcDbEntity
  8
1
  6
Continuous
 62
     2
100
AcDbLine
 10
152.0125058212288
 20
-244.9463579205859
 30
0.0
 11
174.0125058212287
 21
-244.9463579205859
 31
0.0
  0
LINE
  5
9B
330
79
100
AcDbEntity
  8
1
  6
Continuous
 62
     2
100
AcDbLine
 10
152.0125058212288
 20
-249.9463579205859
 30
0.0
 11
174.0125058212287
 21
-249.9463579205859
 31
0.0
  0
LINE
  5
9C
330
79
100
AcDbEntity
  8
1
  6
Continuous
 62
     2
100
AcDbLine
 10
144.0125058212288
 20
-249.9463579205859
 30
0.0
 11
152.0125058212288
 21
-249.9463579205859
 31
0.0
  0
LINE
  5
9D
330
79
100
AcDbEntity
  8
1
  6
Continuous
 62
     2
100
AcDbLine
 10
132.0125058212288
 20
-249.9463579205859
 30
0.0
 11
144.0125058212288
 21
-249.9463579205859
 31
0.0
  0
LINE
  5
9E
330
79
100
AcDbEntity
  8
1
  6
Continuous
 62
     2
100
AcDbLine
 10
104.0125058212288
 20
-249.9463579205859
 30
0.0
 11
132.0125058212288
 21
-249.9463579205859
 31
0.0
  0
LINE
  5
9F
330
79
100
AcDbEntity
  8
1
  6
Continuous
 62
     2
100
AcDbLine
 10
74.01250582122884
 20
-249.9463579205859
 30
0.0
 11
104.0125058212288
 21
-249.9463579205859
 31
0.0
  0
LINE
  5
A0
330
79
100
AcDbEntity
  8
1
  6
Continuous
 62
     2
100
AcDbLine
 10
66.01250582122884
 20
-249.9463579205859
 30
0.0
 11
74.01250582122884
 21
-249.9463579205859
 31
0.0
  0
LINE
  5
A1
330
79
100
AcDbEntity
  8
1
  6
Continuous
 62
     2
100
AcDbLine
 10
152.0125058212288
 20
-254.9463579205859
 30
0.0
 11
152.0125058212288
 21
-234.9463579205859
 31
0.0
  0
LINE
  5
A2
330
79
100
AcDbEntity
  8
1
  6
Continuous
 62
     2
100
AcDbLine
 10
144.0125058212288
 20
-254.9463579205859
 30
0.0
 11
144.0125058212288
 21
-234.9463579205859
 31
0.0
  0
LINE
  5
A3
330
79
100
AcDbEntity
  8
1
  6
Continuous
 62
     2
100
AcDbLine
 10
132.0125058212288
 20
-254.9463579205859
 30
0.0
 11
132.0125058212288
 21
-234.9463579205859
 31
0.0
  0
LINE
  5
A4
330
79
100
AcDbEntity
  8
1
  6
Continuous
 62
     2
100
AcDbLine
 10
104.0125058212288
 20
-254.9463579205859
 30
0.0
 11
104.0125058212288
 21
-234.9463579205859
 31
0.0
  0
LINE
  5
A5
330
79
100
AcDbEntity
  8
1
  6
Continuous
 62
     2
100
AcDbLine
 10
74.01250582122884
 20
-254.9463579205859
 30
0.0
 11
74.01250582122884
 21
-234.9463579205859
 31
0.0
  0
LINE
  5
A6
330
79
100
AcDbEntity
  8
1
  6
Continuous
 62
     7
100
AcDbLine
 10
66.01250582122884
 20
-234.9463579205859
 30
0.0
 11
66.01250582122884
 21
-254.9463579205859
 31
0.0
  0
LINE
  5
A7
330
79
100
AcDbEntity
  8
1
  6
Continuous
 62
     7
100
AcDbLine
 10
152.0125058212288
 20
-234.9463579205859
 30
0.0
 11
174.0125058212287
 21
-234.9463579205859
 31
0.0
  0
LINE
  5
A8
330
79
100
AcDbEntity
  8
1
  6
Continuous
 62
     7
100
AcDbLine
 10
144.0125058212288
 20
-234.9463579205859
 30
0.0
 11
152.0125058212288
 21
-234.9463579205859
 31
0.0
  0
LINE
  5
A9
330
79
100
AcDbEntity
  8
1
  6
Continuous
 62
     7
100
AcDbLine
 10
66.01250582122884
 20
-234.9463579205859
 30
0.0
 11
74.01250582122884
 21
-234.9463579205859
 31
0.0
  0
LINE
  5
AA
330
79
100
AcDbEntity
  8
1
  6
Continuous
 62
     7
100
AcDbLine
 10
74.01250582122884
 20
-234.9463579205859
 30
0.0
 11
104.0125058212288
 21
-234.9463579205859
 31
0.0
  0
LINE
  5
AB
330
79
100
AcDbEntity
  8
1
  6
Continuous
 62
     7
100
AcDbLine
 10
104.0125058212288
 20
-234.9463579205859
 30
0.0
 11
132.0125058212288
 21
-234.9463579205859
 31
0.0
  0
LINE
  5
AC
330
79
100
AcDbEntity
  8
1
  6
Continuous
 62
     7
100
AcDbLine
 10
132.0125058212288
 20
-234.9463579205859
 30
0.0
 11
144.0125058212288
 21
-234.9463579205859
 31
0.0
  0
LINE
  5
AD
330
79
100
AcDbEntity
  8
1
  6
Continuous
 62
     4
100
AcDbLine
 10
-5.98749417877116
 20
-270.9463579205859
 30
0.0
 11
-5.98749417877116
 21
-286.9463579205859
 31
0.0
  0
LINE
  5
AE
330
79
100
AcDbEntity
  8
1
  6
Continuous
 62
     2
100
AcDbLine
 10
-5.98749417877116
 20
-270.9463579205859
 30
0.0
 11
3.01250582122884
 21
-270.9463579205859
 31
0.0
  0
LINE
  5
AF
330
79
100
AcDbEntity
  8
1
  6
Continuous
 62
     4
100
AcDbLine
 10
-5.98749417877116
 20
-259.9463579205859
 30
0.0
 11
-5.98749417877116
 21
-270.9463579205859
 31
0.0
  0
LINE
  5
B0
330
79
100
AcDbEntity
  8
1
  6
Continuous
 62
     2
100
AcDbLine
 10
50.01250582122884
 20
-254.9463579205859
 30
0.0
 11
50.01250582122884
 21
-264.9463579205859
 31
0.0
  0
LINE
  5
B1
330
79
100
AcDbEntity
  8
1
  6
Continuous
 62
     2
100
AcDbLine
 10
83.08516895998457
 20
-283.9463579205859
 30
0.0
 11
97.067263821923
 21
-283.9463579205859
 31
0.0
  0
LINE
  5
B2
330
79
100
AcDbEntity
  8
1
  6
Continuous
 62
     2
100
AcDbLine
 10
56.80847344358301
 20
-283.9463579205859
 30
0.0
 11
70.18789180285171
 21
-283.9463579205859
 31
0.0
  0
LINE
  5
B3
330
79
100
AcDbEntity
  8
1
  6
Continuous
 62
     2
100
AcDbLine
 10
30.65231322771558
 20
-283.9463579205859
 30
0.0
 11
44.27280218805208
 21
-283.9463579205859
 31
0.0
  0
LINE
  5
B4
330
79
100
AcDbEntity
  8
1
  6
Continuous
 62
     2
100
AcDbLine
 10
4.49615301184804
 20
-283.9463579205859
 30
0.0
 11
18.47824787378647
 21
-283.9463579205859
 31
0.0
  0
LINE
  5
B5
330
79
100
AcDbEntity
  8
1
  6
Continuous
 62
     2
100
AcDbLine
 10
91.69762507581754
 20
-272.1554100033948
 30
0.0
 11
86.16298367197555
 21
-275.9536933197568
 31
0.0
  0
LINE
  5
B6
330
79
100
AcDbEntity
  8
1
  6
Continuous
 62
     2
100
AcDbLine
 10
3.01250582122884
 20
-270.9463579205859
 30
0.0
 11
29.01250582122884
 21
-270.9463579205859
 31
0.0
  0
LINE
  5
B7
330
79
100
AcDbEntity
  8
1
  6
Continuous
 62
     2
100
AcDbLine
 10
3.01250582122884
 20
-264.9463579205859
 30
0.0
 11
3.01250582122884
 21
-270.9463579205859
 31
0.0
  0
LINE
  5
B8
330
79
100
AcDbEntity
  8
1
  6
Continuous
 62
     7
100
AcDbLine
 10
64.01250582122884
 20
-276.9463579205859
 30
0.0
 11
72.01250582122884
 21
-276.9463579205859
 31
0.0
  0
LINE
  5
B9
330
79
100
AcDbEntity
  8
1
  6
Continuous
 62
     2
100
AcDbLine
 10
64.01250582122884
 20
-270.9463579205859
 30
0.0
 11
99.01250582122884
 21
-270.9463579205859
 31
0.0
  0
LINE
  5
BA
330
79
100
AcDbEntity
  8
1
  6
Continuous
 62
     2
100
AcDbLine
 10
64.01250582122884
 20
-270.9463579205859
 30
0.0
 11
64.01250582122884
 21
-276.9463579205859
 31
0.0
  0
LINE
  5
BB
330
79
100
AcDbEntity
  8
1
  6
Continuous
 62
     2
100
AcDbLine
 10
29.01250582122884
 20
-270.9463579205859
 30
0.0
 11
64.01250582122884
 21
-270.9463579205859
 31
0.0
  0
LINE
  5
BC
330
79
100
AcDbEntity
  8
1
  6
Continuous
 62
     2
100
AcDbLine
 10
29.01250582122884
 20
-276.9463579205859
 30
0.0
 11
29.01250582122884
 21
-270.9463579205859
 31
0.0
  0
LINE
  5
BD
330
79
100
AcDbEntity
  8
1
  6
Continuous
 62
     4
100
AcDbLine
 10
3.01250582122884
 20
-286.9463579205859
 30
0.0
 11
20.01250582122884
 21
-286.9463579205859
 31
0.0
  0
LINE
  5
BE
330
79
100
AcDbEntity
  8
1
  6
Continuous
 62
     7
100
AcDbLine
 10
3.01250582122884
 20
-276.9463579205859
 30
0.0
 11
20.01250582122884
 21
-276.9463579205859
 31
0.0
  0
LINE
  5
BF
330
79
100
AcDbEntity
  8
1
  6
Continuous
 62
     7
100
AcDbLine
 10
3.01250582122884
 20
-276.9463579205859
 30
0.0
 11
3.01250582122884
 21
-286.9463579205859
 31
0.0
  0
LINE
  5
C0
330
79
100
AcDbEntity
  8
1
  6
Continuous
 62
     4
100
AcDbLine
 10
20.01250582122884
 20
-286.9463579205859
 30
0.0
 11
29.01250582122884
 21
-286.9463579205859
 31
0.0
  0
LINE
  5
C1
330
79
100
AcDbEntity
  8
1
  6
Continuous
 62
     7
100
AcDbLine
 10
20.01250582122884
 20
-276.9463579205859
 30
0.0
 11
29.01250582122884
 21
-276.9463579205859
 31
0.0
  0
LINE
  5
C2
330
79
100
AcDbEntity
  8
1
  6
Continuous
 62
     7
100
AcDbLine
 10
20.01250582122884
 20
-276.9463579205859
 30
0.0
 11
20.01250582122884
 21
-286.9463579205859
 31
0.0
  0
LINE
  5
C3
330
79
100
AcDbEntity
  8
1
  6
Continuous
 62
     4
100
AcDbLine
 10
29.01250582122884
 20
-286.9463579205859
 30
0.0
 11
46.01250582122884
 21
-286.9463579205859
 31
0.0
  0
LINE
  5
C4
330
79
100
AcDbEntity
  8
1
  6
Continuous
 62
     7
100
AcDbLine
 10
29.01250582122884
 20
-276.9463579205859
 30
0.0
 11
46.01250582122884
 21
-276.9463579205859
 31
0.0
  0
LINE
  5
C5
330
79
100
AcDbEntity
  8
1
  6
Continuous
 62
     7
100
AcDbLine
 10
29.01250582122884
 20
-276.9463579205859
 30
0.0
 11
29.01250582122884
 21
-286.9463579205859
 31
0.0
  0
LINE
  5
C6
330
79
100
AcDbEntity
  8
1
  6
Continuous
 62
     4
100
AcDbLine
 10
46.01250582122884
 20
-286.9463579205859
 30
0.0
 11
55.01250582122884
 21
-286.9463579205859
 31
0.0
  0
LINE
  5
C7
330
79
100
AcDbEntity
  8
1
  6
Continuous
 62
     7
100
AcDbLine
 10
46.01250582122884
 20
-276.9463579205859
 30
0.0
 11
55.01250582122884
 21
-276.9463579205859
 31
0.0
  0
LINE
  5
C8
330
79
100
AcDbEntity
  8
1
  6
Continuous
 62
     7
100
AcDbLine
 10
46.01250582122884
 20
-276.9463579205859
 30
0.0
 11
46.01250582122884
 21
-286.9463579205859
 31
0.0
  0
LINE
  5
C9
330
79
100
AcDbEntity
  8
1
  6
Continuous
 62
     4
100
AcDbLine
 10
55.01250582122884
 20
-286.9463579205859
 30
0.0
 11
72.01250582122884
 21
-286.9463579205859
 31
0.0
  0
LINE
  5
CA
330
79
100
AcDbEntity
  8
1
  6
Continuous
 62
     7
100
AcDbLine
 10
55.01250582122884
 20
-276.9463579205859
 30
0.0
 11
64.01250582122884
 21
-276.9463579205859
 31
0.0
  0
LINE
  5
CB
330
79
100
AcDbEntity
  8
1
  6
Continuous
 62
     7
100
AcDbLine
 10
55.01250582122884
 20
-276.9463579205859
 30
0.0
 11
55.01250582122884
 21
-286.9463579205859
 31
0.0
  0
LINE
  5
CC
330
79
100
AcDbEntity
  8
1
  6
Continuous
 62
     4
100
AcDbLine
 10
72.01250582122884
 20
-286.9463579205859
 30
0.0
 11
81.01250582122884
 21
-286.9463579205859
 31
0.0
  0
LINE
  5
CD
330
79
100
AcDbEntity
  8
1
  6
Continuous
 62
     7
100
AcDbLine
 10
72.01250582122884
 20
-276.9463579205859
 30
0.0
 11
81.01250582122884
 21
-276.9463579205859
 31
0.0
  0
LINE
  5
CE
330
79
100
AcDbEntity
  8
1
  6
Continuous
 62
     7
100
AcDbLine
 10
72.01250582122884
 20
-276.9463579205859
 30
0.0
 11
72.01250582122884
 21
-286.9463579205859
 31
0.0
  0
LINE
  5
CF
330
79
100
AcDbEntity
  8
1
  6
Continuous
 62
     4
100
AcDbLine
 10
81.01250582122884
 20
-286.9463579205859
 30
0.0
 11
99.01250582122884
 21
-286.9463579205859
 31
0.0
  0
LINE
  5
D0
330
79
100
AcDbEntity
  8
1
  6
Continuous
 62
     7
100
AcDbLine
 10
81.01250582122884
 20
-276.9463579205859
 30
0.0
 11
174.0125058212287
 21
-276.9463579205859
 31
0.0
  0
LINE
  5
D1
330
79
100
AcDbEntity
  8
1
  6
Continuous
 62
     7
100
AcDbLine
 10
81.01250582122884
 20
-276.9463579205859
 30
0.0
 11
81.01250582122884
 21
-286.9463579205859
 31
0.0
  0
LINE
  5
D2
330
79
100
AcDbEntity
  8
1
  6
Continuous
 62
     7
100
AcDbLine
 10
17.01250582122884
 20
-264.9463579205859
 30
0.0
 11
58.01250582122884
 21
-264.9463579205859
 31
0.0
  0
LINE
  5
D3
330
79
100
AcDbEntity
  8
1
  6
Continuous
 62
     7
100
AcDbLine
 10
99.01250582122884
 20
-270.9463579205859
 30
0.0
 11
99.01250582122884
 21
-286.9463579205859
 31
0.0
  0
LINE
  5
D4
330
79
100
AcDbEntity
  8
1
  6
Continuous
 62
     7
100
AcDbLine
 10
17.01250582122884
 20
-254.9463579205859
 30
0.0
 11
58.01250582122884
 21
-254.9463579205859
 31
0.0
  0
LINE
  5
D5
330
79
100
AcDbEntity
  8
1
  6
Continuous
 62
     2
100
AcDbLine
 10
17.01250582122884
 20
-254.9463579205859
 30
0.0
 11
17.01250582122884
 21
-264.9463579205859
 31
0.0
  0
LINE
  5
D6
330
79
100
AcDbEntity
  8
1
  6
Continuous
 62
     7
100
AcDbLine
 10
3.01250582122884
 20
-264.9463579205859
 30
0.0
 11
17.01250582122884
 21
-264.9463579205859
 31
0.0
  0
LINE
  5
D7
330
79
100
AcDbEntity
  8
1
  6
Continuous
 62
     7
100
AcDbLine
 10
3.01250582122884
 20
-254.9463579205859
 30
0.0
 11
17.01250582122884
 21
-254.9463579205859
 31
0.0
  0
LINE
  5
D8
330
79
100
AcDbEntity
  8
1
  6
Continuous
 62
     2
100
AcDbLine
 10
3.01250582122884
 20
-254.9463579205859
 30
0.0
 11
3.01250582122884
 21
-264.9463579205859
 31
0.0
  0
LINE
  5
D9
330
79
100
AcDbEntity
  8
1
  6
Continuous
 62
     7
100
AcDbLine
 10
58.01250582122884
 20
-264.9463579205859
 30
0.0
 11
66.01250582122884
 21
-264.9463579205859
 31
0.0
  0
LINE
  5
DA
330
79
100
AcDbEntity
  8
1
  6
Continuous
 62
     7
100
AcDbLine
 10
58.01250582122884
 20
-254.9463579205859
 30
0.0
 11
66.01250582122884
 21
-254.9463579205859
 31
0.0
  0
LINE
  5
DB
330
79
100
AcDbEntity
  8
1
  6
Continuous
 62
     2
100
AcDbLine
 10
58.01250582122884
 20
-254.9463579205859
 30
0.0
 11
58.01250582122884
 21
-264.9463579205859
 31
0.0
  0
LINE
  5
DC
330
79
100
AcDbEntity
  8
1
  6
Continuous
 62
     7
100
AcDbLine
 10
66.01250582122884
 20
-264.9463579205859
 30
0.0
 11
74.01250582122884
 21
-264.9463579205859
 31
0.0
  0
LINE
  5
DD
330
79
100
AcDbEntity
  8
1
  6
Continuous
 62
     2
100
AcDbLine
 10
66.01250582122884
 20
-254.9463579205859
 30
0.0
 11
74.01250582122884
 21
-254.9463579205859
 31
0.0
  0
LINE
  5
DE
330
79
100
AcDbEntity
  8
1
  6
Continuous
 62
     7
100
AcDbLine
 10
66.01250582122884
 20
-254.9463579205859
 30
0.0
 11
66.01250582122884
 21
-264.9463579205859
 31
0.0
  0
LINE
  5
DF
330
79
100
AcDbEntity
  8
1
  6
Continuous
 62
     7
100
AcDbLine
 10
74.01250582122884
 20
-264.9463579205859
 30
0.0
 11
99.01250582122884
 21
-264.9463579205859
 31
0.0
  0
LINE
  5
E0
330
79
100
AcDbEntity
  8
1
  6
Continuous
 62
     2
100
AcDbLine
 10
74.01250582122884
 20
-254.9463579205859
 30
0.0
 11
104.0125058212288
 21
-254.9463579205859
 31
0.0
  0
LINE
  5
E1
330
79
100
AcDbEntity
  8
1
  6
Continuous
 62
     2
100
AcDbLine
 10
74.01250582122884
 20
-254.9463579205859
 30
0.0
 11
74.01250582122884
 21
-264.9463579205859
 31
0.0
  0
LINE
  5
E2
330
79
100
AcDbEntity
  8
1
  6
Continuous
 62
     7
100
AcDbLine
 10
104.0125058212288
 20
-264.9463579205859
 30
0.0
 11
132.0125058212288
 21
-264.9463579205859
 31
0.0
  0
LINE
  5
E3
330
79
100
AcDbEntity
  8
1
  6
Continuous
 62
     2
100
AcDbLine
 10
104.0125058212288
 20
-254.9463579205859
 30
0.0
 11
132.0125058212288
 21
-254.9463579205859
 31
0.0
  0
LINE
  5
E4
330
79
100
AcDbEntity
  8
1
  6
Continuous
 62
     2
100
AcDbLine
 10
104.0125058212288
 20
-254.9463579205859
 30
0.0
 11
104.0125058212288
 21
-264.9463579205859
 31
0.0
  0
LINE
  5
E5
330
79
100
AcDbEntity
  8
1
  6
Continuous
 62
     7
100
AcDbLine
 10
132.0125058212288
 20
-264.9463579205859
 30
0.0
 11
144.0125058212288
 21
-264.9463579205859
 31
0.0
  0
LINE
  5
E6
330
79
100
AcDbEntity
  8
1
  6
Continuous
 62
     2
100
AcDbLine
 10
132.0125058212288
 20
-254.9463579205859
 30
0.0
 11
144.0125058212288
 21
-254.9463579205859
 31
0.0
  0
LINE
  5
E7
330
79
100
AcDbEntity
  8
1
  6
Continuous
 62
     2
100
AcDbLine
 10
132.0125058212288
 20
-254.9463579205859
 30
0.0
 11
132.0125058212288
 21
-264.9463579205859
 31
0.0
  0
LINE
  5
E8
330
79
100
AcDbEntity
  8
1
  6
Continuous
 62
     7
100
AcDbLine
 10
144.0125058212288
 20
-264.9463579205859
 30
0.0
 11
152.0125058212288
 21
-264.9463579205859
 31
0.0
  0
LINE
  5
E9
330
79
100
AcDbEntity
  8
1
  6
Continuous
 62
     2
100
AcDbLine
 10
144.0125058212288
 20
-254.9463579205859
 30
0.0
 11
152.0125058212288
 21
-254.9463579205859
 31
0.0
  0
LINE
  5
EA
330
79
100
AcDbEntity
  8
1
  6
Continuous
 62
     2
100
AcDbLine
 10
144.0125058212288
 20
-254.9463579205859
 30
0.0
 11
144.0125058212288
 21
-264.9463579205859
 31
0.0
  0
LINE
  5
EB
330
79
100
AcDbEntity
  8
1
  6
Continuous
 62
     7
100
AcDbLine
 10
152.0125058212288
 20
-264.9463579205859
 30
0.0
 11
174.0125058212287
 21
-264.9463579205859
 31
0.0
  0
LINE
  5
EC
330
79
100
AcDbEntity
  8
1
  6
Continuous
 62
     2
100
AcDbLine
 10
152.0125058212288
 20
-254.9463579205859
 30
0.0
 11
174.0125058212287
 21
-254.9463579205859
 31
0.0
  0
LINE
  5
ED
330
79
100
AcDbEntity
  8
1
  6
Continuous
 62
     2
100
AcDbLine
 10
152.0125058212288
 20
-254.9463579205859
 30
0.0
 11
152.0125058212288
 21
-264.9463579205859
 31
0.0
  0
LINE
  5
EE
330
79
100
AcDbEntity
  8
1
  6
Continuous
 62
     4
100
AcDbLine
 10
174.0125058212287
 20
-259.9463579205859
 30
0.0
 11
174.0125058212287
 21
-254.9463579205859
 31
0.0
  0
LINE
  5
EF
330
79
100
AcDbEntity
  8
1
  6
Continuous
 62
     2
100
AcDbLine
 10
-5.98749417877116
 20
-259.9463579205859
 30
0.0
 11
174.0125058212287
 21
-259.9463579205859
 31
0.0
  0
LINE
  5
F0
330
79
100
AcDbEntity
  8
1
  6
Continuous
 62
     4
100
AcDbLine
 10
99.01250582122884
 20
-286.9463579205859
 30
0.0
 11
174.0125058212287
 21
-286.9463579205859
 31
0.0
  0
LINE
  5
F1
330
79
100
AcDbEntity
  8
1
  6
Continuous
 62
     7
100
AcDbLine
 10
99.01250582122884
 20
-264.9463579205859
 30
0.0
 11
104.0125058212288
 21
-264.9463579205859
 31
0.0
  0
LINE
  5
F2
330
79
100
AcDbEntity
  8
1
  6
Continuous
 62
     7
100
AcDbLine
 10
99.01250582122884
 20
-264.9463579205859
 30
0.0
 11
99.01250582122884
 21
-270.9463579205859
 31
0.0
  0
LINE
  5
F3
330
79
100
AcDbEntity
  8
1
  6
Continuous
 62
     4
100
AcDbLine
 10
174.0125058212287
 20
-286.9463579205859
 30
0.0
 11
174.0125058212287
 21
-276.9463579205859
 31
0.0
  0
LINE
  5
F4
330
79
100
AcDbEntity
  8
1
  6
Continuous
 62
     4
100
AcDbLine
 10
174.0125058212287
 20
-35.94635792058574
 30
0.0
 11
-5.98749417877116
 21
-35.94635792058574
 31
0.0
  0
LINE
  5
F5
330
79
100
AcDbEntity
  8
1
  6
Continuous
 62
     4
100
AcDbLine
 10
-5.98749417877116
 20
-286.9463579205859
 30
0.0
 11
3.01250582122884
 21
-286.9463579205859
 31
0.0
  0
LINE
  5
F6
330
79
100
AcDbEntity
  8
1
  6
Continuous
 62
     7
100
AcDbLine
 10
-5.98749417877116
 20
-254.9463579205859
 30
0.0
 11
3.01250582122884
 21
-254.9463579205859
 31
0.0
  0
LINE
  5
F7
330
79
100
AcDbEntity
  8
1
  6
Continuous
 62
     4
100
AcDbLine
 10
174.0125058212287
 20
-254.9463579205859
 30
0.0
 11
174.0125058212287
 21
-35.94635792058574
 31
0.0
  0
LINE
  5
F8
330
79
100
AcDbEntity
  8
1
  6
Continuous
 62
     7
100
AcDbLine
 10
-5.98749417877116
 20
-264.9463579205859
 30
0.0
 11
3.01250582122884
 21
-264.9463579205859
 31
0.0
  0
LINE
  5
F9
330
79
100
AcDbEntity
  8
1
  6
Continuous
 62
     4
100
AcDbLine
 10
174.0125058212287
 20
-264.9463579205859
 30
0.0
 11
174.0125058212287
 21
-259.9463579205859
 31
0.0
  0
LINE
  5
FA
330
79
100
AcDbEntity
  8
1
  6
Continuous
 62
     7
100
AcDbLine
 10
-5.98749417877116
 20
-276.9463579205859
 30
0.0
 11
3.01250582122884
 21
-276.9463579205859
 31
0.0
  0
LINE
  5
FB
330
79
100
AcDbEntity
  8
1
  6
Continuous
 62
     4
100
AcDbLine
 10
174.0125058212287
 20
-276.9463579205859
 30
0.0
 11
174.0125058212287
 21
-264.9463579205859
 31
0.0
  0
LINE
  5
FC
102
{ACAD_REACTORS
330
173
102
}
330
79
100
AcDbEntity
  8
1
  6
Continuous
 62
     2
100
AcDbLine
 10
152.6125058212288
 20
-42.40020407443177
 30
0.0
 11
152.6125058212288
 21
-39.20020407443184
 31
0.0
  0
LINE
  5
FD
102
{ACAD_REACTORS
330
173
102
}
330
79
100
AcDbEntity
  8
1
  6
Continuous
 62
     2
100
AcDbLine
 10
152.6125058212288
 20
-39.20020407443184
 30
0.0
 11
154.3125058212289
 21
-39.20020407443184
 31
0.0
  0
LINE
  5
FE
102
{ACAD_REACTORS
330
173
102
}
330
79
100
AcDbEntity
  8
1
  6
Continuous
 62
     2
100
AcDbLine
 10
154.3125058212289
 20
-38.40020407443177
 30
0.0
 11
146.2125058212288
 21
-38.40020407443177
 31
0.0
  0
LINE
  5
FF
102
{ACAD_REACTORS
330
173
102
}
330
79
100
AcDbEntity
  8
1
  6
Continuous
 62
     2
100
AcDbLine
 10
146.2125058212288
 20
-40.80020407443175
 30
0.0
 11
149.0125058212288
 21
-40.80020407443175
 31
0.0
  0
LINE
  5
100
102
{ACAD_REACTORS
330
173
102
}
330
79
100
AcDbEntity
  8
1
  6
Continuous
 62
     2
100
AcDbLine
 10
149.0125058212288
 20
-41.60020407443182
 30
0.0
 11
145.0125058212288
 21
-41.60020407443182
 31
0.0
  0
LINE
  5
101
102
{ACAD_REACTORS
330
173
102
}
330
79
100
AcDbEntity
  8
1
  6
Continuous
 62
     2
100
AcDbLine
 10
145.0125058212288
 20
-41.60020407443182
 30
0.0
 11
145.0125058212288
 21
-42.40020407443177
 31
0.0
  0
LINE
  5
102
102
{ACAD_REACTORS
330
173
102
}
330
79
100
AcDbEntity
  8
1
  6
Continuous
 62
     2
100
AcDbLine
 10
145.0125058212288
 20
-42.40020407443177
 30
0.0
 11
149.2125058212288
 21
-42.40020407443177
 31
0.0
  0
LINE
  5
103
102
{ACAD_REACTORS
330
173
102
}
330
79
100
AcDbEntity
  8
1
  6
Continuous
 62
     2
100
AcDbLine
 10
149.2125058212288
 20
-40.00020407443179
 30
0.0
 11
146.4125058212289
 21
-40.00020407443179
 31
0.0
  0
LINE
  5
104
102
{ACAD_REACTORS
330
173
102
}
330
79
100
AcDbEntity
  8
1
  6
Continuous
 62
     2
100
AcDbLine
 10
146.4125058212289
 20
-39.20020407443184
 30
0.0
 11
151.5125058212288
 21
-39.20020407443184
 31
0.0
  0
LINE
  5
105
102
{ACAD_REACTORS
330
173
102
}
330
79
100
AcDbEntity
  8
1
  6
Continuous
 62
     2
100
AcDbLine
 10
151.5125058212288
 20
-39.20020407443184
 30
0.0
 11
151.5125058212288
 21
-42.40020407443177
 31
0.0
  0
LINE
  5
106
102
{ACAD_REACTORS
330
173
102
}
330
79
100
AcDbEntity
  8
1
  6
Continuous
 62
     2
100
AcDbLine
 10
151.5125058212288
 20
-42.40020407443177
 30
0.0
 11
152.6125058212288
 21
-42.40020407443177
 31
0.0
  0
LINE
  5
107
102
{ACAD_REACTORS
330
173
102
}
330
79
100
AcDbEntity
  8
1
  6
Continuous
 62
     2
100
AcDbLine
 10
154.3125058212289
 20
-38.40020407443177
 30
0.0
 11
155.0125058212288
 21
-38.40020407443177
 31
0.0
  0
LINE
  5
108
102
{ACAD_REACTORS
330
173
102
}
330
79
100
AcDbEntity
  8
1
  6
Continuous
 62
     2
100
AcDbLine
 10
155.0125058212288
 20
-38.40020407443177
 30
0.0
 11
155.0125058212288
 21
-39.20020407443184
 31
0.0
  0
LINE
  5
109
102
{ACAD_REACTORS
330
173
102
}
330
79
100
AcDbEntity
  8
1
  6
Continuous
 62
     2
100
AcDbLine
 10
155.0125058212288
 20
-39.20020407443184
 30
0.0
 11
154.3125058212289
 21
-39.20020407443184
 31
0.0
  0
LINE
  5
10A
102
{ACAD_REACTORS
330
172
102
}
330
79
100
AcDbEntity
  8
1
  6
Continuous
 62
     2
100
AcDbLine
 10
153.4125058212289
 20
-42.40020407443177
 30
0.0
 11
156.1725058212288
 21
-38.72020407443182
 31
0.0
  0
LINE
  5
10B
102
{ACAD_REACTORS
330
172
102
}
330
79
100
AcDbEntity
  8
1
  6
Continuous
 62
     2
100
AcDbLine
 10
157.4525058212288
 20
-38.72020407443182
 30
0.0
 11
160.2125058212288
 21
-42.40020407443177
 31
0.0
  0
LINE
  5
10C
102
{ACAD_REACTORS
330
172
102
}
330
79
100
AcDbEntity
  8
1
  6
Continuous
 62
     2
100
AcDbLine
 10
160.2125058212288
 20
-42.40020407443177
 30
0.0
 11
159.8125058212289
 21
-42.40020407443177
 31
0.0
  0
LINE
  5
10D
102
{ACAD_REACTORS
330
172
102
}
330
79
100
AcDbEntity
  8
1
  6
Continuous
 62
     2
100
AcDbLine
 10
159.2125058212288
 20
-42.40020407443177
 30
0.0
 11
158.6875058212289
 21
-41.70020407443184
 31
0.0
  0
LINE
  5
10E
102
{ACAD_REACTORS
330
172
102
}
330
79
100
AcDbEntity
  8
1
  6
Continuous
 62
     2
100
AcDbLine
 10
158.6875058212289
 20
-41.70020407443184
 30
0.0
 11
154.9375058212289
 21
-41.70020407443184
 31
0.0
  0
LINE
  5
10F
102
{ACAD_REACTORS
330
172
102
}
330
79
100
AcDbEntity
  8
1
  6
Continuous
 62
     2
100
AcDbLine
 10
154.9375058212289
 20
-41.70020407443184
 30
0.0
 11
154.4125058212289
 21
-42.40020407443177
 31
0.0
  0
LINE
  5
110
102
{ACAD_REACTORS
330
172
102
}
330
79
100
AcDbEntity
  8
1
  6
Continuous
 62
     2
100
AcDbLine
 10
154.4125058212289
 20
-42.40020407443177
 30
0.0
 11
153.4125058212289
 21
-42.40020407443177
 31
0.0
  0
LINE
  5
111
102
{ACAD_REACTORS
330
172
102
}
330
79
100
AcDbEntity
  8
1
  6
Continuous
 62
     2
100
AcDbLine
 10
156.6525058212288
 20
-39.41353740776509
 30
0.0
 11
155.6125058212288
 21
-40.80020407443175
 31
0.0
  0
LINE
  5
112
102
{ACAD_REACTORS
330
172
102
}
330
79
100
AcDbEntity
  8
1
  6
Continuous
 62
     2
100
AcDbLine
 10
155.6125058212288
 20
-40.80020407443175
 30
0.0
 11
158.0125058212288
 21
-40.80020407443175
 31
0.0
  0
LINE
  5
113
102
{ACAD_REACTORS
330
172
102
}
330
79
100
AcDbEntity
  8
1
  6
Continuous
 62
     2
100
AcDbLine
 10
158.0125058212288
 20
-40.80020407443175
 30
0.0
 11
156.9725058212289
 21
-39.41353740776509
 31
0.0
  0
LINE
  5
114
102
{ACAD_REACTORS
330
171
102
}
330
79
100
AcDbEntity
  8
1
  6
Continuous
 62
     2
100
AcDbLine
 10
164.8125058212289
 20
-42.40020407443177
 30
0.0
 11
161.8125058212289
 21
-42.40020407443177
 31
0.0
  0
LINE
  5
115
102
{ACAD_REACTORS
330
172
102
}
330
79
100
AcDbEntity
  8
1
  6
Continuous
 62
     2
100
AcDbLine
 10
159.8125058212289
 20
-42.40020407443177
 30
0.0
 11
159.2125058212288
 21
-42.40020407443177
 31
0.0
  0
LINE
  5
116
102
{ACAD_REACTORS
330
171
102
}
330
79
100
AcDbEntity
  8
1
  6
Continuous
 62
     2
100
AcDbLine
 10
161.8125058212289
 20
-38.40020407443177
 30
0.0
 11
166.4125058212289
 21
-38.40020407443177
 31
0.0
  0
LINE
  5
117
102
{ACAD_REACTORS
330
171
102
}
330
79
100
AcDbEntity
  8
1
  6
Continuous
 62
     2
100
AcDbLine
 10
164.8125058212289
 20
-42.40020407443177
 30
0.0
 11
164.8125058212289
 21
-41.60020407443182
 31
0.0
  0
LINE
  5
118
102
{ACAD_REACTORS
330
171
102
}
330
79
100
AcDbEntity
  8
1
  6
Continuous
 62
     2
100
AcDbLine
 10
164.8125058212289
 20
-41.60020407443182
 30
0.0
 11
162.1125058212288
 21
-41.60020407443182
 31
0.0
  0
LINE
  5
119
102
{ACAD_REACTORS
330
171
102
}
330
79
100
AcDbEntity
  8
1
  6
Continuous
 62
     2
100
AcDbLine
 10
162.1125058212288
 20
-39.20020407443184
 30
0.0
 11
165.4125058212289
 21
-39.20020407443184
 31
0.0
  0
LINE
  5
11A
102
{ACAD_REACTORS
330
171
102
}
330
79
100
AcDbEntity
  8
1
  6
Continuous
 62
     2
100
AcDbLine
 10
165.4125058212289
 20
-39.20020407443184
 30
0.0
 11
165.4125058212289
 21
-42.40020407443177
 31
0.0
  0
LINE
  5
11B
102
{ACAD_REACTORS
330
171
102
}
330
79
100
AcDbEntity
  8
1
  6
Continuous
 62
     2
100
AcDbLine
 10
165.4125058212289
 20
-42.40020407443177
 30
0.0
 11
166.4125058212289
 21
-42.40020407443177
 31
0.0
  0
LINE
  5
11C
102
{ACAD_REACTORS
330
171
102
}
330
79
100
AcDbEntity
  8
1
  6
Continuous
 62
     2
100
AcDbLine
 10
166.4125058212289
 20
-38.40020407443177
 30
0.0
 11
166.4125058212289
 21
-39.80020407443175
 31
0.0
  0
LINE
  5
11D
102
{ACAD_REACTORS
330
171
102
}
330
79
100
AcDbEntity
  8
1
  6
Continuous
 62
     2
100
AcDbLine
 10
166.4125058212289
 20
-39.80020407443175
 30
0.0
 11
169.0125058212288
 21
-38.40020407443177
 31
0.0
  0
LINE
  5
11E
102
{ACAD_REACTORS
330
171
102
}
330
79
100
AcDbEntity
  8
1
  6
Continuous
 62
     2
100
AcDbLine
 10
169.0125058212288
 20
-38.40020407443177
 30
0.0
 11
171.0125058212287
 21
-38.40020407443177
 31
0.0
  0
LINE
  5
11F
102
{ACAD_REACTORS
330
171
102
}
330
79
100
AcDbEntity
  8
1
  6
Continuous
 62
     2
100
AcDbLine
 10
171.0125058212287
 20
-38.40020407443177
 30
0.0
 11
168.5125058212288
 21
-39.74635792058558
 31
0.0
  0
LINE
  5
120
102
{ACAD_REACTORS
330
171
102
}
330
79
100
AcDbEntity
  8
1
  6
Continuous
 62
     2
100
AcDbLine
 10
168.6703813504666
 20
-39.91394886700738
 30
0.0
 11
171.0125058212287
 21
-42.40020407443177
 31
0.0
  0
LINE
  5
121
102
{ACAD_REACTORS
330
171
102
}
330
79
100
AcDbEntity
  8
1
  6
Continuous
 62
     2
100
AcDbLine
 10
171.0125058212287
 20
-42.40020407443177
 30
0.0
 11
169.7125058212289
 21
-42.40020407443177
 31
0.0
  0
LINE
  5
122
102
{ACAD_REACTORS
330
171
102
}
330
79
100
AcDbEntity
  8
1
  6
Continuous
 62
     2
100
AcDbLine
 10
169.7125058212289
 20
-42.40020407443177
 30
0.0
 11
168.1762575853551
 21
-40.76941748558119
 31
0.0
  0
LINE
  5
123
102
{ACAD_REACTORS
330
171
102
}
330
79
100
AcDbEntity
  8
1
  6
Continuous
 62
     2
100
AcDbLine
 10
166.9742675433085
 20
-40.57464007023503
 30
0.0
 11
166.9384059981937
 21
-40.59395013298916
 31
0.0
  0
LINE
  5
124
102
{ACAD_REACTORS
330
171
102
}
330
79
100
AcDbEntity
  8
1
  6
Continuous
 62
     2
100
AcDbLine
 10
166.4125058212289
 20
-41.47442123291131
 30
0.0
 11
166.4125058212289
 21
-42.40020407443177
 31
0.0
  0
LINE
  5
125
102
{ACAD_REACTORS
330
171
102
}
330
79
100
AcDbEntity
  8
1
  6
Continuous
 62
     2
100
AcDbLine
 10
168.5125058212288
 20
-39.74635792058558
 30
0.0
 11
168.3097843378528
 21
-39.85551564240365
 31
0.0
  0
LINE
  5
126
330
79
100
AcDbEntity
  8
1
  6
Continuous
 62
     4
100
AcDbLine
 10
-5.98749417877116
 20
-35.94635792058574
 30
0.0
 11
-5.98749417877116
 21
-259.9463579205859
 31
0.0
  0
ARC
  5
127
102
{ACAD_REACTORS
330
172
102
}
330
79
100
AcDbEntity
  8
1
  6
Continuous
 62
     2
100
AcDbCircle
 10
156.8125058212289
 20
-39.20020407443184
 30
0.0
 40
0.8000000000000682
100
AcDbArc
 50
90.0
 51
143.1301023541592
  0
ARC
  5
128
102
{ACAD_REACTORS
330
172
102
}
330
79
100
AcDbEntity
  8
1
  6
Continuous
 62
     2
100
AcDbCircle
 10
156.8125058212289
 20
-39.20020407443184
 30
0.0
 40
0.7999999999999318
100
AcDbArc
 50
36.86989764584931
 51
90.0
  0
ARC
  5
129
102
{ACAD_REACTORS
330
173
102
}
330
79
100
AcDbEntity
  8
1
  6
Continuous
 62
     2
100
AcDbCircle
 10
146.2125058212288
 20
-39.60020407443182
 30
0.0
 40
1.200000000000053
100
AcDbArc
 50
90.0
 51
180.0
  0
ARC
  5
12A
102
{ACAD_REACTORS
330
173
102
}
330
79
100
AcDbEntity
  8
1
  6
Continuous
 62
     2
100
AcDbCircle
 10
146.2125058212288
 20
-39.60020407443182
 30
0.0
 40
1.199999999999989
100
AcDbArc
 50
180.0
 51
270.0
  0
ARC
  5
12B
102
{ACAD_REACTORS
330
173
102
}
330
79
100
AcDbEntity
  8
1
  6
Continuous
 62
     2
100
AcDbCircle
 10
146.4125058212289
 20
-39.60020407443182
 30
0.0
 40
0.3999999999999844
100
AcDbArc
 50
90.0
 51
180.0
  0
ARC
  5
12C
102
{ACAD_REACTORS
330
173
102
}
330
79
100
AcDbEntity
  8
1
  6
Continuous
 62
     2
100
AcDbCircle
 10
146.4125058212289
 20
-39.60020407443182
 30
0.0
 40
0.4000000000000909
100
AcDbArc
 50
180.0
 51
270.0
  0
ARC
  5
12D
102
{ACAD_REACTORS
330
173
102
}
330
79
100
AcDbEntity
  8
1
  6
Continuous
 62
     2
100
AcDbCircle
 10
149.0125058212288
 20
-41.20020407443184
 30
0.0
 40
0.4000000000000909
100
AcDbArc
 50
0.0
 51
90.0
  0
ARC
  5
12E
102
{ACAD_REACTORS
330
173
102
}
330
79
100
AcDbEntity
  8
1
  6
Continuous
 62
     2
100
AcDbCircle
 10
149.0125058212288
 20
-41.20020407443184
 30
0.0
 40
0.3999999999999844
100
AcDbArc
 50
270.0
 51
0.0
  0
ARC
  5
12F
102
{ACAD_REACTORS
330
173
102
}
330
79
100
AcDbEntity
  8
1
  6
Continuous
 62
     2
100
AcDbCircle
 10
149.2125058212288
 20
-41.20020407443184
 30
0.0
 40
1.200000000000102
100
AcDbArc
 50
0.0
 51
90.0
  0
ARC
  5
130
102
{ACAD_REACTORS
330
173
102
}
330
79
100
AcDbEntity
  8
1
  6
Continuous
 62
     2
100
AcDbCircle
 10
149.2125058212288
 20
-41.20020407443184
 30
0.0
 40
1.199999999999932
100
AcDbArc
 50
270.0
 51
0.0
  0
ARC
  5
131
102
{ACAD_REACTORS
330
172
102
}
330
79
100
AcDbEntity
  8
1
  6
Continuous
 62
     2
100
AcDbCircle
 10
156.8125058212289
 20
-39.5335374077651
 30
0.0
 40
0.2000000000000043
100
AcDbArc
 50
36.86989764584727
 51
143.1301023541723
  0
ARC
  5
132
102
{ACAD_REACTORS
330
171
102
}
330
79
100
AcDbEntity
  8
1
  6
Continuous
 62
     2
100
AcDbCircle
 10
161.8125058212289
 20
-40.40020407443177
 30
0.0
 40
2.0
100
AcDbArc
 50
90.0
 51
180.0
  0
ARC
  5
133
102
{ACAD_REACTORS
330
171
102
}
330
79
100
AcDbEntity
  8
1
  6
Continuous
 62
     2
100
AcDbCircle
 10
161.8125058212289
 20
-40.40020407443177
 30
0.0
 40
2.0
100
AcDbArc
 50
180.0
 51
270.0
  0
ARC
  5
134
102
{ACAD_REACTORS
330
171
102
}
330
79
100
AcDbEntity
  8
1
  6
Continuous
 62
     2
100
AcDbCircle
 10
162.1125058212288
 20
-40.40020407443177
 30
0.0
 40
1.199999999999932
100
AcDbArc
 50
90.0
 51
180.0
  0
ARC
  5
135
102
{ACAD_REACTORS
330
171
102
}
330
79
100
AcDbEntity
  8
1
  6
Continuous
 62
     2
100
AcDbCircle
 10
162.1125058212288
 20
-40.40020407443177
 30
0.0
 40
1.199999999999903
100
AcDbArc
 50
180.0
 51
270.0
  0
ARC
  5
136
102
{ACAD_REACTORS
330
171
102
}
330
79
100
AcDbEntity
  8
1
  6
Continuous
 62
     2
100
AcDbCircle
 10
167.4483673663436
 20
-41.45511117015718
 30
0.0
 40
1.000000000000006
100
AcDbArc
 50
43.29018595585617
 51
118.3007557660106
  0
ARC
  5
137
102
{ACAD_REACTORS
330
171
102
}
330
79
100
AcDbEntity
  8
1
  6
Continuous
 62
     2
100
AcDbCircle
 10
167.4125058212289
 20
-41.47442123291131
 30
0.0
 40
1.000000000000069
100
AcDbArc
 50
118.3007557660163
 51
180.0
  0
ARC
  5
138
102
{ACAD_REACTORS
330
171
102
}
330
79
100
AcDbEntity
  8
1
  6
Continuous
 62
     2
100
AcDbCircle
 10
168.4520142847632
 20
-40.11965697238014
 30
0.0
 40
0.2999999999999453
100
AcDbArc
 50
43.29018595585738
 51
118.3007557660066
  0
MTEXT
  5
13A
330
79
100
AcDbEntity
  8
1
 62
     3
100
AcDbMText
 10
51.01250582122884
 20
-267.9463579205859
 30
0.0
 40
2.5
 41
0.0
 71
     5
 72
     1
  1
BNC-BR
  7
CONVERTER_15
 73
     1
 44
1.0
  0
MTEXT
  5
13B
330
79
100
AcDbEntity
  8
1
 62
     3
100
AcDbMText
 10
163.0125058212288
 20
-237.4463579205859
 30
0.0
 40
2.5
 41
0.0
 71
     5
 72
     1
  1
t=2.5
  7
CONVERTER_11
 73
     1
 44
1.0
  0
MTEXT
  5
13C
330
79
100
AcDbEntity
  8
1
 62
     3
100
AcDbMText
 10
148.0125058212288
 20
-237.4463579205859
 30
0.0
 40
2.5
 41
0.0
 71
     5
 72
     1
  1
1
  7
CONVERTER_11
 73
     1
 44
1.0
  0
MTEXT
  5
13D
330
79
100
AcDbEntity
  8
1
 62
     3
100
AcDbMText
 10
138.0125058212288
 20
-237.4463579205859
 30
0.0
 40
2.5
 41
0.0
 71
     5
 72
     1
  1
Ni
  7
CONVERTER_11
 73
     1
 44
1.0
  0
MTEXT
  5
13E
330
79
100
AcDbEntity
  8
1
 62
     3
100
AcDbMText
 10
118.0125058212288
 20
-237.4463579205859
 30
0.0
 40
2.5
 41
0.0
 71
     5
 72
     1
  1
黄銅
  7
CONVERTER_12
 73
     1
 44
1.0
  0
MTEXT
  5
13F
330
79
100
AcDbEntity
  8
1
 62
     3
100
AcDbMText
 10
89.01250582122884
 20
-237.4463579205859
 30
0.0
 40
2.5
 41
0.0
 71
     5
 72
     1
  1
六角ナット
  7
CONVERTER_12
 73
     1
 44
1.0
  0
MTEXT
  5
140
330
79
100
AcDbEntity
  8
1
 62
     3
100
AcDbMText
 10
70.01250582122884
 20
-237.4463579205859
 30
0.0
 40
2.5
 41
0.0
 71
     5
 72
     1
  1
5
  7
CONVERTER_11
 73
     1
 44
1.0
  0
MTEXT
  5
141
330
79
100
AcDbEntity
  8
1
 62
     3
100
AcDbMText
 10
70.01250582122884
 20
-242.4463579205859
 30
0.0
 40
2.5
 41
0.0
 71
     5
 72
     1
  1
4
  7
CONVERTER_11
 73
     1
 44
1.0
  0
MTEXT
  5
142
330
79
100
AcDbEntity
  8
1
 62
     3
100
AcDbMText
 10
89.01250582122884
 20
-242.4463579205859
 30
0.0
 40
2.5
 41
0.0
 71
     5
 72
     1
  1
アースラグ
  7
CONVERTER_12
 73
     1
 44
1.0
  0
MTEXT
  5
143
330
79
100
AcDbEntity
  8
1
 62
     3
100
AcDbMText
 10
118.0125058212288
 20
-242.4463579205859
 30
0.0
 40
2.5
 41
0.0
 71
     5
 72
     1
  1
黄銅
  7
CONVERTER_12
 73
     1
 44
1.0
  0
MTEXT
  5
144
330
79
100
AcDbEntity
  8
1
 62
     3
100
AcDbMText
 10
138.0125058212288
 20
-242.4463579205859
 30
0.0
 40
2.5
 41
0.0
 71
     5
 72
     1
  1
Ag
  7
CONVERTER_11
 73
     1
 44
1.0
  0
MTEXT
  5
145
330
79
100
AcDbEntity
  8
1
 62
     3
100
AcDbMText
 10
148.0125058212288
 20
-242.4463579205859
 30
0.0
 40
2.5
 41
0.0
 71
     5
 72
     1
  1
1
  7
CONVERTER_11
 73
     1
 44
1.0
  0
MTEXT
  5
146
330
79
100
AcDbEntity
  8
1
 62
     3
100
AcDbMText
 10
163.0125058212288
 20
-242.4463579205859
 30
0.0
 40
2.5
 41
0.0
 71
     5
 72
     1
  1
t=0.6
  7
CONVERTER_11
 73
     1
 44
1.0
  0
MTEXT
  5
147
330
79
100
AcDbEntity
  8
1
 62
     3
100
AcDbMText
 10
163.0125058212288
 20
-247.4463579205859
 30
0.0
 40
2.5
 41
0.0
 71
     5
 72
     1
  1
--
  7
CONVERTER_11
 73
     1
 44
1.0
  0
MTEXT
  5
148
330
79
100
AcDbEntity
  8
1
 62
     3
100
AcDbMText
 10
148.0125058212288
 20
-247.4463579205859
 30
0.0
 40
2.5
 41
0.0
 71
     5
 72
     1
  1
1
  7
CONVERTER_11
 73
     1
 44
1.0
  0
MTEXT
  5
149
330
79
100
AcDbEntity
  8
1
 62
     3
100
AcDbMText
 10
138.0125058212288
 20
-247.4463579205859
 30
0.0
 40
2.5
 41
0.0
 71
     5
 72
     1
  1
Ag
  7
CONVERTER_11
 73
     1
 44
1.0
  0
MTEXT
  5
14A
330
79
100
AcDbEntity
  8
1
 62
     3
100
AcDbMText
 10
118.0125058212288
 20
-247.4463579205859
 30
0.0
 40
2.5
 41
0.0
 71
     5
 72
     1
  1
リン青銅
  7
CONVERTER_12
 73
     1
 44
1.0
  0
MTEXT
  5
14B
330
79
100
AcDbEntity
  8
1
 62
     3
100
AcDbMText
 10
89.01250582122884
 20
-247.4463579205859
 30
0.0
 40
2.5
 41
0.0
 71
     5
 72
     1
  1
中心コンタクト
  7
CONVERTER_12
 73
     1
 44
1.0
  0
MTEXT
  5
14C
330
79
100
AcDbEntity
  8
1
 62
     3
100
AcDbMText
 10
70.01250582122884
 20
-247.4463579205859
 30
0.0
 40
2.5
 41
0.0
 71
     5
 72
     1
  1
3
  7
CONVERTER_11
 73
     1
 44
1.0
  0
MTEXT
  5
14D
330
79
100
AcDbEntity
  8
1
 62
     3
100
AcDbMText
 10
70.01250582122884
 20
-252.4463579205859
 30
0.0
 40
2.5
 41
0.0
 71
     5
 72
     1
  1
2
  7
CONVERTER_11
 73
     1
 44
1.0
  0
MTEXT
  5
14E
330
79
100
AcDbEntity
  8
1
 62
     3
100
AcDbMText
 10
89.01250582122884
 20
-252.4463579205859
 30
0.0
 40
2.5
 41
0.0
 71
     5
 72
     1
  1
絶縁体
  7
CONVERTER_12
 73
     1
 44
1.0
  0
MTEXT
  5
14F
330
79
100
AcDbEntity
  8
1
 62
     3
100
AcDbMText
 10
118.0125058212288
 20
-252.4463579205859
 30
0.0
 40
2.5
 41
0.0
 71
     5
 72
     1
  1
ポリアセタール樹脂
  7
CONVERTER_12
 73
     1
 44
1.0
  0
MTEXT
  5
150
330
79
100
AcDbEntity
  8
1
 62
     3
100
AcDbMText
 10
138.0125058212288
 20
-252.4463579205859
 30
0.0
 40
2.5
 41
0.0
 71
     5
 72
     1
  1
--
  7
CONVERTER_11
 73
     1
 44
1.0
  0
MTEXT
  5
151
330
79
100
AcDbEntity
  8
1
 62
     3
100
AcDbMText
 10
148.0125058212288
 20
-252.4463579205859
 30
0.0
 40
2.5
 41
0.0
 71
     5
 72
     1
  1
1
  7
CONVERTER_11
 73
     1
 44
1.0
  0
MTEXT
  5
152
330
79
100
AcDbEntity
  8
1
 62
     3
100
AcDbMText
 10
163.0125058212288
 20
-252.4463579205859
 30
0.0
 40
2.5
 41
0.0
 71
     5
 72
     1
  1
--
  7
CONVERTER_11
 73
     1
 44
1.0
  0
MTEXT
  5
153
330
79
100
AcDbEntity
  8
1
 62
     3
100
AcDbMText
 10
163.0125058212288
 20
-257.4463579205859
 30
0.0
 40
2.5
 41
0.0
 71
     5
 72
     1
  1
--
  7
CONVERTER_11
 73
     1
 44
1.0
  0
MTEXT
  5
154
330
79
100
AcDbEntity
  8
1
 62
     3
100
AcDbMText
 10
148.0125058212288
 20
-257.4463579205859
 30
0.0
 40
2.5
 41
0.0
 71
     5
 72
     1
  1
1
  7
CONVERTER_11
 73
     1
 44
1.0
  0
MTEXT
  5
155
330
79
100
AcDbEntity
  8
1
 62
     3
100
AcDbMText
 10
138.0125058212288
 20
-257.4463579205859
 30
0.0
 40
2.5
 41
0.0
 71
     5
 72
     1
  1
Ni
  7
CONVERTER_11
 73
     1
 44
1.0
  0
MTEXT
  5
156
330
79
100
AcDbEntity
  8
1
 62
     3
100
AcDbMText
 10
118.0125058212288
 20
-257.4463579205859
 30
0.0
 40
2.5
 41
0.0
 71
     5
 72
     1
  1
黄銅
  7
CONVERTER_12
 73
     1
 44
1.0
  0
MTEXT
  5
157
330
79
100
AcDbEntity
  8
1
 62
     3
100
AcDbMText
 10
89.01250582122884
 20
-257.4463579205859
 30
0.0
 40
2.5
 41
0.0
 71
     5
 72
     1
  1
シェル
  7
CONVERTER_12
 73
     1
 44
1.0
  0
MTEXT
  5
158
330
79
100
AcDbEntity
  8
1
 62
     3
100
AcDbMText
 10
70.01250582122884
 20
-257.4463579205859
 30
0.0
 40
2.5
 41
0.0
 71
     5
 72
     1
  1
1
  7
CONVERTER_11
 73
     1
 44
1.0
  0
MTEXT
  5
15A
330
79
100
AcDbEntity
  8
1
 62
     3
100
AcDbMText
 10
54.01250582122884
 20
-262.4463579205859
 30
0.0
 40
2.5
 41
0.0
 71
     5
 72
     1
  1
担当
  7
CONVERTER_16
 73
     1
 44
1.0
  0
MTEXT
  5
15B
330
79
100
AcDbEntity
  8
1
 62
     3
100
AcDbMText
 10
-1.48749417877116
 20
-267.9463579205859
 30
0.0
 40
2.5
 41
0.0
 71
     5
 72
     1
  1
形式
  7
CONVERTER_16
 73
     1
 44
1.0
  0
MTEXT
  5
15C
330
79
100
AcDbEntity
  8
1
 62
     3
100
AcDbMText
 10
76.51250582122884
 20
-281.9463579205859
 30
0.0
 40
3.0
 41
0.0
 71
     5
 72
     1
  1
承認
  7
CONVERTER_16
 73
     1
 44
1.0
  0
MTEXT
  5
15D
330
79
100
AcDbEntity
  8
1
 62
     3
100
AcDbMText
 10
50.51250582122884
 20
-281.9463579205859
 30
0.0
 40
3.0
 41
0.0
 71
     5
 72
     1
  1
検図
  7
CONVERTER_16
 73
     1
 44
1.0
  0
MTEXT
  5
15E
330
79
100
AcDbEntity
  8
1
 62
     3
100
AcDbMText
 10
24.51250582122884
 20
-281.9463579205859
 30
0.0
 40
3.0
 41
0.0
 71
     5
 72
     1
  1
製図
  7
CONVERTER_16
 73
     1
 44
1.0
  0
MTEXT
  5
15F
330
79
100
AcDbEntity
  8
1
 62
     3
100
AcDbMText
 10
-1.48749417877116
 20
-281.9463579205859
 30
0.0
 40
3.0
 41
0.0
 71
     5
 72
     1
  1
設計
  7
CONVERTER_16
 73
     1
 44
1.0
  0
MTEXT
  5
160
330
79
100
AcDbEntity
  8
1
 62
     3
100
AcDbMText
 10
69.01250582122884
 20
-273.9463579205859
 30
0.0
 40
2.5
 41
0.0
 71
     5
 72
     1
  1
尺　度
  7
CONVERTER_16
 73
     1
 44
1.0
  0
MTEXT
  5
161
330
79
100
AcDbEntity
  8
1
 62
     3
100
AcDbMText
 10
163.0125058212288
 20
-262.4463579205859
 30
0.0
 40
2.5
 41
0.0
 71
     5
 72
     1
  1
備　　考
  7
CONVERTER_16
 73
     1
 44
1.0
  0
MTEXT
  5
162
330
79
100
AcDbEntity
  8
1
 62
     3
100
AcDbMText
 10
148.0125058212288
 20
-262.4463579205859
 30
0.0
 40
2.5
 41
0.0
 71
     5
 72
     1
  1
数量
  7
CONVERTER_16
 73
     1
 44
1.0
  0
MTEXT
  5
163
330
79
100
AcDbEntity
  8
1
 62
     3
100
AcDbMText
 10
138.0125058212288
 20
-262.4463579205859
 30
0.0
 40
2.5
 41
0.0
 71
     5
 72
     1
  1
処　　理
  7
CONVERTER_16
 73
     1
 44
1.0
  0
MTEXT
  5
164
330
79
100
AcDbEntity
  8
1
 62
     3
100
AcDbMText
 10
118.0125058212288
 20
-262.4463579205859
 30
0.0
 40
2.5
 41
0.0
 71
     5
 72
     1
  1
材　　質
  7
CONVERTER_16
 73
     1
 44
1.0
  0
MTEXT
  5
165
330
79
100
AcDbEntity
  8
1
 62
     3
100
AcDbMText
 10
89.01250582122884
 20
-262.4463579205859
 30
0.0
 40
2.5
 41
0.0
 71
     5
 72
     1
  1
部  品  名
  7
CONVERTER_16
 73
     1
 44
1.0
  0
MTEXT
  5
166
330
79
100
AcDbEntity
  8
1
 62
     3
100
AcDbMText
 10
70.01250582122884
 20
-262.4463579205859
 30
0.0
 40
2.5
 41
0.0
 71
     5
 72
     1
  1
符号
  7
CONVERTER_16
 73
     1
 44
1.0
  0
MTEXT
  5
167
330
79
100
AcDbEntity
  8
1
 62
     3
100
AcDbMText
 10
62.01250582122884
 20
-262.4463579205859
 30
0.0
 40
2.5
 41
0.0
 71
     5
 72
     1
  1
承認
  7
CONVERTER_16
 73
     1
 44
1.0
  0
TEXT
  5
168
330
79
100
AcDbEntity
  8
1
 62
     3
100
AcDbText
 10
100.3116972622272
 20
-268.5319484649669
 30
0.0
 40
2.5
  1
製品名
 41
0.89
  7
CONVERTER_16
100
AcDbText
  0
TEXT
  5
169
330
79
100
AcDbEntity
  8
1
 62
     3
100
AcDbText
 10
100.3116972622272
 20
-280.6509435526119
 30
0.0
 40
2.5
  1
図面番号
 41
0.89
  7
CONVERTER_16
100
AcDbText
  0
MTEXT
  5
16A
330
79
100
AcDbEntity
  8
1
 62
     3
100
AcDbMText
 10
33.51250582122884
 20
-262.4463579205859
 30
0.0
 40
2.5
 41
0.0
 71
     5
 72
     1
  1
改　訂　記　事
  7
CONVERTER_16
 73
     1
 44
1.0
  0
MTEXT
  5
16B
330
79
100
AcDbEntity
  8
1
 62
     3
100
AcDbMText
 10
10.01250582122884
 20
-262.4463579205859
 30
0.0
 40
2.5
 41
0.0
 71
     5
 72
     1
  1
年　月　日
  7
CONVERTER_16
 73
     1
 44
1.0
  0
MTEXT
  5
16C
330
79
100
AcDbEntity
  8
1
 62
     3
100
AcDbMText
 10
-1.48749417877116
 20
-262.4463579205859
 30
0.0
 40
2.5
 41
0.0
 71
     5
 72
     1
  1
符号
  7
CONVERTER_16
 73
     1
 44
1.0
  0
MTEXT
  5
16D
330
79
100
AcDbEntity
  8
1
 62
     3
100
AcDbMText
 10
11.51250582122884
 20
-273.9463579205859
 30
0.0
 40
2.5
 41
0.0
 71
     5
 72
     1
  1
第　三　角　図　法
  7
CONVERTER_16
 73
     1
 44
1.0
  0
MTEXT
  5
16E
330
79
100
AcDbEntity
  8
1
 62
     3
100
AcDbMText
 10
46.51250582122884
 20
-273.9463579205859
 30
0.0
 40
2.5
 41
0.0
 71
     5
 72
     1
  1
単　位　ｍｍ
  7
CONVERTER_16
 73
     1
 44
1.0
  0
TEXT
  5
170
330
79
100
AcDbEntity
  8
1
 62
     3
100
AcDbText
 10
38.79524419939412
 20
-291.5901966390108
 30
0.0
 40
3.5
  1
STACK ELECTRONICS CO., LTD.
 41
0.95
 51
10.0
  7
CONVERTER_17
100
AcDbText
  0
HATCH
  5
171
330
79
100
AcDbEntity
  8
1
  6
Continuous
 62
     2
100
AcDbHatch
 10
0.0
 20
0.0
 30
0.0
210
0.0
220
0.0
230
1.0
  2
_USER
 70
     0
 71
     1
 91
        1
 92
        1
 93
       24
 72
     1
 10
169.0125058212288
 20
-38.40020407443177
 11
171.0125058212287
 21
-38.40020407443177
 72
     1
 10
171.0125058212287
 20
-38.40020407443177
 11
168.5125058212288
 21
-39.74635792058558
 72
     1
 10
168.5125058212288
 20
-39.74635792058558
 11
168.3097843378528
 21
-39.85551564240365
 72
     2
 10
168.4520142847632
 20
-40.11965697238014
 40
0.2999999999999453
 50
241.6992442339934
 51
316.7098140441426
 73
     0
 72
     1
 10
168.6703813504666
 20
-39.91394886700738
 11
171.0125058212287
 21
-42.40020407443177
 72
     1
 10
171.0125058212287
 20
-42.40020407443177
 11
169.7125058212289
 21
-42.40020407443177
 72
     1
 10
169.7125058212289
 20
-42.40020407443177
 11
168.1762575853551
 21
-40.76941748558119
 72
     2
 10
167.4483673663436
 20
-41.45511117015718
 40
1.000000000000006
 50
43.29018595585617
 51
118.3007557660106
 73
     1
 72
     1
 10
166.9742675433085
 20
-40.57464007023503
 11
166.9384059981937
 21
-40.59395013298916
 72
     2
 10
167.4125058212289
 20
-41.47442123291131
 40
1.000000000000069
 50
118.3007557660163
 51
180.0
 73
     1
 72
     1
 10
166.4125058212289
 20
-41.47442123291131
 11
166.4125058212289
 21
-42.40020407443177
 72
     1
 10
166.4125058212289
 20
-42.40020407443177
 11
165.4125058212289
 21
-42.40020407443177
 72
     1
 10
165.4125058212289
 20
-42.40020407443177
 11
165.4125058212289
 21
-39.20020407443184
 72
     1
 10
165.4125058212289
 20
-39.20020407443184
 11
162.1125058212288
 21
-39.20020407443184
 72
     2
 10
162.1125058212288
 20
-40.40020407443177
 40
1.199999999999932
 50
90.0
 51
180.0
 73
     1
 72
     2
 10
162.1125058212288
 20
-40.40020407443177
 40
1.199999999999903
 50
180.0
 51
270.0
 73
     1
 72
     1
 10
162.1125058212288
 20
-41.60020407443182
 11
164.8125058212289
 21
-41.60020407443182
 72
     1
 10
164.8125058212289
 20
-41.60020407443182
 11
164.8125058212289
 21
-42.40020407443177
 72
     1
 10
164.8125058212289
 20
-42.40020407443177
 11
161.8125058212289
 21
-42.40020407443177
 72
     2
 10
161.8125058212289
 20
-40.40020407443177
 40
2.0
 50
90.0
 51
180.0
 73
     0
 72
     2
 10
161.8125058212289
 20
-40.40020407443177
 40
2.0
 50
180.0
 51
270.0
 73
     0
 72
     1
 10
161.8125058212289
 20
-38.40020407443177
 11
166.4125058212289
 21
-38.40020407443177
 72
     1
 10
166.4125058212289
 20
-38.40020407443177
 11
166.4125058212289
 21
-39.80020407443175
 72
     1
 10
166.4125058212289
 20
-39.80020407443175
 11
169.0125058212288
 21
-38.40020407443177
 97
       24
330
11E
330
11F
330
125
330
138
330
120
330
121
330
122
330
136
330
123
330
137
330
124
330
11B
330
11A
330
119
330
134
330
135
330
118
330
117
330
114
330
133
330
132
330
116
330
11C
330
11D
 75
     1
 76
     0
 52
45.0
 41
0.1
 77
     0
 78
     1
 53
45.0
 43
0.0
 44
0.0
 45
-0.0707106781186548
 46
0.0707106781186548
 79
     0
 98
        1
 10
0.0
 20
0.0
  0
HATCH
  5
172
330
79
100
AcDbEntity
  8
1
  6
Continuous
 62
     2
100
AcDbHatch
 10
0.0
 20
0.0
 30
0.0
210
0.0
220
0.0
230
1.0
  2
_USER
 70
     0
 71
     1
 91
        2
 92
        1
 93
       10
 72
     1
 10
160.2125058212288
 20
-42.40020407443177
 11
159.8125058212289
 21
-42.40020407443177
 72
     1
 10
159.8125058212289
 20
-42.40020407443177
 11
159.2125058212288
 21
-42.40020407443177
 72
     1
 10
159.2125058212288
 20
-42.40020407443177
 11
158.6875058212289
 21
-41.70020407443184
 72
     1
 10
158.6875058212289
 20
-41.70020407443184
 11
154.9375058212289
 21
-41.70020407443184
 72
     1
 10
154.9375058212289
 20
-41.70020407443184
 11
154.4125058212289
 21
-42.40020407443177
 72
     1
 10
154.4125058212289
 20
-42.40020407443177
 11
153.4125058212289
 21
-42.40020407443177
 72
     1
 10
153.4125058212289
 20
-42.40020407443177
 11
156.1725058212288
 21
-38.72020407443182
 72
     2
 10
156.8125058212289
 20
-39.20020407443184
 40
0.8000000000000682
 50
216.8698976458408
 51
270.0
 73
     0
 72
     2
 10
156.8125058212289
 20
-39.20020407443184
 40
0.7999999999999318
 50
270.0
 51
323.1301023541507
 73
     0
 72
     1
 10
157.4525058212288
 20
-38.72020407443182
 11
160.2125058212288
 21
-42.40020407443177
 97
       10
330
10C
330
115
330
10D
330
10E
330
10F
330
110
330
10A
330
127
330
128
330
10B
 92
       16
 93
        4
 72
     1
 10
156.6525058212288
 20
-39.41353740776509
 11
155.6125058212288
 21
-40.80020407443175
 72
     1
 10
155.6125058212288
 20
-40.80020407443175
 11
158.0125058212288
 21
-40.80020407443175
 72
     1
 10
158.0125058212288
 20
-40.80020407443175
 11
156.9725058212289
 21
-39.41353740776509
 72
     2
 10
156.8125058212289
 20
-39.5335374077651
 40
0.2000000000000043
 50
36.86989764584727
 51
143.1301023541723
 73
     1
 97
        4
330
113
330
112
330
111
330
131
 75
     1
 76
     0
 52
45.0
 41
0.1
 77
     0
 78
     1
 53
45.0
 43
0.0
 44
0.0
 45
-0.0707106781186548
 46
0.0707106781186548
 79
     0
 98
        1
 10
0.0
 20
0.0
  0
HATCH
  5
173
330
79
100
AcDbEntity
  8
1
  6
Continuous
 62
     2
100
AcDbHatch
 10
0.0
 20
0.0
 30
0.0
210
0.0
220
0.0
230
1.0
  2
_USER
 70
     0
 71
     1
 91
        1
 92
        1
 93
       22
 72
     1
 10
154.3125058212289
 20
-38.40020407443177
 11
155.0125058212288
 21
-38.40020407443177
 72
     1
 10
155.0125058212288
 20
-38.40020407443177
 11
155.0125058212288
 21
-39.20020407443184
 72
     1
 10
155.0125058212288
 20
-39.20020407443184
 11
154.3125058212289
 21
-39.20020407443184
 72
     1
 10
154.3125058212289
 20
-39.20020407443184
 11
152.6125058212288
 21
-39.20020407443184
 72
     1
 10
152.6125058212288
 20
-39.20020407443184
 11
152.6125058212288
 21
-42.40020407443177
 72
     1
 10
152.6125058212288
 20
-42.40020407443177
 11
151.5125058212288
 21
-42.40020407443177
 72
     1
 10
151.5125058212288
 20
-42.40020407443177
 11
151.5125058212288
 21
-39.20020407443184
 72
     1
 10
151.5125058212288
 20
-39.20020407443184
 11
146.4125058212289
 21
-39.20020407443184
 72
     2
 10
146.4125058212289
 20
-39.60020407443182
 40
0.3999999999999844
 50
90.0
 51
180.0
 73
     1
 72
     2
 10
146.4125058212289
 20
-39.60020407443182
 40
0.4000000000000909
 50
180.0
 51
270.0
 73
     1
 72
     1
 10
146.4125058212289
 20
-40.00020407443179
 11
149.2125058212288
 21
-40.00020407443179
 72
     2
 10
149.2125058212288
 20
-41.20020407443184
 40
1.200000000000102
 50
270.0
 51
360.0
 73
     0
 72
     2
 10
149.2125058212288
 20
-41.20020407443184
 40
1.199999999999932
 50
0.0
 51
90.0
 73
     0
 72
     1
 10
149.2125058212288
 20
-42.40020407443177
 11
145.0125058212288
 21
-42.40020407443177
 72
     1
 10
145.0125058212288
 20
-42.40020407443177
 11
145.0125058212288
 21
-41.60020407443182
 72
     1
 10
145.0125058212288
 20
-41.60020407443182
 11
149.0125058212288
 21
-41.60020407443182
 72
     2
 10
149.0125058212288
 20
-41.20020407443184
 40
0.3999999999999844
 50
270.0
 51
360.0
 73
     1
 72
     2
 10
149.0125058212288
 20
-41.20020407443184
 40
0.4000000000000909
 50
0.0
 51
90.0
 73
     1
 72
     1
 10
149.0125058212288
 20
-40.80020407443175
 11
146.2125058212288
 21
-40.80020407443175
 72
     2
 10
146.2125058212288
 20
-39.60020407443182
 40
1.199999999999989
 50
90.0
 51
180.0
 73
     0
 72
     2
 10
146.2125058212288
 20
-39.60020407443182
 40
1.200000000000053
 50
180.0
 51
270.0
 73
     0
 72
     1
 10
146.2125058212288
 20
-38.40020407443177
 11
154.3125058212289
 21
-38.40020407443177
 97
       22
330
107
330
108
330
109
330
FD
330
FC
330
106
330
105
330
104
330
12B
330
12C
330
103
330
12F
330
130
330
102
330
101
330
100
330
12E
330
12D
330
FF
330
12A
330
129
330
FE
 75
     1
 76
     0
 52
45.0
 41
0.1
 77
     0
 78
     1
 53
45.0
 43
0.0
 44
0.0
 45
-0.0707106781186548
 46
0.0707106781186548
 79
     0
 98
        1
 10
0.0
 20
0.0
  0
ENDBLK
  5
7C
330
79
100
AcDbEntity
  8
0
100
AcDbBlockEnd
  0
BLOCK
  5
31C
330
313
100
AcDbEntity
  8
0
100
AcDbBlockBegin
  2
*D3
 70
     1
 10
0.0
 20
0.0
 30
0.0
  3
*D3
  1

  0
LINE
  5
314
330
313
100
AcDbEntity
  8
1
  6
Continuous
 62
     2
100
AcDbLine
 10
1.07327835256042
 20
-108.0359292192609
 30
0.0
 11
9.27327835256115
 21
-108.0359292192609
 31
0.0
  0
LINE
  5
315
330
313
100
AcDbEntity
  8
1
  6
Continuous
 62
     2
100
AcDbLine
 10
9.27327835256115
 20
-97.03084960831372
 30
0.0
 11
9.27327835256115
 21
-108.5359292192609
 31
0.0
  0
LINE
  5
316
330
313
100
AcDbEntity
  8
1
  6
Continuous
 62
     2
100
AcDbLine
 10
1.07327835256042
 20
-97.03084960831372
 30
0.0
 11
1.07327835256042
 21
-108.5359292192609
 31
0.0
  0
LINE
  5
317
330
313
100
AcDbEntity
  8
1
 62
     2
100
AcDbLine
 10
1.07327835256042
 20
-108.0359292192609
 30
0.0
 11
1.94827835256042
 21
-107.8014736758837
 31
0.0
  0
LINE
  5
318
330
313
100
AcDbEntity
  8
1
 62
     2
100
AcDbLine
 10
1.07327835256042
 20
-108.0359292192609
 30
0.0
 11
1.94827835256042
 21
-108.2703847626381
 31
0.0
  0
LINE
  5
319
330
313
100
AcDbEntity
  8
1
 62
     2
100
AcDbLine
 10
9.27327835256115
 20
-108.0359292192609
 30
0.0
 11
8.39827835256115
 21
-108.2703847626381
 31
0.0
  0
LINE
  5
31A
330
313
100
AcDbEntity
  8
1
 62
     2
100
AcDbLine
 10
9.27327835256115
 20
-108.0359292192609
 30
0.0
 11
8.39827835256115
 21
-107.8014736758837
 31
0.0
  0
MTEXT
  5
31B
330
313
100
AcDbEntity
  8
1
 62
     3
100
AcDbMText
 10
2.16975446496981
 20
-107.0671792192609
 30
0.0
 40
1.25
 41
0.0
 71
     7
 72
     1
  1
\C3;8.2\C3;\H0.875;\S+0.3^ -0;
  7
CONVERTER_11
 11
0.9999999999970619
 21
2.424068405545306E-6
 31
0.0
 73
     1
 44
0.45454545454545
  0
ENDBLK
  5
31D
330
313
100
AcDbEntity
  8
0
100
AcDbBlockEnd
  0
BLOCK
  5
31F
330
31E
100
AcDbEntity
  8
0
100
AcDbBlockBegin
  2
_OPEN30
 70
     0
 10
0.0
 20
0.0
 30
0.0
  3
_OPEN30
  1

  0
LINE
  5
321
330
31E
100
AcDbEntity
  8
0
  6
ByBlock
 62
     0
370
    -2
100
AcDbLine
 10
-1.0
 20
0.267949
 30
0.0
 11
0.0
 21
0.0
 31
0.0
  0
LINE
  5
322
330
31E
100
AcDbEntity
  8
0
  6
ByBlock
 62
     0
370
    -2
100
AcDbLine
 10
0.0
 20
0.0
 30
0.0
 11
-1.0
 21
-0.267949
 31
0.0
  0
LINE
  5
323
330
31E
100
AcDbEntity
  8
0
  6
ByBlock
 62
     0
370
    -2
100
AcDbLine
 10
0.0
 20
0.0
 30
0.0
 11
-1.0
 21
0.0
 31
0.0
  0
ENDBLK
  5
320
330
31E
100
AcDbEntity
  8
0
100
AcDbBlockEnd
  0
BLOCK
  5
32F
330
326
100
AcDbEntity
  8
0
100
AcDbBlockBegin
  2
*D5
 70
     1
 10
0.0
 20
0.0
 30
0.0
  3
*D5
  1

  0
LINE
  5
327
330
326
100
AcDbEntity
  8
1
  6
Continuous
 62
     2
100
AcDbLine
 10
27.62125429728282
 20
-68.5099944793539
 30
0.0
 11
55.1212542972828
 21
-68.5099944793539
 31
0.0
  0
LINE
  5
328
330
326
100
AcDbEntity
  8
1
  6
Continuous
 62
     2
100
AcDbLine
 10
27.62125429728282
 20
-51.15499447935319
 30
0.0
 11
27.62125429728282
 21
-69.0099944793539
 31
0.0
  0
LINE
  5
329
330
326
100
AcDbEntity
  8
1
  6
Continuous
 62
     2
100
AcDbLine
 10
55.1212542972828
 20
-54.76999447935292
 30
0.0
 11
55.1212542972828
 21
-69.0099944793539
 31
0.0
  0
LINE
  5
32A
330
326
100
AcDbEntity
  8
1
 62
     2
100
AcDbLine
 10
27.62125429728282
 20
-68.5099944793539
 30
0.0
 11
28.49625429728282
 21
-68.27553893597667
 31
0.0
  0
LINE
  5
32B
330
326
100
AcDbEntity
  8
1
 62
     2
100
AcDbLine
 10
27.62125429728282
 20
-68.5099944793539
 30
0.0
 11
28.49625429728282
 21
-68.74445002273114
 31
0.0
  0
LINE
  5
32C
330
326
100
AcDbEntity
  8
1
 62
     2
100
AcDbLine
 10
55.1212542972828
 20
-68.5099944793539
 30
0.0
 11
54.2462542972828
 21
-68.74445002273114
 31
0.0
  0
LINE
  5
32D
330
326
100
AcDbEntity
  8
1
 62
     2
100
AcDbLine
 10
55.1212542972828
 20
-68.5099944793539
 30
0.0
 11
54.2462542972828
 21
-68.27553893597667
 31
0.0
  0
MTEXT
  5
32E
330
326
100
AcDbEntity
  8
1
 62
     3
100
AcDbMText
 10
38.66564584143008
 20
-68.00999696402403
 30
0.0
 40
1.25
 41
0.0
 71
     7
 72
     1
  1
\C3;(\C3;27.5\C3;)
  7
CONVERTER_11
 11
0.9999999999970619
 21
2.424068405545306E-6
 31
0.0
 73
     1
 44
0.45454545454545
  0
ENDBLK
  5
330
330
326
100
AcDbEntity
  8
0
100
AcDbBlockEnd
  0
BLOCK
  5
33C
330
333
100
AcDbEntity
  8
0
100
AcDbBlockBegin
  2
*D6
 70
     1
 10
0.0
 20
0.0
 30
0.0
  3
*D6
  1

  0
LINE
  5
334
330
333
100
AcDbEntity
  8
1
  6
Continuous
 62
     2
100
AcDbLine
 10
33.2800023833167
 20
-115.5900003267076
 30
0.0
 11
37.38000238331668
 21
-115.5900003267076
 31
0.0
  0
LINE
  5
335
330
333
100
AcDbEntity
  8
1
  6
Continuous
 62
     2
100
AcDbLine
 10
37.38000238331668
 20
-105.4455220056647
 30
0.0
 11
37.38000238331668
 21
-116.0900003267076
 31
0.0
  0
LINE
  5
336
330
333
100
AcDbEntity
  8
1
  6
Continuous
 62
     2
100
AcDbLine
 10
33.2800023833167
 20
-105.4455220056647
 30
0.0
 11
33.2800023833167
 21
-116.0900003267076
 31
0.0
  0
LINE
  5
337
330
333
100
AcDbEntity
  8
1
 62
     2
100
AcDbLine
 10
33.2800023833167
 20
-115.5900003267076
 30
0.0
 11
34.1550023833167
 21
-115.3555447833304
 31
0.0
  0
LINE
  5
338
330
333
100
AcDbEntity
  8
1
 62
     2
100
AcDbLine
 10
33.2800023833167
 20
-115.5900003267076
 30
0.0
 11
34.1550023833167
 21
-115.8244558700848
 31
0.0
  0
LINE
  5
339
330
333
100
AcDbEntity
  8
1
 62
     2
100
AcDbLine
 10
37.38000238331668
 20
-115.5900003267076
 30
0.0
 11
36.50500238331668
 21
-115.8244558700848
 31
0.0
  0
LINE
  5
33A
330
333
100
AcDbEntity
  8
1
 62
     2
100
AcDbLine
 10
37.38000238331668
 20
-115.5900003267076
 30
0.0
 11
36.50500238331668
 21
-115.3555447833304
 31
0.0
  0
MTEXT
  5
33B
330
333
100
AcDbEntity
  8
1
 62
     3
100
AcDbMText
 10
34.24553331449156
 20
-115.0900003267076
 30
0.0
 40
1.25
 41
0.0
 71
     7
 72
     1
  1
4.1
  7
CONVERTER_11
 11
0.9999999999970619
 21
2.424068405545306E-6
 31
0.0
 73
     1
 44
0.45454545454545
  0
ENDBLK
  5
33D
330
333
100
AcDbEntity
  8
0
100
AcDbBlockEnd
  0
BLOCK
  5
349
330
340
100
AcDbEntity
  8
0
100
AcDbBlockBegin
  2
*D7
 70
     1
 10
0.0
 20
0.0
 30
0.0
  3
*D7
  1

  0
LINE
  5
341
330
340
100
AcDbEntity
  8
1
  6
Continuous
 62
     2
100
AcDbLine
 10
28.78000238331698
 20
-73.39000032670795
 30
0.0
 11
41.88000238331641
 21
-73.39000032670795
 31
0.0
  0
LINE
  5
342
330
340
100
AcDbEntity
  8
1
  6
Continuous
 62
     2
100
AcDbLine
 10
41.88000238331641
 20
-83.94000032670766
 30
0.0
 11
41.88000238331641
 21
-72.89000032670795
 31
0.0
  0
LINE
  5
343
330
340
100
AcDbEntity
  8
1
  6
Continuous
 62
     2
100
AcDbLine
 10
28.78000238331698
 20
-83.94000032670766
 30
0.0
 11
28.78000238331698
 21
-72.89000032670795
 31
0.0
  0
LINE
  5
344
330
340
100
AcDbEntity
  8
1
 62
     2
100
AcDbLine
 10
28.78000238331698
 20
-73.39000032670795
 30
0.0
 11
29.65500238331698
 21
-73.15554478333071
 31
0.0
  0
LINE
  5
345
330
340
100
AcDbEntity
  8
1
 62
     2
100
AcDbLine
 10
28.78000238331698
 20
-73.39000032670795
 30
0.0
 11
29.65500238331698
 21
-73.62445587008519
 31
0.0
  0
LINE
  5
346
330
340
100
AcDbEntity
  8
1
 62
     2
100
AcDbLine
 10
41.88000238331641
 20
-73.39000032670795
 30
0.0
 11
41.00500238331641
 21
-73.62445587008519
 31
0.0
  0
LINE
  5
347
330
340
100
AcDbEntity
  8
1
 62
     2
100
AcDbLine
 10
41.88000238331641
 20
-73.39000032670795
 30
0.0
 11
41.00500238331641
 21
-73.15554478333071
 31
0.0
  0
MTEXT
  5
348
330
340
100
AcDbEntity
  8
1
 62
     3
100
AcDbMText
 10
34.00656272625626
 20
-72.89000032670795
 30
0.0
 40
1.25
 41
0.0
 71
     7
 72
     1
  1
13.1
  7
CONVERTER_11
 11
0.9999999999970619
 21
2.424068405545306E-6
 31
0.0
 73
     1
 44
0.45454545454545
  0
ENDBLK
  5
34A
330
340
100
AcDbEntity
  8
0
100
AcDbBlockEnd
  0
BLOCK
  5
356
330
34D
100
AcDbEntity
  8
0
100
AcDbBlockBegin
  2
*D8
 70
     1
 10
0.0
 20
0.0
 30
0.0
  3
*D8
  1

  0
LINE
  5
34E
330
34D
100
AcDbEntity
  8
1
  6
Continuous
 62
     2
100
AcDbLine
 10
49.95125429728267
 20
-77.89000032670795
 30
0.0
 11
49.95125429728267
 21
-107.0900003267076
 31
0.0
  0
LINE
  5
34F
330
34D
100
AcDbEntity
  8
1
  6
Continuous
 62
     2
100
AcDbLine
 10
35.83000238331671
 20
-107.0900003267076
 30
0.0
 11
50.45125429728267
 21
-107.0900003267076
 31
0.0
  0
LINE
  5
350
330
34D
100
AcDbEntity
  8
1
  6
Continuous
 62
     2
100
AcDbLine
 10
35.83000238331671
 20
-77.89000032670795
 30
0.0
 11
50.45125429728267
 21
-77.89000032670795
 31
0.0
  0
LINE
  5
351
330
34D
100
AcDbEntity
  8
1
 62
     2
100
AcDbLine
 10
49.95125429728267
 20
-77.89000032670795
 30
0.0
 11
50.1857098406599
 21
-78.76500032670795
 31
0.0
  0
LINE
  5
352
330
34D
100
AcDbEntity
  8
1
 62
     2
100
AcDbLine
 10
49.95125429728267
 20
-77.89000032670795
 30
0.0
 11
49.71679875390544
 21
-78.76500032670795
 31
0.0
  0
LINE
  5
353
330
34D
100
AcDbEntity
  8
1
 62
     2
100
AcDbLine
 10
49.95125429728267
 20
-107.0900003267076
 30
0.0
 11
49.71679875390544
 21
-106.2150003267076
 31
0.0
  0
LINE
  5
354
330
34D
100
AcDbEntity
  8
1
 62
     2
100
AcDbLine
 10
49.95125429728267
 20
-107.0900003267076
 30
0.0
 11
50.1857098406599
 21
-106.2150003267076
 31
0.0
  0
MTEXT
  5
355
330
34D
100
AcDbEntity
  8
1
 62
     3
100
AcDbMText
 10
49.45125429728267
 20
-93.31601447133511
 30
0.0
 40
1.25
 41
0.0
 71
     7
 72
     1
  1
29.2
  7
CONVERTER_11
 11
0.0
 21
1.0
 31
0.0
 73
     1
 44
0.45454545454545
  0
ENDBLK
  5
357
330
34D
100
AcDbEntity
  8
0
100
AcDbBlockEnd
  0
BLOCK
  5
365
330
35A
100
AcDbEntity
  8
0
100
AcDbBlockBegin
  2
*D9
 70
     1
 10
0.0
 20
0.0
 30
0.0
  3
*D9
  1

  0
LINE
  5
35B
330
35A
100
AcDbEntity
  8
1
  6
Continuous
 62
     2
100
AcDbLine
 10
36.0800023833167
 20
-111.5900003267076
 30
0.0
 11
39.99856462445814
 21
-111.5900003267076
 31
0.0
  0
LINE
  5
35C
330
35A
100
AcDbEntity
  8
1
  6
Continuous
 62
     2
100
AcDbLine
 10
34.5800023833167
 20
-111.5900003267076
 30
0.0
 11
36.0800023833167
 21
-111.5900003267076
 31
0.0
  0
LINE
  5
35D
330
35A
100
AcDbEntity
  8
1
  6
Continuous
 62
     2
100
AcDbLine
 10
32.8300023833167
 20
-111.5900003267076
 30
0.0
 11
34.5800023833167
 21
-111.5900003267076
 31
0.0
  0
LINE
  5
35E
330
35A
100
AcDbEntity
  8
1
  6
Continuous
 62
     2
100
AcDbLine
 10
36.0800023833167
 20
-104.8400003267077
 30
0.0
 11
36.0800023833167
 21
-112.0900003267076
 31
0.0
  0
LINE
  5
35F
330
35A
100
AcDbEntity
  8
1
  6
Continuous
 62
     2
100
AcDbLine
 10
34.5800023833167
 20
-104.8400003267077
 30
0.0
 11
34.5800023833167
 21
-112.0900003267076
 31
0.0
  0
LINE
  5
360
330
35A
100
AcDbEntity
  8
1
 62
     2
100
AcDbLine
 10
34.5800023833167
 20
-111.5900003267076
 30
0.0
 11
33.7050023833167
 21
-111.8244558700848
 31
0.0
  0
LINE
  5
361
330
35A
100
AcDbEntity
  8
1
 62
     2
100
AcDbLine
 10
34.5800023833167
 20
-111.5900003267076
 30
0.0
 11
33.7050023833167
 21
-111.3555447833304
 31
0.0
  0
LINE
  5
362
330
35A
100
AcDbEntity
  8
1
 62
     2
100
AcDbLine
 10
36.0800023833167
 20
-111.5900003267076
 30
0.0
 11
36.9550023833167
 21
-111.3555447833304
 31
0.0
  0
LINE
  5
363
330
35A
100
AcDbEntity
  8
1
 62
     2
100
AcDbLine
 10
36.0800023833167
 20
-111.5900003267076
 30
0.0
 11
36.9550023833167
 21
-111.8244558700848
 31
0.0
  0
MTEXT
  5
364
330
35A
100
AcDbEntity
  8
1
 62
     3
100
AcDbMText
 10
37.97668531033726
 20
-111.0900003267076
 30
0.0
 40
1.25
 41
0.0
 71
     7
 72
     1
  1
1.5
  7
CONVERTER_11
 11
0.9999999999970619
 21
2.424068405545306E-6
 31
0.0
 73
     1
 44
0.45454545454545
  0
ENDBLK
  5
366
330
35A
100
AcDbEntity
  8
0
100
AcDbBlockEnd
  0
BLOCK
  5
372
330
369
100
AcDbEntity
  8
0
100
AcDbBlockBegin
  2
*D10
 70
     1
 10
0.0
 20
0.0
 30
0.0
  3
*D10
  1

  0
LINE
  5
36A
330
369
100
AcDbEntity
  8
1
  6
Continuous
 62
     2
100
AcDbLine
 10
62.15499999999837
 20
-83.39000032670795
 30
0.0
 11
74.15499999999835
 21
-83.39000032670795
 31
0.0
  0
LINE
  5
36B
330
369
100
AcDbEntity
  8
1
  6
Continuous
 62
     2
100
AcDbLine
 10
74.15499999999835
 20
-90.48890265766398
 30
0.0
 11
74.15499999999835
 21
-82.89000032670795
 31
0.0
  0
LINE
  5
36C
330
369
100
AcDbEntity
  8
1
  6
Continuous
 62
     2
100
AcDbLine
 10
62.15499999999837
 20
-90.48890265766398
 30
0.0
 11
62.15499999999837
 21
-82.89000032670795
 31
0.0
  0
LINE
  5
36D
330
369
100
AcDbEntity
  8
1
 62
     2
100
AcDbLine
 10
62.15499999999837
 20
-83.39000032670795
 30
0.0
 11
63.02999999999837
 21
-83.15554478333071
 31
0.0
  0
LINE
  5
36E
330
369
100
AcDbEntity
  8
1
 62
     2
100
AcDbLine
 10
62.15499999999837
 20
-83.39000032670795
 30
0.0
 11
63.02999999999837
 21
-83.62445587008519
 31
0.0
  0
LINE
  5
36F
330
369
100
AcDbEntity
  8
1
 62
     2
100
AcDbLine
 10
74.15499999999835
 20
-83.39000032670795
 30
0.0
 11
73.27999999999835
 21
-83.62445587008519
 31
0.0
  0
LINE
  5
370
330
369
100
AcDbEntity
  8
1
 62
     2
100
AcDbLine
 10
74.15499999999835
 20
-83.39000032670795
 30
0.0
 11
73.27999999999835
 21
-83.15554478333071
 31
0.0
  0
MTEXT
  5
371
330
369
100
AcDbEntity
  8
1
 62
     3
100
AcDbMText
 10
64.80945842220709
 20
-82.89000032670795
 30
0.0
 40
1.25
 41
0.0
 71
     7
 72
     1
  1
\C3;12\C3;(HEX)
  7
CONVERTER_11
 11
0.9999999999970619
 21
2.424068405545306E-6
 31
0.0
 73
     1
 44
0.45454545454545
  0
ENDBLK
  5
373
330
369
100
AcDbEntity
  8
0
100
AcDbBlockEnd
  0
BLOCK
  5
381
330
376
100
AcDbEntity
  8
0
100
AcDbBlockBegin
  2
*D11
 70
     1
 10
0.0
 20
0.0
 30
0.0
  3
*D11
  1

  0
LINE
  5
377
330
376
100
AcDbEntity
  8
1
  6
Continuous
 62
     2
100
AcDbLine
 10
43.92125429728308
 20
-64.5099944793539
 30
0.0
 11
46.67046413986794
 21
-64.5099944793539
 31
0.0
  0
LINE
  5
378
330
376
100
AcDbEntity
  8
1
  6
Continuous
 62
     2
100
AcDbLine
 10
42.4212542972831
 20
-64.5099944793539
 30
0.0
 11
43.92125429728308
 21
-64.5099944793539
 31
0.0
  0
LINE
  5
379
330
376
100
AcDbEntity
  8
1
  6
Continuous
 62
     2
100
AcDbLine
 10
40.6712542972831
 20
-64.5099944793539
 30
0.0
 11
42.4212542972831
 21
-64.5099944793539
 31
0.0
  0
LINE
  5
37A
330
376
100
AcDbEntity
  8
1
  6
Continuous
 62
     2
100
AcDbLine
 10
43.92125429728308
 20
-56.50999447935391
 30
0.0
 11
43.92125429728308
 21
-65.0099944793539
 31
0.0
  0
LINE
  5
37B
330
376
100
AcDbEntity
  8
1
  6
Continuous
 62
     2
100
AcDbLine
 10
42.4212542972831
 20
-56.50999447935391
 30
0.0
 11
42.4212542972831
 21
-65.0099944793539
 31
0.0
  0
LINE
  5
37C
330
376
100
AcDbEntity
  8
1
 62
     2
100
AcDbLine
 10
42.4212542972831
 20
-64.5099944793539
 30
0.0
 11
41.5462542972831
 21
-64.74445002273114
 31
0.0
  0
LINE
  5
37D
330
376
100
AcDbEntity
  8
1
 62
     2
100
AcDbLine
 10
42.4212542972831
 20
-64.5099944793539
 30
0.0
 11
41.5462542972831
 21
-64.27553893597667
 31
0.0
  0
LINE
  5
37E
330
376
100
AcDbEntity
  8
1
 62
     2
100
AcDbLine
 10
43.92125429728308
 20
-64.5099944793539
 30
0.0
 11
44.79625429728308
 21
-64.27553893597667
 31
0.0
  0
LINE
  5
37F
330
376
100
AcDbEntity
  8
1
 62
     2
100
AcDbLine
 10
43.92125429728308
 20
-64.5099944793539
 30
0.0
 11
44.79625429728308
 21
-64.74445002273114
 31
0.0
  0
MTEXT
  5
380
330
376
100
AcDbEntity
  8
1
 62
     3
100
AcDbMText
 10
44.64858482574706
 20
-64.0099944793539
 30
0.0
 40
1.25
 41
0.0
 71
     7
 72
     1
  1
1.5
  7
CONVERTER_11
 11
0.9999999999970619
 21
2.424068405545306E-6
 31
0.0
 73
     1
 44
0.45454545454545
  0
ENDBLK
  5
382
330
376
100
AcDbEntity
  8
0
100
AcDbBlockEnd
  0
BLOCK
  5
38E
330
385
100
AcDbEntity
  8
0
100
AcDbBlockBegin
  2
*D12
 70
     1
 10
0.0
 20
0.0
 30
0.0
  3
*D12
  1

  0
LINE
  5
386
330
385
100
AcDbEntity
  8
1
  6
Continuous
 62
     2
100
AcDbLine
 10
27.62125429728282
 20
-64.5099944793539
 30
0.0
 11
42.4212542972831
 21
-64.5099944793539
 31
0.0
  0
LINE
  5
387
330
385
100
AcDbEntity
  8
1
  6
Continuous
 62
     2
100
AcDbLine
 10
27.62125429728282
 20
-51.15499447935319
 30
0.0
 11
27.62125429728282
 21
-65.0099944793539
 31
0.0
  0
LINE
  5
388
330
385
100
AcDbEntity
  8
1
  6
Continuous
 62
     2
100
AcDbLine
 10
42.4212542972831
 20
-56.50999447935391
 30
0.0
 11
42.4212542972831
 21
-65.0099944793539
 31
0.0
  0
LINE
  5
389
330
385
100
AcDbEntity
  8
1
 62
     2
100
AcDbLine
 10
27.62125429728282
 20
-64.5099944793539
 30
0.0
 11
28.49625429728282
 21
-64.27553893597667
 31
0.0
  0
LINE
  5
38A
330
385
100
AcDbEntity
  8
1
 62
     2
100
AcDbLine
 10
27.62125429728282
 20
-64.5099944793539
 30
0.0
 11
28.49625429728282
 21
-64.74445002273114
 31
0.0
  0
LINE
  5
38B
330
385
100
AcDbEntity
  8
1
 62
     2
100
AcDbLine
 10
42.4212542972831
 20
-64.5099944793539
 30
0.0
 11
41.5462542972831
 21
-64.74445002273114
 31
0.0
  0
LINE
  5
38C
330
385
100
AcDbEntity
  8
1
 62
     2
100
AcDbLine
 10
42.4212542972831
 20
-64.5099944793539
 30
0.0
 11
41.5462542972831
 21
-64.27553893597667
 31
0.0
  0
MTEXT
  5
38D
330
385
100
AcDbEntity
  8
1
 62
     3
100
AcDbMText
 10
32.02999254103688
 20
-64.00999696402403
 30
0.0
 40
1.25
 41
0.0
 71
     7
 72
     1
  1
\C3;(\C3;14.8\C3;)
  7
CONVERTER_11
 11
0.9999999999970619
 21
2.424068405545306E-6
 31
0.0
 73
     1
 44
0.45454545454545
  0
ENDBLK
  5
38F
330
385
100
AcDbEntity
  8
0
100
AcDbBlockEnd
  0
BLOCK
  5
39B
330
392
100
AcDbEntity
  8
0
100
AcDbBlockBegin
  2
*D13
 70
     1
 10
0.0
 20
0.0
 30
0.0
  3
*D13
  1

  0
LINE
  5
393
330
392
100
AcDbEntity
  8
1
  6
Continuous
 62
     2
100
AcDbLine
 10
59.62125429728284
 20
-56.00999447935391
 30
0.0
 11
59.62125429728284
 21
-43.00999447935548
 31
0.0
  0
LINE
  5
394
330
392
100
AcDbEntity
  8
1
  6
Continuous
 62
     2
100
AcDbLine
 10
44.4212542972831
 20
-43.00999447935548
 30
0.0
 11
60.12125429728284
 21
-43.00999447935548
 31
0.0
  0
LINE
  5
395
330
392
100
AcDbEntity
  8
1
  6
Continuous
 62
     2
100
AcDbLine
 10
44.42125429728308
 20
-56.00999447935391
 30
0.0
 11
60.12125429728284
 21
-56.00999447935391
 31
0.0
  0
LINE
  5
396
330
392
100
AcDbEntity
  8
1
 62
     2
100
AcDbLine
 10
59.62125429728284
 20
-56.00999447935391
 30
0.0
 11
59.38679875390561
 21
-55.13499447935391
 31
0.0
  0
LINE
  5
397
330
392
100
AcDbEntity
  8
1
 62
     2
100
AcDbLine
 10
59.62125429728284
 20
-56.00999447935391
 30
0.0
 11
59.85570984066007
 21
-55.13499447935391
 31
0.0
  0
LINE
  5
398
330
392
100
AcDbEntity
  8
1
 62
     2
100
AcDbLine
 10
59.62125429728284
 20
-43.00999447935548
 30
0.0
 11
59.85570984066007
 21
-43.88499447935548
 31
0.0
  0
LINE
  5
399
330
392
100
AcDbEntity
  8
1
 62
     2
100
AcDbLine
 10
59.62125429728284
 20
-43.00999447935548
 30
0.0
 11
59.38679875390561
 21
-43.88499447935548
 31
0.0
  0
MTEXT
  5
39A
330
392
100
AcDbEntity
  8
1
 62
     3
100
AcDbMText
 10
59.12125429728284
 20
-50.16713579887307
 30
0.0
 40
1.25
 41
0.0
 71
     7
 72
     1
  1
\C3;{\Fgdt;n}\C3;13
  7
CONVERTER_11
 11
0.0
 21
1.0
 31
0.0
 73
     1
 44
0.45454545454545
  0
ENDBLK
  5
39C
330
392
100
AcDbEntity
  8
0
100
AcDbBlockEnd
  0
BLOCK
  5
3A8
330
39F
100
AcDbEntity
  8
0
100
AcDbBlockBegin
  2
*D14
 70
     1
 10
0.0
 20
0.0
 30
0.0
  3
*D14
  1

  0
LINE
  5
3A0
330
39F
100
AcDbEntity
  8
1
  6
Continuous
 62
     2
100
AcDbLine
 10
3.34124920904833
 20
-60.50999447935391
 30
0.0
 11
11.44124920904832
 21
-60.50999447935391
 31
0.0
  0
LINE
  5
3A1
330
39F
100
AcDbEntity
  8
1
  6
Continuous
 62
     2
100
AcDbLine
 10
3.34124920904833
 20
-52.45343467710946
 30
0.0
 11
3.34124920904833
 21
-61.00999447935391
 31
0.0
  0
LINE
  5
3A2
330
39F
100
AcDbEntity
  8
1
  6
Continuous
 62
     2
100
AcDbLine
 10
11.44124920904832
 20
-52.45343467739316
 30
0.0
 11
11.44124920904832
 21
-61.00999447935391
 31
0.0
  0
LINE
  5
3A3
330
39F
100
AcDbEntity
  8
1
 62
     2
100
AcDbLine
 10
3.34124920904833
 20
-60.50999447935391
 30
0.0
 11
4.21624920904833
 21
-60.27553893597668
 31
0.0
  0
LINE
  5
3A4
330
39F
100
AcDbEntity
  8
1
 62
     2
100
AcDbLine
 10
3.34124920904833
 20
-60.50999447935391
 30
0.0
 11
4.21624920904833
 21
-60.74445002273114
 31
0.0
  0
LINE
  5
3A5
330
39F
100
AcDbEntity
  8
1
 62
     2
100
AcDbLine
 10
11.44124920904832
 20
-60.50999447935391
 30
0.0
 11
10.56624920904832
 21
-60.74445002273114
 31
0.0
  0
LINE
  5
3A6
330
39F
100
AcDbEntity
  8
1
 62
     2
100
AcDbLine
 10
11.44124920904832
 20
-60.50999447935391
 30
0.0
 11
10.56624920904832
 21
-60.27553893597668
 31
0.0
  0
MTEXT
  5
3A7
330
39F
100
AcDbEntity
  8
1
 62
     3
100
AcDbMText
 10
3.42101415167559
 20
-60.00999447935391
 30
0.0
 40
1.25
 41
0.0
 71
     7
 72
     1
  1
\C3;8.1\C3;(Hｶｯﾄ)
  7
CONVERTER_11
 11
0.9999999999970619
 21
2.424068405545306E-6
 31
0.0
 73
     1
 44
0.45454545454545
  0
ENDBLK
  5
3A9
330
39F
100
AcDbEntity
  8
0
100
AcDbBlockEnd
  0
BLOCK
  5
3B4
330
3AC
100
AcDbEntity
  8
0
100
AcDbBlockBegin
  2
*D15
 70
     1
 10
0.0
 20
0.0
 30
0.0
  3
*D15
  1

  0
LINE
  5
3AD
330
3AC
100
AcDbEntity
  8
1
  6
Continuous
 62
     2
100
AcDbLine
 10
22.6769956325606
 20
-53.81509642836143
 30
0.0
 11
22.6769956325606
 21
-49.50999447935303
 31
0.0
  0
LINE
  5
3AE
330
3AC
100
AcDbEntity
  8
1
  6
Continuous
 62
     2
100
AcDbLine
 10
22.6769956325606
 20
-49.50999447935303
 30
0.0
 11
22.6769956325606
 21
-48.95999447935358
 31
0.0
  0
LINE
  5
3AF
330
3AC
100
AcDbEntity
  8
1
  6
Continuous
 62
     2
100
AcDbLine
 10
22.6769956325606
 20
-48.95999447935358
 30
0.0
 11
22.6769956325606
 21
-47.20999447935358
 31
0.0
  0
LINE
  5
3B0
330
3AC
100
AcDbEntity
  8
1
  6
Continuous
 62
     2
100
AcDbLine
 10
30.18072133203737
 20
-48.95999447935358
 30
0.0
 11
22.1769956325606
 21
-48.95999447935358
 31
0.0
  0
LINE
  5
3B1
330
3AC
100
AcDbEntity
  8
1
 62
     2
100
AcDbLine
 10
22.6769956325606
 20
-48.95999447935358
 30
0.0
 11
22.44254008918337
 21
-48.08499447935358
 31
0.0
  0
LINE
  5
3B2
330
3AC
100
AcDbEntity
  8
1
 62
     2
100
AcDbLine
 10
22.6769956325606
 20
-48.95999447935358
 30
0.0
 11
22.91145117593783
 21
-48.08499447935358
 31
0.0
  0
MTEXT
  5
3B3
330
3AC
100
AcDbEntity
  8
1
 62
     3
100
AcDbMText
 10
22.1769956325606
 20
-52.90060595729873
 30
0.0
 40
1.25
 41
0.0
 71
     7
 72
     1
  1
\C3;{\Fgdt;n}\C3;1.1
  7
CONVERTER_11
 11
0.0
 21
1.0
 31
0.0
 73
     1
 44
0.45454545454545
  0
ENDBLK
  5
3B5
330
3AC
100
AcDbEntity
  8
0
100
AcDbBlockEnd
  0
BLOCK
  5
3BF
330
3B7
100
AcDbEntity
  8
0
100
AcDbBlockBegin
  2
*D16
 70
     1
 10
0.0
 20
0.0
 30
0.0
  3
*D16
  1

  0
LINE
  5
3B8
330
3B7
100
AcDbEntity
  8
1
  6
Continuous
 62
     2
100
AcDbLine
 10
18.6769956325606
 20
-54.81595472780704
 30
0.0
 11
18.6769956325606
 21
-49.50999447935303
 31
0.0
  0
LINE
  5
3B9
330
3B7
100
AcDbEntity
  8
1
  6
Continuous
 62
     2
100
AcDbLine
 10
18.6769956325606
 20
-49.50999447935303
 30
0.0
 11
18.6769956325606
 21
-48.36499447935324
 31
0.0
  0
LINE
  5
3BA
330
3B7
100
AcDbEntity
  8
1
  6
Continuous
 62
     2
100
AcDbLine
 10
18.6769956325606
 20
-48.36499447935324
 30
0.0
 11
18.6769956325606
 21
-46.61499447935324
 31
0.0
  0
LINE
  5
3BB
330
3B7
100
AcDbEntity
  8
1
  6
Continuous
 62
     2
100
AcDbLine
 10
30.61125429728239
 20
-48.36499447935324
 30
0.0
 11
18.1769956325606
 21
-48.36499447935324
 31
0.0
  0
LINE
  5
3BC
330
3B7
100
AcDbEntity
  8
1
 62
     2
100
AcDbLine
 10
18.6769956325606
 20
-48.36499447935324
 30
0.0
 11
18.44254008918337
 21
-47.48999447935324
 31
0.0
  0
LINE
  5
3BD
330
3B7
100
AcDbEntity
  8
1
 62
     2
100
AcDbLine
 10
18.6769956325606
 20
-48.36499447935324
 30
0.0
 11
18.91145117593783
 21
-47.48999447935324
 31
0.0
  0
MTEXT
  5
3BE
330
3B7
100
AcDbEntity
  8
1
 62
     3
100
AcDbMText
 10
18.1769956325606
 20
-53.90146425674434
 30
0.0
 40
1.25
 41
0.0
 71
     7
 72
     1
  1
\C3;{\Fgdt;n}\C3;2.3
  7
CONVERTER_11
 11
0.0
 21
1.0
 31
0.0
 73
     1
 44
0.45454545454545
  0
ENDBLK
  5
3C0
330
3B7
100
AcDbEntity
  8
0
100
AcDbBlockEnd
  0
BLOCK
  5
3CB
330
3C2
100
AcDbEntity
  8
0
100
AcDbBlockBegin
  2
*D17
 70
     1
 10
0.0
 20
0.0
 30
0.0
  3
*D17
  1

  0
LINE
  5
3C3
330
3C2
100
AcDbEntity
  8
1
  6
Continuous
 62
     2
100
AcDbLine
 10
31.9212542972829
 20
-60.50999447935391
 30
0.0
 11
42.4212542972831
 21
-60.50999447935391
 31
0.0
  0
LINE
  5
3C4
330
3C2
100
AcDbEntity
  8
1
  6
Continuous
 62
     2
100
AcDbLine
 10
31.9212542972829
 20
-53.50999447935519
 30
0.0
 11
31.9212542972829
 21
-61.00999447935391
 31
0.0
  0
LINE
  5
3C5
330
3C2
100
AcDbEntity
  8
1
  6
Continuous
 62
     2
100
AcDbLine
 10
42.4212542972831
 20
-56.50999447935391
 30
0.0
 11
42.4212542972831
 21
-61.00999447935391
 31
0.0
  0
LINE
  5
3C6
330
3C2
100
AcDbEntity
  8
1
 62
     2
100
AcDbLine
 10
31.9212542972829
 20
-60.50999447935391
 30
0.0
 11
32.7962542972829
 21
-60.27553893597668
 31
0.0
  0
LINE
  5
3C7
330
3C2
100
AcDbEntity
  8
1
 62
     2
100
AcDbLine
 10
31.9212542972829
 20
-60.50999447935391
 30
0.0
 11
32.7962542972829
 21
-60.74445002273114
 31
0.0
  0
LINE
  5
3C8
330
3C2
100
AcDbEntity
  8
1
 62
     2
100
AcDbLine
 10
42.4212542972831
 20
-60.50999447935391
 30
0.0
 11
41.5462542972831
 21
-60.74445002273114
 31
0.0
  0
LINE
  5
3C9
330
3C2
100
AcDbEntity
  8
1
 62
     2
100
AcDbLine
 10
42.4212542972831
 20
-60.50999447935391
 30
0.0
 11
41.5462542972831
 21
-60.27553893597668
 31
0.0
  0
MTEXT
  5
3CA
330
3C2
100
AcDbEntity
  8
1
 62
     3
100
AcDbMText
 10
34.17108982842842
 20
-60.00999696402402
 30
0.0
 40
1.25
 41
0.0
 71
     7
 72
     1
  1
\C3;(\C3;10.5\C3;)
  7
CONVERTER_11
 11
0.9999999999970619
 21
2.424068405545306E-6
 31
0.0
 73
     1
 44
0.45454545454545
  0
ENDBLK
  5
3CC
330
3C2
100
AcDbEntity
  8
0
100
AcDbBlockEnd
  0
BLOCK
  5
3DA
330
3CF
100
AcDbEntity
  8
0
100
AcDbBlockBegin
  2
*D18
 70
     1
 10
0.0
 20
0.0
 30
0.0
  3
*D18
  1

  0
LINE
  5
3D0
330
3CF
100
AcDbEntity
  8
1
  6
Continuous
 62
     2
100
AcDbLine
 10
45.95125429728257
 20
-105.0900003267077
 30
0.0
 11
45.95125429728257
 21
-103.3400003267077
 31
0.0
  0
LINE
  5
3D1
330
3CF
100
AcDbEntity
  8
1
  6
Continuous
 62
     2
100
AcDbLine
 10
45.95125429728257
 20
-107.0900003267076
 30
0.0
 11
45.95125429728257
 21
-105.0900003267077
 31
0.0
  0
LINE
  5
3D2
330
3CF
100
AcDbEntity
  8
1
  6
Continuous
 62
     2
100
AcDbLine
 10
45.95125429728257
 20
-108.8400003267076
 30
0.0
 11
45.95125429728257
 21
-107.0900003267076
 31
0.0
  0
LINE
  5
3D3
330
3CF
100
AcDbEntity
  8
1
  6
Continuous
 62
     2
100
AcDbLine
 10
35.3300023833167
 20
-105.0900003267077
 30
0.0
 11
46.45125429728257
 21
-105.0900003267077
 31
0.0
  0
LINE
  5
3D4
330
3CF
100
AcDbEntity
  8
1
  6
Continuous
 62
     2
100
AcDbLine
 10
35.3300023833167
 20
-107.0900003267076
 30
0.0
 11
46.45125429728257
 21
-107.0900003267076
 31
0.0
  0
LINE
  5
3D5
330
3CF
100
AcDbEntity
  8
1
 62
     2
100
AcDbLine
 10
45.95125429728257
 20
-107.0900003267076
 30
0.0
 11
46.1857098406598
 21
-107.9650003267076
 31
0.0
  0
LINE
  5
3D6
330
3CF
100
AcDbEntity
  8
1
 62
     2
100
AcDbLine
 10
45.95125429728257
 20
-107.0900003267076
 30
0.0
 11
45.71679875390534
 21
-107.9650003267076
 31
0.0
  0
LINE
  5
3D7
330
3CF
100
AcDbEntity
  8
1
 62
     2
100
AcDbLine
 10
45.95125429728257
 20
-105.0900003267077
 30
0.0
 11
45.71679875390534
 21
-104.2150003267077
 31
0.0
  0
LINE
  5
3D8
330
3CF
100
AcDbEntity
  8
1
 62
     2
100
AcDbLine
 10
45.95125429728257
 20
-105.0900003267077
 30
0.0
 11
46.1857098406598
 21
-104.2150003267077
 31
0.0
  0
MTEXT
  5
3D9
330
3CF
100
AcDbEntity
  8
1
 62
     3
100
AcDbMText
 10
45.45125429728257
 20
-106.8116104319957
 30
0.0
 40
1.25
 41
0.0
 71
     7
 72
     1
  1
2
  7
CONVERTER_11
 11
0.0
 21
1.0
 31
0.0
 73
     1
 44
0.45454545454545
  0
ENDBLK
  5
3DB
330
3CF
100
AcDbEntity
  8
0
100
AcDbBlockEnd
  0
BLOCK
  5
3E7
330
3DE
100
AcDbEntity
  8
0
100
AcDbBlockBegin
  2
*D19
 70
     1
 10
0.0
 20
0.0
 30
0.0
  3
*D19
  1

  0
LINE
  5
3DF
330
3DE
100
AcDbEntity
  8
1
  6
Continuous
 62
     2
100
AcDbLine
 10
45.95125429728257
 20
-105.0900003267077
 30
0.0
 11
45.95125429728257
 21
-98.0900003267077
 31
0.0
  0
LINE
  5
3E0
330
3DE
100
AcDbEntity
  8
1
  6
Continuous
 62
     2
100
AcDbLine
 10
35.8300023833167
 20
-98.0900003267077
 30
0.0
 11
46.45125429728257
 21
-98.0900003267077
 31
0.0
  0
LINE
  5
3E1
330
3DE
100
AcDbEntity
  8
1
  6
Continuous
 62
     2
100
AcDbLine
 10
35.8300023833167
 20
-105.0900003267077
 30
0.0
 11
46.45125429728257
 21
-105.0900003267077
 31
0.0
  0
LINE
  5
3E2
330
3DE
100
AcDbEntity
  8
1
 62
     2
100
AcDbLine
 10
45.95125429728257
 20
-105.0900003267077
 30
0.0
 11
45.71679875390534
 21
-104.2150003267077
 31
0.0
  0
LINE
  5
3E3
330
3DE
100
AcDbEntity
  8
1
 62
     2
100
AcDbLine
 10
45.95125429728257
 20
-105.0900003267077
 30
0.0
 11
46.1857098406598
 21
-104.2150003267077
 31
0.0
  0
LINE
  5
3E4
330
3DE
100
AcDbEntity
  8
1
 62
     2
100
AcDbLine
 10
45.95125429728257
 20
-98.0900003267077
 30
0.0
 11
46.1857098406598
 21
-98.9650003267077
 31
0.0
  0
LINE
  5
3E5
330
3DE
100
AcDbEntity
  8
1
 62
     2
100
AcDbLine
 10
45.95125429728257
 20
-98.0900003267077
 30
0.0
 11
45.71679875390534
 21
-98.9650003267077
 31
0.0
  0
MTEXT
  5
3E6
330
3DE
100
AcDbEntity
  8
1
 62
     3
100
AcDbMText
 10
45.45125429728257
 20
-102.067851748474
 30
0.0
 40
1.25
 41
0.0
 71
     7
 72
     1
  1
7
  7
CONVERTER_11
 11
0.0
 21
1.0
 31
0.0
 73
     1
 44
0.45454545454545
  0
ENDBLK
  5
3E8
330
3DE
100
AcDbEntity
  8
0
100
AcDbBlockEnd
  0
BLOCK
  5
3F1
330
3EB
100
AcDbEntity
  8
0
100
AcDbBlockBegin
  2
*D20
 70
     1
 10
0.0
 20
0.0
 30
0.0
  3
*D20
  1

  0
LINE
  5
3EC
330
3EB
100
AcDbEntity
  8
1
  6
Continuous
 62
     2
100
AcDbLine
 10
11.29402820406848
 20
-84.44000032670766
 30
0.0
 11
21.49644880325432
 21
-84.44000032670766
 31
0.0
  0
LINE
  5
3ED
330
3EB
100
AcDbEntity
  8
1
  6
Continuous
 62
     2
100
AcDbLine
 10
7.70521331735844
 20
-90.30335853244455
 30
0.0
 11
11.29402820406848
 21
-84.44000032670766
 31
0.0
  0
LINE
  5
3EE
330
3EB
100
AcDbEntity
  8
1
 62
     2
100
AcDbLine
 10
7.70521331735844
 20
-90.30335853244455
 30
0.0
 11
7.96203486262993
 21
-89.43466002565138
 31
0.0
  0
LINE
  5
3EF
330
3EB
100
AcDbEntity
  8
1
 62
     2
100
AcDbLine
 10
7.70521331735844
 20
-90.30335853244455
 30
0.0
 11
8.36197655319931
 21
-89.67945432996781
 31
0.0
  0
MTEXT
  5
3F0
330
3EB
100
AcDbEntity
  8
1
 62
     3
100
AcDbMText
 10
14.45851867513419
 20
-83.94000281137778
 30
0.0
 40
1.25
 41
0.0
 71
     7
 72
     1
  1
\C3;{\Fgdt;n}\C3;\C3;9.7\C3;\H0.875;{\Fgdt;`}0.15
  7
CONVERTER_11
 11
0.9999999999970619
 21
2.424068405545306E-6
 31
0.0
 73
     1
 44
0.45454545454545
  0
ENDBLK
  5
3F2
330
3EB
100
AcDbEntity
  8
0
100
AcDbBlockEnd
  0
BLOCK
  5
3F9
330
3F4
100
AcDbEntity
  8
0
100
AcDbBlockBegin
  2
*D21
 70
     1
 10
0.0
 20
0.0
 30
0.0
  3
*D21
  1

  0
LINE
  5
3F5
330
3F4
100
AcDbEntity
  8
1
  6
Continuous
 62
     2
100
AcDbLine
 10
28.34082593778304
 20
-50.58456611985544
 30
0.0
 11
24.2083532474019
 21
-54.71703881023677
 31
0.0
  0
LINE
  5
3F6
330
3F4
100
AcDbEntity
  8
1
 62
     2
100
AcDbLine
 10
28.34082593778304
 20
-50.58456611985544
 30
0.0
 11
27.88789260885365
 21
-51.36906965800249
 31
0.0
  0
LINE
  5
3F7
330
3F4
100
AcDbEntity
  8
1
 62
     2
100
AcDbLine
 10
28.34082593778304
 20
-50.58456611985544
 30
0.0
 11
27.55632239963601
 21
-51.03749944878487
 31
0.0
  0
MTEXT
  5
3F8
330
3F4
100
AcDbEntity
  8
1
 62
     3
100
AcDbMText
 10
24.41409378549271
 20
-53.80419149095939
 30
0.0
 40
1.25
 41
0.0
 71
     7
 72
     1
  1
\C3;C\C3;0.3
  7
CONVERTER_11
 11
0.7071067811865309
 21
0.707106781186564
 31
0.0
 73
     1
 44
0.45454545454545
  0
ENDBLK
  5
3FA
330
3F4
100
AcDbEntity
  8
0
100
AcDbBlockEnd
  0
ENDSEC
  0
SECTION
  2
ENTITIES
  0
INSERT
  5
7D
330
1F
100
AcDbEntity
  8
1
100
AcDbBlockReference
  2
FRAME
 10
87.00625291061435
 20
-143.5200983195054
 30
0.0
 41
0.5
 42
0.5
 43
0.5
  0
POINT
  5
174
330
1F
100
AcDbEntity
  8
1
 62
   250
100
AcDbPoint
 10
27.62125429728282
 20
-50.65499447935319
 30
0.0
  0
POINT
  5
175
330
1F
100
AcDbEntity
  8
1
 62
     3
 60
     1
100
AcDbPoint
 10
31.9212542972829
 20
-50.65499447935518
 30
0.0
  0
LINE
  5
176
330
1F
100
AcDbEntity
  8
1
  6
Continuous
 62
     3
100
AcDbLine
 10
42.4212542972829
 20
-47.06655428160129
 30
0.0
 11
33.70704268052813
 21
-51.95343467710595
 31
0.0
  0
LINE
  5
177
330
1F
100
AcDbEntity
  8
1
  6
Continuous
 62
     3
100
AcDbLine
 10
33.70704268053132
 20
-47.06655428160129
 30
0.0
 11
42.4212542972829
 21
-51.95343467710912
 31
0.0
  0
LINE
  5
178
330
1F
100
AcDbEntity
  8
1
  6
DOT_CENTER
 62
     2
100
AcDbLine
 10
68.15499999999835
 20
-86.7700003267093
 30
0.0
 11
68.15499999999835
 21
-102.110000326706
 31
0.0
  0
LINE
  5
179
330
1F
100
AcDbEntity
  8
1
  6
DOT_CENTER
 62
     2
100
AcDbLine
 10
75.82499999999672
 20
-94.44000032670766
 30
0.0
 11
60.485
 21
-94.44000032670766
 31
0.0
  0
LINE
  5
17A
330
1F
100
AcDbEntity
  8
0
  6
Continuous
 62
     3
100
AcDbLine
 10
74.14937706029164
 20
-97.90085553608999
 30
0.0
 11
68.15499999999835
 21
-101.3617107454755
 31
0.0
  0
LINE
  5
17B
330
1F
100
AcDbEntity
  8
0
  6
Continuous
 62
     3
100
AcDbLine
 10
68.15499999999835
 20
-87.51828990793989
 30
0.0
 11
74.14937706029008
 21
-90.97914511732259
 31
0.0
  0
LINE
  5
17C
330
1F
100
AcDbEntity
  8
0
  6
Continuous
 62
     3
100
AcDbLine
 10
74.15499999999835
 20
-90.98890265766398
 30
0.0
 11
74.15499999999835
 21
-97.89109799575138
 31
0.0
  0
LINE
  5
17D
330
1F
100
AcDbEntity
  8
0
  6
Continuous
 62
     3
100
AcDbLine
 10
62.16062293970667
 20
-90.97914511732259
 30
0.0
 11
68.15499999999835
 21
-87.51828990793989
 31
0.0
  0
LINE
  5
17E
330
1F
100
AcDbEntity
  8
0
  6
Continuous
 62
     3
100
AcDbLine
 10
68.15499999999835
 20
-101.3617107454755
 30
0.0
 11
62.16062293970248
 21
-97.90085553608854
 31
0.0
  0
LINE
  5
17F
330
1F
100
AcDbEntity
  8
0
  6
Continuous
 62
     3
100
AcDbLine
 10
62.15499999999837
 20
-97.89109799575138
 30
0.0
 11
62.15499999999837
 21
-90.98890265766398
 31
0.0
  0
LINE
  5
180
330
1F
100
AcDbEntity
  8
1
  6
DOT_CENTER
 62
     2
100
AcDbLine
 10
35.3300023833167
 20
-97.71500032670767
 30
0.0
 11
35.3300023833167
 21
-99.96500032670767
 31
0.0
  0
LINE
  5
181
330
1F
100
AcDbEntity
  8
1
  6
DOT_CENTER
 62
     2
100
AcDbLine
 10
36.4550023833167
 20
-98.84000032670767
 30
0.0
 11
34.2050023833167
 21
-98.84000032670767
 31
0.0
  0
LINE
  5
182
330
1F
100
AcDbEntity
  8
1
  6
DOT_CENTER
 62
     2
100
AcDbLine
 10
35.3300023833167
 20
-103.2150003267077
 30
0.0
 11
35.3300023833167
 21
-105.4650003267077
 31
0.0
  0
LINE
  5
183
330
1F
100
AcDbEntity
  8
1
  6
DOT_CENTER
 62
     2
100
AcDbLine
 10
36.4550023833167
 20
-104.3400003267077
 30
0.0
 11
34.2050023833167
 21
-104.3400003267077
 31
0.0
  0
LINE
  5
184
330
1F
100
AcDbEntity
  8
1
  6
DOT_CENTER
 62
     2
100
AcDbLine
 10
35.3300023833167
 20
-74.6150003267081
 30
0.0
 11
35.3300023833167
 21
-94.26500032670722
 31
0.0
  0
LINE
  5
185
330
1F
100
AcDbEntity
  8
1
  6
DOT_CENTER
 62
     2
100
AcDbLine
 10
45.15500238331627
 20
-84.44000032670766
 30
0.0
 11
25.50500238331712
 21
-84.44000032670766
 31
0.0
  0
LINE
  5
186
330
1F
100
AcDbEntity
  8
0
  6
Continuous
 62
     3
100
AcDbLine
 10
36.0800023833167
 20
-98.84000032670767
 30
0.0
 11
36.0800023833167
 21
-104.3400003267077
 31
0.0
  0
LINE
  5
187
330
1F
100
AcDbEntity
  8
0
  6
Continuous
 62
     3
100
AcDbLine
 10
36.67526526596069
 20
-79.62437287261764
 30
0.0
 11
36.8678718713327
 21
-79.15937939372765
 31
0.0
  0
LINE
  5
188
330
1F
100
AcDbEntity
  8
0
  6
Continuous
 62
     3
100
AcDbLine
 10
35.93000238331669
 20
-78.97282555357265
 30
0.0
 11
35.93000238331669
 21
-79.47613086831066
 31
0.0
  0
LINE
  5
189
330
1F
100
AcDbEntity
  8
0
  6
Continuous
 62
     3
100
AcDbLine
 10
34.73000238331667
 20
-79.47613086831066
 30
0.0
 11
34.73000238331667
 21
-78.97282555357265
 31
0.0
  0
LINE
  5
18A
330
1F
100
AcDbEntity
  8
0
  6
Continuous
 62
     3
100
AcDbLine
 10
33.79213289529969
 20
-79.15937939372765
 30
0.0
 11
33.98473950067168
 21
-79.62437287261764
 31
0.0
  0
LINE
  5
18B
330
1F
100
AcDbEntity
  8
0
  6
Continuous
 62
     3
100
AcDbLine
 10
32.6834774562867
 20
-79.61859951256565
 30
0.0
 11
32.87608406165867
 21
-80.08359299145664
 31
0.0
  0
LINE
  5
18C
330
1F
100
AcDbEntity
  8
0
  6
Continuous
 62
     3
100
AcDbLine
 10
31.8883900960127
 20
-80.14985990197965
 30
0.0
 11
32.24428069707168
 21
-80.50575050303866
 31
0.0
  0
LINE
  5
18D
330
1F
100
AcDbEntity
  8
0
  6
Continuous
 62
     3
100
AcDbLine
 10
39.6864097185677
 20
-81.98608200504967
 30
0.0
 11
40.15140319745868
 21
-81.79347539967765
 31
0.0
  0
LINE
  5
18E
330
1F
100
AcDbEntity
  8
0
  6
Continuous
 62
     3
100
AcDbLine
 10
30.04938145033569
 20
-82.90213083869165
 30
0.0
 11
30.51437492922668
 21
-83.09473744406264
 31
0.0
  0
LINE
  5
18F
330
1F
100
AcDbEntity
  8
0
  6
Continuous
 62
     3
100
AcDbLine
 10
30.50860156917371
 20
-81.79347539967765
 30
0.0
 11
30.97359504806468
 21
-81.98608200504967
 31
0.0
  0
LINE
  5
190
330
1F
100
AcDbEntity
  8
0
  6
Continuous
 62
     3
100
AcDbLine
 10
31.0398619585887
 20
-80.99838803940366
 30
0.0
 11
31.39575255964769
 21
-81.35427864046267
 31
0.0
  0
LINE
  5
191
330
1F
100
AcDbEntity
  8
0
  6
Continuous
 62
     3
100
AcDbLine
 10
39.26425220698468
 20
-81.35427864046267
 30
0.0
 11
39.6201428080437
 21
-80.99838803940366
 31
0.0
  0
LINE
  5
192
330
1F
100
AcDbEntity
  8
0
  6
Continuous
 62
     3
100
AcDbLine
 10
29.86282761018169
 20
-83.84000032670767
 30
0.0
 11
30.3661329249197
 21
-83.84000032670767
 31
0.0
  0
LINE
  5
193
330
1F
100
AcDbEntity
  8
0
  6
Continuous
 62
     3
100
AcDbLine
 10
40.29387184171267
 20
-83.84000032670767
 30
0.0
 11
40.79717715645069
 21
-83.84000032670767
 31
0.0
  0
LINE
  5
194
330
1F
100
AcDbEntity
  8
0
  6
Continuous
 62
     3
100
AcDbLine
 10
40.14562983740569
 20
-83.09473744406264
 30
0.0
 11
40.6106233162967
 21
-82.90213083869165
 31
0.0
  0
LINE
  5
195
330
1F
100
AcDbEntity
  8
0
  6
Continuous
 62
     3
100
AcDbLine
 10
29.86282761018169
 20
-85.04000032670766
 30
0.0
 11
30.3661329249197
 21
-85.04000032670766
 31
0.0
  0
LINE
  5
196
330
1F
100
AcDbEntity
  8
0
  6
Continuous
 62
     3
100
AcDbLine
 10
34.5800023833167
 20
-104.3400003267077
 30
0.0
 11
34.5800023833167
 21
-98.84000032670767
 31
0.0
  0
LINE
  5
197
330
1F
100
AcDbEntity
  8
0
  6
Continuous
 62
     3
100
AcDbLine
 10
34.73000238331667
 20
-89.90717509984265
 30
0.0
 11
34.73000238331667
 21
-89.40386978510367
 31
0.0
  0
LINE
  5
198
330
1F
100
AcDbEntity
  8
0
  6
Continuous
 62
     3
100
AcDbLine
 10
33.2800023833167
 20
-105.4455220056647
 30
0.0
 11
33.28000238331669
 21
-90.66093273270567
 31
0.0
  0
LINE
  5
199
330
1F
100
AcDbEntity
  8
0
  6
Continuous
 62
     3
100
AcDbLine
 10
37.78392070497469
 20
-80.08359299145664
 30
0.0
 11
37.97652731034569
 21
-79.61859951256565
 31
0.0
  0
LINE
  5
19A
330
1F
100
AcDbEntity
  8
0
  6
Continuous
 62
     3
100
AcDbLine
 10
37.38000238331668
 20
-90.66093273270567
 30
0.0
 11
37.38000238331668
 21
-105.4455220056647
 31
0.0
  0
LINE
  5
19B
330
1F
100
AcDbEntity
  8
0
  6
Continuous
 62
     3
100
AcDbLine
 10
38.4157240695607
 20
-80.50575050303866
 30
0.0
 11
38.77161467061969
 21
-80.14985990197965
 31
0.0
  0
LINE
  5
19C
330
1F
100
AcDbEntity
  8
0
  6
Continuous
 62
     3
100
AcDbLine
 10
33.98473950067168
 20
-89.25562778079666
 30
0.0
 11
33.79213289529969
 21
-89.72062125968765
 31
0.0
  0
LINE
  5
19D
330
1F
100
AcDbEntity
  8
0
  6
Continuous
 62
     3
100
AcDbLine
 10
35.93000238331669
 20
-89.40386978510367
 30
0.0
 11
35.93000238331669
 21
-89.90717509984165
 31
0.0
  0
LINE
  5
19E
330
1F
100
AcDbEntity
  8
0
  6
Continuous
 62
     3
100
AcDbLine
 10
37.97652731034569
 20
-89.26140114084964
 30
0.0
 11
37.78392070497469
 21
-88.79640766195865
 31
0.0
  0
LINE
  5
19F
330
1F
100
AcDbEntity
  8
0
  6
Continuous
 62
     3
100
AcDbLine
 10
32.87608406165867
 20
-88.79640766195865
 30
0.0
 11
32.6834774562867
 21
-89.26140114084964
 31
0.0
  0
LINE
  5
1A0
330
1F
100
AcDbEntity
  8
0
  6
Continuous
 62
     3
100
AcDbLine
 10
36.8678718713327
 20
-89.72062125968765
 30
0.0
 11
36.67526526596069
 21
-89.25562778079666
 31
0.0
  0
LINE
  5
1A1
330
1F
100
AcDbEntity
  8
0
  6
Continuous
 62
     3
100
AcDbLine
 10
38.77161467061971
 20
-88.73014075143465
 30
0.0
 11
38.4157240695607
 21
-88.37425015037667
 31
0.0
  0
LINE
  5
1A2
330
1F
100
AcDbEntity
  8
0
  6
Continuous
 62
     3
100
AcDbLine
 10
32.24428069707168
 20
-88.37425015037667
 30
0.0
 11
31.8883900960127
 21
-88.73014075143465
 31
0.0
  0
LINE
  5
1A3
330
1F
100
AcDbEntity
  8
0
  6
Continuous
 62
     3
100
AcDbLine
 10
31.39575255964769
 20
-87.52572201295266
 30
0.0
 11
31.0398619585887
 21
-87.88161261401066
 31
0.0
  0
LINE
  5
1A4
330
1F
100
AcDbEntity
  8
0
  6
Continuous
 62
     3
100
AcDbLine
 10
39.6201428080437
 20
-87.88161261401066
 30
0.0
 11
39.26425220698468
 21
-87.52572201295266
 31
0.0
  0
LINE
  5
1A5
330
1F
100
AcDbEntity
  8
0
  6
Continuous
 62
     3
100
AcDbLine
 10
40.15140319745868
 20
-87.08652525373765
 30
0.0
 11
39.6864097185677
 21
-86.89391864836566
 31
0.0
  0
LINE
  5
1A6
330
1F
100
AcDbEntity
  8
0
  6
Continuous
 62
     3
100
AcDbLine
 10
30.97359504806468
 20
-86.89391864836566
 30
0.0
 11
30.50860156917371
 21
-87.08652525373765
 31
0.0
  0
LINE
  5
1A7
330
1F
100
AcDbEntity
  8
0
  6
Continuous
 62
     3
100
AcDbLine
 10
40.6106233162967
 20
-85.97786981472365
 30
0.0
 11
40.14562983740569
 21
-85.78526320935165
 31
0.0
  0
LINE
  5
1A8
330
1F
100
AcDbEntity
  8
0
  6
Continuous
 62
     3
100
AcDbLine
 10
40.29387184171267
 20
-85.04000032670766
 30
0.0
 11
40.79717715645069
 21
-85.04000032670766
 31
0.0
  0
LINE
  5
1A9
330
1F
100
AcDbEntity
  8
0
  6
Continuous
 62
     3
100
AcDbLine
 10
30.51437492922668
 20
-85.78526320935165
 30
0.0
 11
30.04938145033569
 21
-85.97786981472365
 31
0.0
  0
LINE
  5
1AA
330
1F
100
AcDbEntity
  8
1
  6
DOT_CENTER
 62
     2
100
AcDbLine
 10
5.17327835256079
 20
-87.16500032670712
 30
0.0
 11
5.17327835256079
 21
-101.7150003267082
 31
0.0
  0
LINE
  5
1AB
330
1F
100
AcDbEntity
  8
1
  6
DOT_CENTER
 62
     2
100
AcDbLine
 10
12.44827835256042
 20
-94.44000032670766
 30
0.0
 11
-2.10172164744067
 21
-94.44000032670766
 31
0.0
  0
LINE
  5
1AC
330
1F
100
AcDbEntity
  8
1
  6
Continuous
 62
     3
100
AcDbLine
 10
1.07327835255951
 20
-91.84915104510156
 30
0.0
 11
1.07327835255951
 21
-97.03084960831376
 31
0.0
  0
LINE
  5
1AD
330
1F
100
AcDbEntity
  8
1
  6
Continuous
 62
     3
100
AcDbLine
 10
9.27327835256024
 20
-91.84915104510156
 30
0.0
 11
9.27327835256024
 21
-97.03084960831376
 31
0.0
  0
LINE
  5
1AE
330
1F
100
AcDbEntity
  8
1
  6
LONG_DASHED
 62
     2
100
AcDbLine
 10
32.11125429728278
 20
-50.05999447935417
 30
0.0
 11
28.11125429728273
 21
-50.05999447935417
 31
0.0
  0
LINE
  5
1AF
330
1F
100
AcDbEntity
  8
1
  6
LONG_DASHED
 62
     2
100
AcDbLine
 10
32.11125429728278
 20
-49.5099944793549
 30
0.0
 11
32.11125429728278
 21
-50.05999447935417
 31
0.0
  0
LINE
  5
1B0
330
1F
100
AcDbEntity
  8
1
  6
LONG_DASHED
 62
     2
100
AcDbLine
 10
32.42879694533847
 20
-49.5099944793549
 30
0.0
 11
32.11125429728278
 21
-50.05999447935417
 31
0.0
  0
LINE
  5
1B1
330
1F
100
AcDbEntity
  8
1
  6
LONG_DASHED
 62
     2
100
AcDbLine
 10
32.11125429728278
 20
-48.95999447935358
 30
0.0
 11
32.42879694533847
 21
-49.50999447935286
 31
0.0
  0
LINE
  5
1B2
330
1F
100
AcDbEntity
  8
1
  6
LONG_DASHED
 62
     2
100
AcDbLine
 10
32.11125429728278
 20
-48.95999447935358
 30
0.0
 11
32.11125429728278
 21
-49.50999447935286
 31
0.0
  0
LINE
  5
1B3
330
1F
100
AcDbEntity
  8
1
  6
LONG_DASHED
 62
     2
100
AcDbLine
 10
30.68072133203737
 20
-48.95999447935358
 30
0.0
 11
32.11125429728278
 21
-48.95999447935358
 31
0.0
  0
LINE
  5
1B4
330
1F
100
AcDbEntity
  8
0
  6
Continuous
 62
     3
100
AcDbLine
 10
49.89125429728136
 20
-44.74999447935643
 30
0.0
 11
43.9212542972829
 21
-44.74999447935647
 31
0.0
  0
LINE
  5
1B5
330
1F
100
AcDbEntity
  8
0
  6
Continuous
 62
     3
100
AcDbLine
 10
43.92125429728308
 20
-56.00999447935391
 30
0.0
 11
42.4212542972831
 21
-56.00999447935391
 31
0.0
  0
LINE
  5
1B6
330
1F
100
AcDbEntity
  8
0
  6
Continuous
 62
     3
100
AcDbLine
 10
42.4212542972829
 20
-54.26999447935332
 30
0.0
 11
42.4212542972831
 21
-56.00999447935391
 31
0.0
  0
LINE
  5
1B7
330
1F
100
AcDbEntity
  8
0
  6
Continuous
 62
     3
100
AcDbLine
 10
49.89125429728131
 20
-54.26999447936014
 30
0.0
 11
43.92125429728291
 21
-54.26999447935292
 31
0.0
  0
LINE
  5
1B8
330
1F
100
AcDbEntity
  8
0
  6
Continuous
 62
     3
100
AcDbLine
 10
43.92125429728291
 20
-54.26999447935292
 30
0.0
 11
43.92125429728308
 21
-56.00999447935391
 31
0.0
  0
LINE
  5
1B9
330
1F
100
AcDbEntity
  8
0
  6
Continuous
 62
     3
100
AcDbLine
 10
43.9212542972829
 20
-44.74999447935647
 30
0.0
 11
43.92125429728291
 21
-54.26999447935292
 31
0.0
  0
LINE
  5
1BA
330
1F
100
AcDbEntity
  8
0
  6
Continuous
 62
     3
100
AcDbLine
 10
49.89125429728135
 20
-43.95999447935473
 30
0.0
 11
49.89125429728136
 21
-44.74999447935643
 31
0.0
  0
LINE
  5
1BB
330
1F
100
AcDbEntity
  8
0
  6
Continuous
 62
     3
100
AcDbLine
 10
51.87125429728285
 20
-43.95999447935471
 30
0.0
 11
49.89125429728135
 21
-43.95999447935473
 31
0.0
  0
LINE
  5
1BC
330
1F
100
AcDbEntity
  8
0
  6
Continuous
 62
     3
100
AcDbLine
 10
51.87125429728285
 20
-43.95999447935471
 30
0.0
 11
51.87125429728287
 21
-44.74999447934928
 31
0.0
  0
LINE
  5
1BD
330
1F
100
AcDbEntity
  8
0
  6
Continuous
 62
     3
100
AcDbLine
 10
49.89125429728131
 20
-54.26999447936014
 30
0.0
 11
49.89125429728135
 21
-55.05999447935473
 31
0.0
  0
LINE
  5
1BE
330
1F
100
AcDbEntity
  8
0
  6
Continuous
 62
     3
100
AcDbLine
 10
51.87125429728285
 20
-55.05999447935471
 30
0.0
 11
49.89125429728135
 21
-55.05999447935473
 31
0.0
  0
LINE
  5
1BF
330
1F
100
AcDbEntity
  8
0
  6
Continuous
 62
     3
100
AcDbLine
 10
51.87125429728292
 20
-54.26999447935289
 30
0.0
 11
51.87125429728285
 21
-55.05999447935471
 31
0.0
  0
LINE
  5
1C0
330
1F
100
AcDbEntity
  8
0
  6
Continuous
 62
     3
100
AcDbLine
 10
55.12125429728287
 20
-44.74999447935647
 30
0.0
 11
51.87125429728287
 21
-44.74999447934928
 31
0.0
  0
LINE
  5
1C1
330
1F
100
AcDbEntity
  8
0
  6
Continuous
 62
     3
100
AcDbLine
 10
55.12125429728287
 20
-44.74999447935647
 30
0.0
 11
55.1212542972828
 21
-54.26999447935292
 31
0.0
  0
LINE
  5
1C2
330
1F
100
AcDbEntity
  8
0
  6
Continuous
 62
     3
100
AcDbLine
 10
55.1212542972828
 20
-54.26999447935292
 30
0.0
 11
51.87125429728292
 21
-54.26999447935289
 31
0.0
  0
LINE
  5
1C3
330
1F
100
AcDbEntity
  8
0
  6
Continuous
 62
     3
100
AcDbLine
 10
43.9212542972831
 20
-43.00999447935548
 30
0.0
 11
42.42125429728301
 21
-43.00999447935548
 31
0.0
  0
LINE
  5
1C4
330
1F
100
AcDbEntity
  8
0
  6
Continuous
 62
     3
100
AcDbLine
 10
42.42125429728301
 20
-43.00999447935548
 30
0.0
 11
42.4212542972829
 21
-44.74999447935616
 31
0.0
  0
LINE
  5
1C5
330
1F
100
AcDbEntity
  8
0
  6
Continuous
 62
     3
100
AcDbLine
 10
43.9212542972831
 20
-43.00999447935548
 30
0.0
 11
43.9212542972829
 21
-44.74999447935647
 31
0.0
  0
LINE
  5
1C6
330
1F
100
AcDbEntity
  8
0
  6
Continuous
 62
     3
100
AcDbLine
 10
31.9112542972828
 20
-48.36499447935309
 30
0.0
 11
31.11125429728239
 21
-48.36499447935323
 31
0.0
  0
LINE
  5
1C7
330
1F
100
AcDbEntity
  8
1
  6
DOT_CENTER
 62
     2
100
AcDbLine
 10
57.1761299972944
 20
-28.00999027795368
 30
0.0
 11
26.3559203417385
 21
-28.00999027795368
 31
0.0
  0
LINE
  5
1C8
330
1F
100
AcDbEntity
  8
0
  6
Continuous
 62
     3
100
AcDbLine
 10
55.1212542972828
 20
-23.24999027795548
 30
0.0
 11
55.12125429728287
 21
-28.00999027795368
 31
0.0
  0
LINE
  5
1C9
330
1F
100
AcDbEntity
  8
0
  6
Continuous
 62
     3
100
AcDbLine
 10
55.12125429728287
 20
-28.00999027795368
 30
0.0
 11
55.1212542972828
 21
-32.76999027795188
 31
0.0
  0
LINE
  5
1CA
330
1F
100
AcDbEntity
  8
0
  6
Continuous
 62
     3
100
AcDbLine
 10
55.1212542972828
 20
-32.76999027795188
 30
0.0
 11
43.9212542972829
 21
-32.76999027795188
 31
0.0
  0
LINE
  5
1CB
330
1F
100
AcDbEntity
  8
0
  6
Continuous
 62
     3
100
AcDbLine
 10
55.1212542972828
 20
-23.24999027795548
 30
0.0
 11
43.9212542972829
 21
-23.24999027795548
 31
0.0
  0
LINE
  5
1CC
330
1F
100
AcDbEntity
  8
1
  6
DOT_CENTER
 62
     2
100
AcDbLine
 10
76.62125661218228
 20
-53.86590470188995
 30
0.0
 11
76.62125661218228
 21
-55.35999447935468
 31
0.0
  0
LINE
  5
1CD
330
1F
100
AcDbEntity
  8
1
  6
DOT_CENTER
 62
     2
100
AcDbLine
 10
76.62125661218228
 20
-43.65999447935468
 30
0.0
 11
76.62125661218228
 21
-45.15408425681932
 31
0.0
  0
LINE
  5
1CE
330
1F
100
AcDbEntity
  8
1
  6
DOT_CENTER
 62
     2
100
AcDbLine
 10
76.62125661218046
 20
-41.05999447935572
 30
0.0
 11
76.62125661218046
 21
-57.95999447935351
 31
0.0
  0
LINE
  5
1CF
330
1F
100
AcDbEntity
  8
1
  6
DOT_CENTER
 62
     2
100
AcDbLine
 10
85.07125661217935
 20
-49.50999447935462
 30
0.0
 11
68.17125661218157
 21
-49.50999447935462
 31
0.0
  0
LINE
  5
1D0
330
1F
100
AcDbEntity
  8
0
  6
Continuous
 62
     3
100
AcDbLine
 10
77.61125661218303
 20
-54.16590470188994
 30
0.0
 11
77.61125661218303
 21
-55.05999447935469
 31
0.0
  0
LINE
  5
1D1
330
1F
100
AcDbEntity
  8
0
  6
Continuous
 62
     3
100
AcDbLine
 10
77.61125661218303
 20
-55.05999447935469
 30
0.0
 11
75.63125661218153
 21
-55.05999447935469
 31
0.0
  0
LINE
  5
1D2
330
1F
100
AcDbEntity
  8
0
  6
Continuous
 62
     3
100
AcDbLine
 10
75.63125661218153
 20
-54.16590470191217
 30
0.0
 11
75.63125661218153
 21
-55.05999447935469
 31
0.0
  0
LINE
  5
1D3
330
1F
100
AcDbEntity
  8
0
  6
Continuous
 62
     3
100
AcDbLine
 10
75.63125661218153
 20
-43.95999447935468
 30
0.0
 11
75.63125661218153
 21
-44.85408425679717
 31
0.0
  0
LINE
  5
1D4
330
1F
100
AcDbEntity
  8
0
  6
Continuous
 62
     3
100
AcDbLine
 10
77.61125661218303
 20
-43.95999447935468
 30
0.0
 11
75.63125661218153
 21
-43.95999447935468
 31
0.0
  0
LINE
  5
1D5
330
1F
100
AcDbEntity
  8
0
  6
Continuous
 62
     3
100
AcDbLine
 10
77.61125661218303
 20
-43.95999447935468
 30
0.0
 11
77.61125661218303
 21
-44.85408425681932
 31
0.0
  0
LINE
  5
1D6
330
1F
100
AcDbEntity
  8
0
  6
Continuous
 62
     3
100
AcDbLine
 10
76.62125661218128
 20
-50.49512663025226
 30
0.0
 11
76.47125661218097
 21
-50.64512663024918
 31
0.0
  0
LINE
  5
1D7
330
1F
100
AcDbEntity
  8
0
  6
Continuous
 62
     3
100
AcDbLine
 10
75.63612446128084
 20
-49.50999447935185
 30
0.0
 11
75.48612446128342
 21
-49.35999447935319
 31
0.0
  0
LINE
  5
1D8
330
1F
100
AcDbEntity
  8
0
  6
Continuous
 62
     3
100
AcDbLine
 10
75.63612446128084
 20
-49.50999447935185
 30
0.0
 11
75.48612446128334
 21
-49.65999447935059
 31
0.0
  0
LINE
  5
1D9
330
1F
100
AcDbEntity
  8
0
  6
Continuous
 62
     3
100
AcDbLine
 10
76.62125661218046
 20
-48.52486232845222
 30
0.0
 11
76.47125661218158
 21
-48.37486232845515
 31
0.0
  0
LINE
  5
1DA
330
1F
100
AcDbEntity
  8
0
  6
Continuous
 62
     3
100
AcDbLine
 10
76.62125661218046
 20
-48.52486232845222
 30
0.0
 11
76.77125661217977
 21
-48.37486232845521
 31
0.0
  0
LINE
  5
1DB
330
1F
100
AcDbEntity
  8
0
  6
Continuous
 62
     3
100
AcDbLine
 10
77.60638876308019
 20
-49.50999447935192
 30
0.0
 11
77.75638876307742
 21
-49.35999447935257
 31
0.0
  0
LINE
  5
1DC
330
1F
100
AcDbEntity
  8
0
  6
Continuous
 62
     3
100
AcDbLine
 10
77.60638876308019
 20
-49.50999447935192
 30
0.0
 11
77.75638876307757
 21
-49.65999447935072
 31
0.0
  0
LINE
  5
1DD
330
1F
100
AcDbEntity
  8
0
  6
Continuous
 62
     3
100
AcDbLine
 10
76.62125661218046
 20
-48.52486232845222
 30
0.0
 11
76.62125661218055
 21
-48.65613941013046
 31
0.0
  0
LINE
  5
1DE
330
1F
100
AcDbEntity
  8
0
  6
Continuous
 62
     3
100
AcDbLine
 10
75.76740154295982
 20
-49.50999447935152
 30
0.0
 11
75.63612446128084
 21
-49.50999447935185
 31
0.0
  0
LINE
  5
1DF
330
1F
100
AcDbEntity
  8
0
  6
Continuous
 62
     3
100
AcDbLine
 10
77.47511168140272
 20
-49.50999447935185
 30
0.0
 11
77.60638876308019
 21
-49.50999447935192
 31
0.0
  0
LINE
  5
1E0
330
1F
100
AcDbEntity
  8
0
  6
Continuous
 62
     3
100
AcDbLine
 10
76.62125661218073
 20
-50.36384954857236
 30
0.0
 11
76.62125661218128
 21
-50.49512663025226
 31
0.0
  0
LINE
  5
1E1
330
1F
100
AcDbEntity
  8
0
  6
Continuous
 62
     3
100
AcDbLine
 10
76.62125661218128
 20
-50.49512663025226
 30
0.0
 11
76.77125661218017
 21
-50.64512663024915
 31
0.0
  0
LINE
  5
1E2
330
1F
100
AcDbEntity
  8
0
  6
Continuous
 62
     3
100
AcDbLine
 10
31.9212542972829
 20
-24.50999027795524
 30
0.0
 11
31.9212542972829
 21
-28.00999027795524
 31
0.0
  0
LINE
  5
1E3
330
1F
100
AcDbEntity
  8
0
  6
Continuous
 62
     3
100
AcDbLine
 10
32.4112542972828
 20
-31.61499027795536
 30
0.0
 11
32.4112542972828
 21
-24.40499027795514
 31
0.0
  0
LINE
  5
1E4
330
1F
100
AcDbEntity
  8
0
  6
Continuous
 62
     3
100
AcDbLine
 10
32.4112542972828
 20
-24.40499027795514
 30
0.0
 11
32.4112542972828
 21
-24.00999027795524
 31
0.0
  0
LINE
  5
1E5
330
1F
100
AcDbEntity
  8
0
  6
Continuous
 62
     3
100
AcDbLine
 10
32.4112542972828
 20
-32.00999027795523
 30
0.0
 11
32.4112542972828
 21
-31.61499027795536
 31
0.0
  0
LINE
  5
1E6
330
1F
100
AcDbEntity
  8
0
  6
Continuous
 62
     3
100
AcDbLine
 10
31.9212542972829
 20
-28.00999027795524
 30
0.0
 11
31.9212542972829
 21
-31.50999027795523
 31
0.0
  0
LINE
  5
1E7
330
1F
100
AcDbEntity
  8
0
  6
Continuous
 62
     3
100
AcDbLine
 10
31.9212542972829
 20
-31.50999027795523
 30
0.0
 11
32.4112542972828
 21
-32.00999027795523
 31
0.0
  0
LINE
  5
1E8
330
1F
100
AcDbEntity
  8
0
  6
Continuous
 62
     3
100
AcDbLine
 10
31.9212542972829
 20
-24.50999027795524
 30
0.0
 11
32.4112542972828
 21
-24.00999027795524
 31
0.0
  0
LINE
  5
1E9
330
1F
100
AcDbEntity
  8
0
  6
Continuous
 62
     3
100
AcDbLine
 10
31.9112542972828
 20
-24.90499027795514
 30
0.0
 11
31.9212542972829
 21
-24.89499027795509
 31
0.0
  0
LINE
  5
1EA
330
1F
100
AcDbEntity
  8
0
  6
Continuous
 62
     3
100
AcDbLine
 10
32.4112542972828
 20
-31.61499027795536
 30
0.0
 11
32.4112542972828
 21
-24.40499027795514
 31
0.0
  0
LINE
  5
1EB
330
1F
100
AcDbEntity
  8
0
  6
Continuous
 62
     3
100
AcDbLine
 10
31.9112542972828
 20
-31.11499027795536
 30
0.0
 11
31.9212542972829
 21
-31.12499027795538
 31
0.0
  0
LINE
  5
1EC
330
1F
100
AcDbEntity
  8
0
  6
Continuous
 62
     3
100
AcDbLine
 10
31.9112542972828
 20
-31.11499027795536
 30
0.0
 11
31.9112542972828
 21
-24.90499027795514
 31
0.0
  0
LINE
  5
1ED
330
1F
100
AcDbEntity
  8
0
  6
Continuous
 62
     3
100
AcDbLine
 10
28.11125429728278
 20
-27.16499027795526
 30
0.0
 11
28.4112542972828
 21
-26.86499027795526
 31
0.0
  0
LINE
  5
1EE
330
1F
100
AcDbEntity
  8
0
  6
Continuous
 62
     3
100
AcDbLine
 10
28.4112542972828
 20
-26.86499027795526
 30
0.0
 11
31.9112542972828
 21
-26.86499027795526
 31
0.0
  0
LINE
  5
1EF
330
1F
100
AcDbEntity
  8
0
  6
Continuous
 62
     3
100
AcDbLine
 10
30.07521777160324
 20
-26.87553005388394
 30
0.0
 11
30.07521777160324
 21
-27.48228297271858
 31
0.0
  0
LINE
  5
1F0
330
1F
100
AcDbEntity
  8
0
  6
Continuous
 62
     3
100
AcDbLine
 10
28.4112542972828
 20
-26.87553005388397
 30
0.0
 11
30.07521777160324
 21
-26.87553005388394
 31
0.0
  0
LINE
  5
1F1
330
1F
100
AcDbEntity
  8
0
  6
Continuous
 62
     3
100
AcDbLine
 10
28.11125429728278
 20
-27.48228297271858
 30
0.0
 11
28.11125429728273
 21
-27.17932789166341
 31
0.0
  0
LINE
  5
1F2
330
1F
100
AcDbEntity
  8
0
  6
Continuous
 62
     3
100
AcDbLine
 10
28.4112542972828
 20
-26.87553005388397
 30
0.0
 11
28.4112542972828
 21
-26.86499027795526
 31
0.0
  0
LINE
  5
1F3
330
1F
100
AcDbEntity
  8
0
  6
Continuous
 62
     3
100
AcDbLine
 10
28.11125429728273
 20
-27.17932789166341
 30
0.0
 11
28.11125429728278
 21
-27.16499027795526
 31
0.0
  0
LINE
  5
1F4
330
1F
100
AcDbEntity
  8
0
  6
Continuous
 62
     3
100
AcDbLine
 10
30.07521777160324
 20
-27.48228297271858
 30
0.0
 11
28.11125429728278
 21
-27.48228297271858
 31
0.0
  0
LINE
  5
1F5
330
1F
100
AcDbEntity
  8
0
  6
Continuous
 62
     3
100
AcDbLine
 10
28.11125429728278
 20
-27.48228297271858
 30
0.0
 11
28.11125429728278
 21
-28.5376975831919
 31
0.0
  0
LINE
  5
1F6
330
1F
100
AcDbEntity
  8
0
  6
Continuous
 62
     3
100
AcDbLine
 10
30.07521777160324
 20
-28.5376975831919
 30
0.0
 11
28.11125429728278
 21
-28.5376975831919
 31
0.0
  0
LINE
  5
1F7
330
1F
100
AcDbEntity
  8
0
  6
Continuous
 62
     3
100
AcDbLine
 10
28.11125429728278
 20
-28.84065266424705
 30
0.0
 11
28.11125429728278
 21
-28.5376975831919
 31
0.0
  0
LINE
  5
1F8
330
1F
100
AcDbEntity
  8
0
  6
Continuous
 62
     3
100
AcDbLine
 10
30.07521777160324
 20
-28.5376975831919
 30
0.0
 11
30.07521777170061
 21
-29.14445050202091
 31
0.0
  0
LINE
  5
1F9
330
1F
100
AcDbEntity
  8
0
  6
Continuous
 62
     3
100
AcDbLine
 10
28.4112542972828
 20
-29.15499027795523
 30
0.0
 11
28.4112542972828
 21
-29.14445050202652
 31
0.0
  0
LINE
  5
1FA
330
1F
100
AcDbEntity
  8
0
  6
Continuous
 62
     3
100
AcDbLine
 10
28.4112542972828
 20
-29.14445050202652
 30
0.0
 11
30.07521777170061
 21
-29.14445050202091
 31
0.0
  0
LINE
  5
1FB
330
1F
100
AcDbEntity
  8
0
  6
Continuous
 62
     3
100
AcDbLine
 10
28.4112542972828
 20
-29.15499027795523
 30
0.0
 11
31.9112542972828
 21
-29.15499027795523
 31
0.0
  0
LINE
  5
1FC
330
1F
100
AcDbEntity
  8
0
  6
Continuous
 62
     3
100
AcDbLine
 10
28.11125429728278
 20
-28.85499027795523
 30
0.0
 11
28.11125429728278
 21
-28.84065266424705
 31
0.0
  0
LINE
  5
1FD
330
1F
100
AcDbEntity
  8
0
  6
Continuous
 62
     3
100
AcDbLine
 10
28.11125429728278
 20
-28.85499027795523
 30
0.0
 11
28.4112542972828
 21
-29.15499027795523
 31
0.0
  0
LINE
  5
1FE
330
1F
100
AcDbEntity
  8
0
  6
Continuous
 62
     3
100
AcDbLine
 10
33.70704268053183
 20
-23.95999027795539
 30
0.0
 11
33.70704268053132
 21
-32.05999027795531
 31
0.0
  0
LINE
  5
1FF
330
1F
100
AcDbEntity
  8
0
  6
Continuous
 62
     3
100
AcDbLine
 10
32.4112542972828
 20
-31.61499027795536
 30
0.0
 11
32.4112542972828
 21
-24.40499027795514
 31
0.0
  0
LINE
  5
200
330
1F
100
AcDbEntity
  8
0
  6
Continuous
 62
     3
100
AcDbLine
 10
32.4112542972828
 20
-24.40499027795514
 30
0.0
 11
32.4112542972828
 21
-24.00999027795524
 31
0.0
  0
LINE
  5
201
330
1F
100
AcDbEntity
  8
0
  6
Continuous
 62
     3
100
AcDbLine
 10
32.4112542972828
 20
-32.00999027795523
 30
0.0
 11
32.4112542972828
 21
-31.61499027795536
 31
0.0
  0
LINE
  5
202
330
1F
100
AcDbEntity
  8
0
  6
Continuous
 62
     3
100
AcDbLine
 10
33.4212542972829
 20
-24.00999027795524
 30
0.0
 11
32.4112542972828
 21
-24.00999027795524
 31
0.0
  0
LINE
  5
203
330
1F
100
AcDbEntity
  8
0
  6
Continuous
 62
     3
100
AcDbLine
 10
43.9212542972829
 20
-28.00999027795524
 30
0.0
 11
43.9212542972829
 21
-32.76999027795502
 31
0.0
  0
LINE
  5
204
330
1F
100
AcDbEntity
  8
0
  6
Continuous
 62
     3
100
AcDbLine
 10
43.9212542972829
 20
-32.76999027795502
 30
0.0
 11
43.9212542972829
 21
-34.50999027795524
 31
0.0
  0
LINE
  5
205
330
1F
100
AcDbEntity
  8
0
  6
Continuous
 62
     3
100
AcDbLine
 10
42.4212542972829
 20
-32.05999027795531
 30
0.0
 11
42.4212542972829
 21
-34.50999027795524
 31
0.0
  0
LINE
  5
206
330
1F
100
AcDbEntity
  8
0
  6
Continuous
 62
     3
100
AcDbLine
 10
42.4212542972829
 20
-32.05999027795531
 30
0.0
 11
33.70704268053132
 21
-32.05999027795531
 31
0.0
  0
LINE
  5
207
330
1F
100
AcDbEntity
  8
0
  6
Continuous
 62
     3
100
AcDbLine
 10
33.4212542972829
 20
-32.05999027795497
 30
0.0
 11
33.70704268053132
 21
-32.05999027795531
 31
0.0
  0
LINE
  5
208
330
1F
100
AcDbEntity
  8
0
  6
Continuous
 62
     3
100
AcDbLine
 10
33.4212542972829
 20
-32.00999027795524
 30
0.0
 11
32.4112542972828
 21
-32.00999027795523
 31
0.0
  0
LINE
  5
209
330
1F
100
AcDbEntity
  8
0
  6
Continuous
 62
     3
100
AcDbLine
 10
42.4212542972829
 20
-34.50999027795524
 30
0.0
 11
43.9212542972829
 21
-34.50999027795524
 31
0.0
  0
LINE
  5
20A
330
1F
100
AcDbEntity
  8
0
  6
Continuous
 62
     3
100
AcDbLine
 10
33.4212542972829
 20
-24.00999027795524
 30
0.0
 11
33.4212542972829
 21
-32.00999027795524
 31
0.0
  0
LINE
  5
20B
330
1F
100
AcDbEntity
  8
0
  6
Continuous
 62
     3
100
AcDbLine
 10
33.4212542972829
 20
-32.00999027795524
 30
0.0
 11
33.4212542972829
 21
-32.05999027795497
 31
0.0
  0
LINE
  5
20C
330
1F
100
AcDbEntity
  8
0
  6
Continuous
 62
     3
100
AcDbLine
 10
33.4212542972829
 20
-23.95999027795506
 30
0.0
 11
33.4212542972829
 21
-24.00999027795524
 31
0.0
  0
LINE
  5
20D
330
1F
100
AcDbEntity
  8
0
  6
Continuous
 62
     3
100
AcDbLine
 10
42.4212542972829
 20
-28.00999027795524
 30
0.0
 11
42.4212542972829
 21
-32.05999027795531
 31
0.0
  0
LINE
  5
20E
330
1F
100
AcDbEntity
  8
0
  6
Continuous
 62
     3
100
AcDbLine
 10
43.9212542972829
 20
-23.24999027795548
 30
0.0
 11
43.9212542972829
 21
-28.00999027795524
 31
0.0
  0
LINE
  5
20F
330
1F
100
AcDbEntity
  8
0
  6
Continuous
 62
     3
100
AcDbLine
 10
42.4212542972829
 20
-23.95999027795539
 30
0.0
 11
33.70704268053183
 21
-23.95999027795539
 31
0.0
  0
LINE
  5
210
330
1F
100
AcDbEntity
  8
0
  6
Continuous
 62
     3
100
AcDbLine
 10
33.70704268053183
 20
-23.95999027795539
 30
0.0
 11
33.4212542972829
 21
-23.95999027795506
 31
0.0
  0
LINE
  5
211
330
1F
100
AcDbEntity
  8
0
  6
Continuous
 62
     3
100
AcDbLine
 10
42.4212542972829
 20
-23.95999027795539
 30
0.0
 11
42.4212542972829
 21
-28.00999027795524
 31
0.0
  0
LINE
  5
212
330
1F
100
AcDbEntity
  8
0
  6
Continuous
 62
     3
100
AcDbLine
 10
42.4212542972829
 20
-21.50999027795524
 30
0.0
 11
43.9212542972829
 21
-21.50999027795524
 31
0.0
  0
LINE
  5
213
330
1F
100
AcDbEntity
  8
0
  6
Continuous
 62
     3
100
AcDbLine
 10
42.4212542972829
 20
-21.50999027795524
 30
0.0
 11
42.4212542972829
 21
-23.95999027795539
 31
0.0
  0
LINE
  5
214
330
1F
100
AcDbEntity
  8
0
  6
Continuous
 62
     3
100
AcDbLine
 10
43.9212542972829
 20
-21.50999027795524
 30
0.0
 11
43.9212542972829
 21
-23.24999027795548
 31
0.0
  0
LINE
  5
215
330
1F
100
AcDbEntity
  8
0
  6
Continuous
 62
     3
100
AcDbLine
 10
11.44124920904832
 20
-51.95343467739316
 30
0.0
 11
11.44124920904832
 21
-50.74802719298235
 31
0.0
  0
LINE
  5
216
330
1F
100
AcDbEntity
  8
0
  6
Continuous
 62
     3
100
AcDbLine
 10
3.34124920904833
 20
-50.74802719298235
 30
0.0
 11
3.34124920904833
 21
-51.95343467710946
 31
0.0
  0
LINE
  5
217
330
1F
100
AcDbEntity
  8
0
  6
Continuous
 62
     3
100
AcDbLine
 10
8.22191159534013
 20
-49.35499447935531
 30
0.0
 11
7.91895651428494
 21
-49.354994479355
 31
0.0
  0
LINE
  5
218
330
1F
100
AcDbEntity
  8
0
  6
Continuous
 62
     3
100
AcDbLine
 10
8.22191159534013
 20
-49.35499447935531
 30
0.0
 11
8.52570943311964
 21
-49.354994479355
 31
0.0
  0
LINE
  5
219
330
1F
100
AcDbEntity
  8
0
  6
Continuous
 62
     3
100
AcDbLine
 10
6.25678898497704
 20
-49.354994479355
 30
0.0
 11
6.56058682275655
 21
-49.35499447935531
 31
0.0
  0
LINE
  5
21A
330
1F
100
AcDbEntity
  8
0
  6
Continuous
 62
     3
100
AcDbLine
 10
6.86354190381165
 20
-49.354994479355
 30
0.0
 11
6.56058682275655
 21
-49.35499447935531
 31
0.0
  0
LINE
  5
21B
330
1F
100
AcDbEntity
  8
0
  6
Continuous
 62
     3
100
AcDbLine
 10
11.44124920904802
 20
-48.27196176572805
 30
0.0
 11
11.44124920904834
 21
-47.06655428160129
 31
0.0
  0
LINE
  5
21C
330
1F
100
AcDbEntity
  8
0
  6
Continuous
 62
     3
100
AcDbLine
 10
11.44124920904832
 20
-50.74802719298235
 30
0.0
 11
11.44124920904802
 21
-48.27196176572805
 31
0.0
  0
LINE
  5
21D
330
1F
100
AcDbEntity
  8
0
  6
Continuous
 62
     3
100
AcDbLine
 10
3.34124920904814
 20
-48.27196176572954
 30
0.0
 11
3.34124920904814
 21
-50.74802719298086
 31
0.0
  0
LINE
  5
21E
330
1F
100
AcDbEntity
  8
0
  6
Continuous
 62
     3
100
AcDbLine
 10
3.34124920904843
 20
-47.06655428160094
 30
0.0
 11
3.34124920904814
 21
-48.27196176572954
 31
0.0
  0
LINE
  5
21F
330
1F
100
AcDbEntity
  8
1
  6
DOT_CENTER
 62
     2
100
AcDbLine
 10
15.84124920904834
 20
-49.5099944793552
 30
0.0
 11
-1.05875079095166
 21
-49.5099944793552
 31
0.0
  0
LINE
  5
220
330
1F
100
AcDbEntity
  8
1
  6
DOT_CENTER
 62
     2
100
AcDbLine
 10
7.39124920904833
 20
-41.05999447935521
 30
0.0
 11
7.39124920904833
 21
-57.9599944793552
 31
0.0
  0
LINE
  5
221
330
1F
100
AcDbEntity
  8
0
  6
Continuous
 62
     3
100
AcDbLine
 10
28.41125429728228
 20
-49.35499447935516
 30
0.0
 11
30.07521777160324
 21
-49.354994479355
 31
0.0
  0
LINE
  5
222
330
1F
100
AcDbEntity
  8
0
  6
Continuous
 62
     3
100
AcDbLine
 10
28.4112542972828
 20
-50.65499447935518
 30
0.0
 11
28.41125429728228
 21
-49.35499447935516
 31
0.0
  0
LINE
  5
223
330
1F
100
AcDbEntity
  8
0
  6
Continuous
 62
     3
100
AcDbLine
 10
28.11125429728278
 20
-49.35499447935531
 30
0.0
 11
28.41125429728228
 21
-49.35499447935516
 31
0.0
  0
LINE
  5
224
330
1F
100
AcDbEntity
  8
0
  6
Continuous
 62
     3
100
AcDbLine
 10
28.11125429728278
 20
-50.35499447935518
 30
0.0
 11
28.11125429728278
 21
-49.35499447935531
 31
0.0
  0
LINE
  5
225
330
1F
100
AcDbEntity
  8
0
  6
Continuous
 62
     3
100
AcDbLine
 10
31.9112542972828
 20
-46.4049944793551
 30
0.0
 11
31.9212542972829
 21
-46.39499447935506
 31
0.0
  0
LINE
  5
226
330
1F
100
AcDbEntity
  8
0
  6
Continuous
 62
     3
100
AcDbLine
 10
31.9112542972828
 20
-52.61499447935529
 30
0.0
 11
31.9112542972828
 21
-46.4049944793551
 31
0.0
  0
LINE
  5
227
330
1F
100
AcDbEntity
  8
0
  6
Continuous
 62
     3
100
AcDbLine
 10
31.9112542972828
 20
-52.61499447935529
 30
0.0
 11
31.9212542972829
 21
-52.62499447935534
 31
0.0
  0
LINE
  5
228
330
1F
100
AcDbEntity
  8
0
  6
Continuous
 62
     3
100
AcDbLine
 10
32.4112542972828
 20
-53.11499447935529
 30
0.0
 11
32.4112542972828
 21
-45.9049944793551
 31
0.0
  0
LINE
  5
229
330
1F
100
AcDbEntity
  8
0
  6
Continuous
 62
     3
100
AcDbLine
 10
31.9212542972829
 20
-53.00999447935519
 30
0.0
 11
32.4112542972828
 21
-53.50999447935519
 31
0.0
  0
LINE
  5
22A
330
1F
100
AcDbEntity
  8
0
  6
Continuous
 62
     3
100
AcDbLine
 10
32.4112542972828
 20
-53.50999447935519
 30
0.0
 11
32.4112542972828
 21
-53.11499447935529
 31
0.0
  0
LINE
  5
22B
330
1F
100
AcDbEntity
  8
0
  6
Continuous
 62
     3
100
AcDbLine
 10
31.9212542972829
 20
-46.0099944793552
 30
0.0
 11
31.9212542972829
 21
-50.65499447935518
 31
0.0
  0
LINE
  5
22C
330
1F
100
AcDbEntity
  8
0
  6
Continuous
 62
     3
100
AcDbLine
 10
31.9212542972829
 20
-46.0099944793552
 30
0.0
 11
32.4112542972828
 21
-45.5099944793552
 31
0.0
  0
LINE
  5
22D
330
1F
100
AcDbEntity
  8
0
  6
Continuous
 62
     3
100
AcDbLine
 10
32.4112542972828
 20
-53.11499447935529
 30
0.0
 11
32.4112542972828
 21
-45.9049944793551
 31
0.0
  0
LINE
  5
22E
330
1F
100
AcDbEntity
  8
0
  6
Continuous
 62
     3
100
AcDbLine
 10
32.4112542972828
 20
-45.9049944793551
 30
0.0
 11
32.4112542972828
 21
-45.5099944793552
 31
0.0
  0
LINE
  5
22F
330
1F
100
AcDbEntity
  8
0
  6
Continuous
 62
     3
100
AcDbLine
 10
42.4212542972829
 20
-44.77999447935518
 30
0.0
 11
42.4212542972829
 21
-47.06655428160129
 31
0.0
  0
LINE
  5
230
330
1F
100
AcDbEntity
  8
0
  6
Continuous
 62
     3
100
AcDbLine
 10
33.4212542972829
 20
-50.74802719298235
 30
0.0
 11
33.4212542972829
 21
-53.5099944793552
 31
0.0
  0
LINE
  5
231
330
1F
100
AcDbEntity
  8
0
  6
Continuous
 62
     3
100
AcDbLine
 10
33.4212542972829
 20
-50.74802719298235
 30
0.0
 11
33.4212542972829
 21
-48.27196176572805
 31
0.0
  0
LINE
  5
232
330
1F
100
AcDbEntity
  8
0
  6
Continuous
 62
     3
100
AcDbLine
 10
33.4212542972829
 20
-45.5099944793552
 30
0.0
 11
33.4212542972829
 21
-48.27196176572805
 31
0.0
  0
LINE
  5
233
330
1F
100
AcDbEntity
  8
0
  6
Continuous
 62
     3
100
AcDbLine
 10
33.70704268053183
 20
-44.77999447935427
 30
0.0
 11
33.70704268053132
 21
-47.06655428160129
 31
0.0
  0
LINE
  5
234
330
1F
100
AcDbEntity
  8
0
  6
Continuous
 62
     3
100
AcDbLine
 10
33.4212542972829
 20
-45.27499447935416
 30
0.0
 11
33.70704268053183
 21
-44.77999447935427
 31
0.0
  0
LINE
  5
235
330
1F
100
AcDbEntity
  8
0
  6
Continuous
 62
     3
100
AcDbLine
 10
33.4212542972829
 20
-45.27499447935416
 30
0.0
 11
33.4212542972829
 21
-45.5099944793552
 31
0.0
  0
LINE
  5
236
330
1F
100
AcDbEntity
  8
0
  6
Continuous
 62
     3
100
AcDbLine
 10
33.4212542972829
 20
-53.5099944793552
 30
0.0
 11
33.4212542972829
 21
-53.74499447935624
 31
0.0
  0
LINE
  5
237
330
1F
100
AcDbEntity
  8
0
  6
Continuous
 62
     3
100
AcDbLine
 10
42.4212542972829
 20
-44.77999447935518
 30
0.0
 11
33.70704268053183
 21
-44.77999447935427
 31
0.0
  0
LINE
  5
238
330
1F
100
AcDbEntity
  8
0
  6
Continuous
 62
     3
100
AcDbLine
 10
33.4212542972829
 20
-53.74499447935624
 30
0.0
 11
33.70704268053183
 21
-54.23999447935613
 31
0.0
  0
LINE
  5
239
330
1F
100
AcDbEntity
  8
0
  6
Continuous
 62
     3
100
AcDbLine
 10
42.4212542972829
 20
-51.95343467710912
 30
0.0
 11
33.70704268052813
 21
-51.95343467710595
 31
0.0
  0
LINE
  5
23A
330
1F
100
AcDbEntity
  8
0
  6
Continuous
 62
     3
100
AcDbLine
 10
33.70704268052813
 20
-51.95343467710595
 30
0.0
 11
33.70704268053183
 21
-54.23999447935613
 31
0.0
  0
LINE
  5
23B
330
1F
100
AcDbEntity
  8
0
  6
Continuous
 62
     3
100
AcDbLine
 10
33.4212542972829
 20
-53.5099944793552
 30
0.0
 11
32.4112542972828
 21
-53.50999447935519
 31
0.0
  0
LINE
  5
23C
330
1F
100
AcDbEntity
  8
0
  6
Continuous
 62
     3
100
AcDbLine
 10
42.4212542972829
 20
-54.23999447935522
 30
0.0
 11
33.70704268053183
 21
-54.23999447935613
 31
0.0
  0
LINE
  5
23D
330
1F
100
AcDbEntity
  8
0
  6
Continuous
 62
     3
100
AcDbLine
 10
42.4212542972829
 20
-51.95343467710912
 30
0.0
 11
42.4212542972829
 21
-54.23999447935522
 31
0.0
  0
LINE
  5
23E
330
1F
100
AcDbEntity
  8
0
  6
Continuous
 62
     3
100
AcDbLine
 10
32.4112542972828
 20
-53.50999447935519
 30
0.0
 11
32.4112542972828
 21
-53.11499447935529
 31
0.0
  0
LINE
  5
23F
330
1F
100
AcDbEntity
  8
0
  6
Continuous
 62
     3
100
AcDbLine
 10
33.4212542972829
 20
-45.5099944793552
 30
0.0
 11
32.4112542972828
 21
-45.5099944793552
 31
0.0
  0
LINE
  5
240
330
1F
100
AcDbEntity
  8
0
  6
Continuous
 62
     3
100
AcDbLine
 10
42.4212542972829
 20
-47.06655428160129
 30
0.0
 11
33.70704268053132
 21
-47.06655428160129
 31
0.0
  0
LINE
  5
241
330
1F
100
AcDbEntity
  8
0
  6
Continuous
 62
     3
100
AcDbLine
 10
42.4212542972829
 20
-47.06655428160129
 30
0.0
 11
42.4212542972829
 21
-51.95343467710912
 31
0.0
  0
LINE
  5
242
330
1F
100
AcDbEntity
  8
0
  6
Continuous
 62
     3
100
AcDbLine
 10
32.4112542972828
 20
-53.11499447935529
 30
0.0
 11
32.4112542972828
 21
-45.9049944793551
 31
0.0
  0
LINE
  5
243
330
1F
100
AcDbEntity
  8
0
  6
Continuous
 62
     3
100
AcDbLine
 10
32.4112542972828
 20
-45.9049944793551
 30
0.0
 11
32.4112542972828
 21
-45.5099944793552
 31
0.0
  0
LINE
  5
244
330
1F
100
AcDbEntity
  8
1
  6
Continuous
 62
     3
100
AcDbLine
 10
28.4112542972828
 20
-50.65499447935518
 30
0.0
 11
28.11125429728278
 21
-50.35499447935518
 31
0.0
  0
LINE
  5
245
330
1F
100
AcDbEntity
  8
1
  6
DOT_CENTER
 62
     2
100
AcDbLine
 10
56.7596406776247
 20
-49.50999447935303
 30
0.0
 11
26.98348455402231
 21
-49.50999447935303
 31
0.0
  0
LINE
  5
246
330
1F
100
AcDbEntity
  8
0
  6
Continuous
 62
     3
100
AcDbLine
 10
31.9112542972828
 20
-50.65499447935295
 30
0.0
 11
28.4112542972828
 21
-50.65499447935328
 31
0.0
  0
LINE
  5
247
330
1F
100
AcDbEntity
  8
1
  6
Continuous
 62
     3
100
AcDbLine
 10
28.4112542972828
 20
-50.65499447935518
 30
0.0
 11
31.9212542972829
 21
-50.65499447935518
 31
0.0
  0
LINE
  5
248
330
1F
100
AcDbEntity
  8
0
  6
Continuous
 62
     3
100
AcDbLine
 10
31.9212542972829
 20
-50.65499447935518
 30
0.0
 11
31.9212542972829
 21
-53.00999447935519
 31
0.0
  0
LINE
  5
249
330
1F
100
AcDbEntity
  8
1
  6
Continuous
 62
     2
100
AcDbLine
 10
12.00625291061441
 20
-26.47317896029287
 30
0.0
 11
12.00625291061441
 21
-28.97317896029287
 31
0.0
  0
LINE
  5
24A
330
1F
100
AcDbEntity
  8
1
  6
Continuous
 62
     2
100
AcDbLine
 10
12.00625291061441
 20
-26.47317896029287
 30
0.0
 11
19.50625291061441
 21
-26.47317896029287
 31
0.0
  0
LINE
  5
24B
330
1F
100
AcDbEntity
  8
1
  6
Continuous
 62
     2
100
AcDbLine
 10
12.00625291061441
 20
-28.97317896029287
 30
0.0
 11
12.00625291061441
 21
-31.47317896029287
 31
0.0
  0
LINE
  5
24C
330
1F
100
AcDbEntity
  8
1
  6
Continuous
 62
     2
100
AcDbLine
 10
12.00625291061441
 20
-28.97317896029287
 30
0.0
 11
19.50625291061441
 21
-28.97317896029287
 31
0.0
  0
LINE
  5
24D
330
1F
100
AcDbEntity
  8
1
  6
Continuous
 62
     7
100
AcDbLine
 10
12.00625291061441
 20
-31.47317896029287
 30
0.0
 11
19.50625291061441
 21
-31.47317896029287
 31
0.0
  0
LINE
  5
24E
330
1F
100
AcDbEntity
  8
1
  6
Continuous
 62
     2
100
AcDbLine
 10
12.00625291061441
 20
-23.97317896029287
 30
0.0
 11
12.00625291061441
 21
-26.47317896029287
 31
0.0
  0
LINE
  5
24F
330
1F
100
AcDbEntity
  8
1
  6
Continuous
 62
     7
100
AcDbLine
 10
12.00625291061441
 20
-21.47317896029287
 30
0.0
 11
12.00625291061441
 21
-23.97317896029287
 31
0.0
  0
LINE
  5
250
330
1F
100
AcDbEntity
  8
1
  6
Continuous
 62
     7
100
AcDbLine
 10
19.50625291061441
 20
-18.97317896029287
 30
0.0
 11
19.50625291061441
 21
-21.47317896029287
 31
0.0
  0
LINE
  5
251
330
1F
100
AcDbEntity
  8
1
  6
Continuous
 62
     7
100
AcDbLine
 10
12.00625291061441
 20
-23.97317896029287
 30
0.0
 11
19.50625291061441
 21
-23.97317896029287
 31
0.0
  0
LINE
  5
252
330
1F
100
AcDbEntity
  8
1
  6
Continuous
 62
     7
100
AcDbLine
 10
19.50625291061441
 20
-31.47317896029287
 30
0.0
 11
19.50625291061441
 21
-28.97317896029287
 31
0.0
  0
LINE
  5
253
330
1F
100
AcDbEntity
  8
1
  6
Continuous
 62
     7
100
AcDbLine
 10
19.50625291061441
 20
-28.97317896029287
 30
0.0
 11
19.50625291061441
 21
-26.47317896029287
 31
0.0
  0
LINE
  5
254
330
1F
100
AcDbEntity
  8
1
  6
Continuous
 62
     7
100
AcDbLine
 10
19.50625291061441
 20
-26.47317896029287
 30
0.0
 11
19.50625291061441
 21
-23.97317896029287
 31
0.0
  0
LINE
  5
255
330
1F
100
AcDbEntity
  8
1
  6
Continuous
 62
     7
100
AcDbLine
 10
19.50625291061441
 20
-23.97317896029287
 30
0.0
 11
19.50625291061441
 21
-21.47317896029287
 31
0.0
  0
LINE
  5
256
330
1F
100
AcDbEntity
  8
1
  6
Continuous
 62
     7
100
AcDbLine
 10
19.50625291061441
 20
-21.47317896029287
 30
0.0
 11
12.00625291061441
 21
-21.47317896029287
 31
0.0
  0
LINE
  5
257
330
1F
100
AcDbEntity
  8
1
  6
Continuous
 62
     7
100
AcDbLine
 10
12.00625291061441
 20
-21.47317896029287
 30
0.0
 11
-1.99374708938558
 21
-21.47317896029287
 31
0.0
  0
LINE
  5
258
330
1F
100
AcDbEntity
  8
1
  6
Continuous
 62
     7
100
AcDbLine
 10
-1.99374708938558
 20
-18.97317896029287
 30
0.0
 11
19.50625291061441
 21
-18.97317896029287
 31
0.0
  0
LINE
  5
259
330
1F
100
AcDbEntity
  8
1
  6
Continuous
 62
     7
100
AcDbLine
 10
-1.99374708938558
 20
-21.47317896029287
 30
0.0
 11
-1.99374708938558
 21
-18.97317896029287
 31
0.0
  0
LINE
  5
25A
330
1F
100
AcDbEntity
  8
1
  6
Continuous
 62
     7
100
AcDbLine
 10
-1.99374708938558
 20
-31.47317896029287
 30
0.0
 11
12.00625291061441
 21
-31.47317896029287
 31
0.0
  0
LINE
  5
25B
330
1F
100
AcDbEntity
  8
1
  6
Continuous
 62
     7
100
AcDbLine
 10
-1.99374708938558
 20
-28.97317896029287
 30
0.0
 11
-1.99374708938558
 21
-31.47317896029287
 31
0.0
  0
LINE
  5
25C
330
1F
100
AcDbEntity
  8
1
  6
Continuous
 62
     2
100
AcDbLine
 10
-1.99374708938558
 20
-28.97317896029287
 30
0.0
 11
12.00625291061441
 21
-28.97317896029287
 31
0.0
  0
LINE
  5
25D
330
1F
100
AcDbEntity
  8
1
  6
Continuous
 62
     7
100
AcDbLine
 10
-1.99374708938558
 20
-26.47317896029287
 30
0.0
 11
-1.99374708938558
 21
-28.97317896029287
 31
0.0
  0
LINE
  5
25E
330
1F
100
AcDbEntity
  8
1
  6
Continuous
 62
     2
100
AcDbLine
 10
-1.99374708938558
 20
-26.47317896029287
 30
0.0
 11
12.00625291061441
 21
-26.47317896029287
 31
0.0
  0
LINE
  5
25F
330
1F
100
AcDbEntity
  8
1
  6
Continuous
 62
     7
100
AcDbLine
 10
-1.99374708938558
 20
-23.97317896029287
 30
0.0
 11
-1.99374708938558
 21
-26.47317896029287
 31
0.0
  0
LINE
  5
260
330
1F
100
AcDbEntity
  8
1
  6
Continuous
 62
     7
100
AcDbLine
 10
-1.99374708938558
 20
-23.97317896029287
 30
0.0
 11
12.00625291061441
 21
-23.97317896029287
 31
0.0
  0
LINE
  5
261
330
1F
100
AcDbEntity
  8
1
  6
Continuous
 62
     7
100
AcDbLine
 10
-1.99374708938558
 20
-21.47317896029287
 30
0.0
 11
-1.99374708938558
 21
-23.97317896029287
 31
0.0
  0
LINE
  5
262
330
1F
100
AcDbEntity
  8
1
  6
DOT_CENTER
 62
     2
100
AcDbLine
 10
44.86475632522198
 20
-32.00999027795368
 30
0.0
 11
44.86475632522198
 21
-24.00999027795368
 31
0.0
  0
LINE
  5
263
330
1F
100
AcDbEntity
  8
1
  6
DOT_CENTER
 62
     2
100
AcDbLine
 10
46.60962822218059
 20
-32.00999027795368
 30
0.0
 11
44.86475632522198
 21
-32.00999027795368
 31
0.0
  0
LINE
  5
264
330
1F
100
AcDbEntity
  8
1
  6
DOT_CENTER
 62
     2
100
AcDbLine
 10
46.60962822218059
 20
-24.00999027795368
 30
0.0
 11
46.60962822218059
 21
-32.00999027795368
 31
0.0
  0
LINE
  5
265
330
1F
100
AcDbEntity
  8
1
  6
DOT_CENTER
 62
     2
100
AcDbLine
 10
44.86475632522198
 20
-24.00999027795368
 30
0.0
 11
46.60962822218059
 21
-24.00999027795368
 31
0.0
  0
ARC
  5
266
330
1F
100
AcDbEntity
  8
0
  6
Continuous
 62
     3
100
AcDbCircle
 10
68.15500000000917
 20
-94.4400003266889
 30
0.0
 40
6.921710418767804
100
AcDbArc
 50
150.0000000001681
 51
150.0932213077608
  0
ARC
  5
267
330
1F
100
AcDbEntity
  8
0
  6
Continuous
 62
     3
100
AcDbCircle
 10
68.15499999998542
 20
-94.44000032668522
 30
0.0
 40
6.92171041876782
100
AcDbArc
 50
29.90677869220396
 51
29.99999999979658
  0
ARC
  5
268
330
1F
100
AcDbEntity
  8
0
  6
Continuous
 62
     3
100
AcDbCircle
 10
68.15499999999628
 20
-94.44000032671129
 30
0.0
 40
6.921710418767821
100
AcDbArc
 50
330.0000000000497
 51
330.093221307616
  0
ARC
  5
269
330
1F
100
AcDbEntity
  8
0
  6
Continuous
 62
     3
100
AcDbCircle
 10
68.15500000046964
 20
-94.4400003275255
 30
0.0
 40
6.921710418768575
100
AcDbArc
 50
209.9067786846053
 51
209.9999999921503
  0
ARC
  5
26A
330
1F
100
AcDbEntity
  8
0
  6
Continuous
 62
     3
100
AcDbCircle
 10
35.3300023833167
 20
-104.3400003267077
 30
0.0
 40
0.75
100
AcDbArc
 50
180.0
 51
270.0
  0
ARC
  5
26B
330
1F
100
AcDbEntity
  8
0
  6
Continuous
 62
     3
100
AcDbCircle
 10
35.3300023833167
 20
-98.84000032670767
 30
0.0
 40
0.75
100
AcDbArc
 50
0.0
 51
90.0
  0
ARC
  5
26C
330
1F
100
AcDbEntity
  8
0
  6
Continuous
 62
     3
100
AcDbCircle
 10
35.3300023833167
 20
-104.9900003267076
 30
0.0
 40
2.099999999999979
100
AcDbArc
 50
192.5279054398513
 51
270.0
  0
ARC
  5
26D
330
1F
100
AcDbEntity
  8
0
  6
Continuous
 62
     3
100
AcDbCircle
 10
35.3300023833167
 20
-84.44000032670766
 30
0.0
 40
6.549999999999706
100
AcDbArc
 50
0.0
 51
90.0
  0
ARC
  5
26E
330
1F
100
AcDbEntity
  8
0
  6
Continuous
 62
     3
100
AcDbCircle
 10
35.3300023833167
 20
-84.44000032670766
 30
0.0
 40
6.549999999999705
100
AcDbArc
 50
288.2387362320222
 51
0.0
  0
ARC
  5
26F
330
1F
100
AcDbEntity
  8
0
  6
Continuous
 62
     3
100
AcDbCircle
 10
35.3300023833167
 20
-84.44000032670766
 30
0.0
 40
6.549999999999713
100
AcDbArc
 50
90.0
 51
180.0
  0
ARC
  5
270
330
1F
100
AcDbEntity
  8
0
  6
Continuous
 62
     3
100
AcDbCircle
 10
35.3300023833167
 20
-98.84000032670767
 30
0.0
 40
0.75
100
AcDbArc
 50
90.0
 51
180.0
  0
ARC
  5
271
330
1F
100
AcDbEntity
  8
0
  6
Continuous
 62
     3
100
AcDbCircle
 10
35.3300023833167
 20
-104.3400003267077
 30
0.0
 40
0.75
100
AcDbArc
 50
270.0
 51
0.0
  0
ARC
  5
272
330
1F
100
AcDbEntity
  8
0
  6
Continuous
 62
     3
100
AcDbCircle
 10
35.3300023833167
 20
-104.9900003267076
 30
0.0
 40
2.099999999999994
100
AcDbArc
 50
270.0
 51
347.4720945601485
  0
ARC
  5
273
330
1F
100
AcDbEntity
  8
0
  6
Continuous
 62
     3
100
AcDbCircle
 10
35.3300023833133
 20
-84.44000032670698
 30
0.0
 40
5.500000000000052
100
AcDbArc
 50
73.7629131261051
 51
83.73708687382513
  0
ARC
  5
274
330
1F
100
AcDbEntity
  8
0
  6
Continuous
 62
     3
100
AcDbCircle
 10
35.3300023833185
 20
-84.44000032670729
 30
0.0
 40
5.500000000000186
100
AcDbArc
 50
96.26291312615832
 51
106.2370868738881
  0
ARC
  5
275
330
1F
100
AcDbEntity
  8
0
  6
Continuous
 62
     3
100
AcDbCircle
 10
35.33000238331901
 20
-84.44000032670922
 30
0.0
 40
5.499999999999803
100
AcDbArc
 50
51.26291312617694
 51
61.23708687389632
  0
ARC
  5
276
330
1F
100
AcDbEntity
  8
0
  6
Continuous
 62
     3
100
AcDbCircle
 10
35.3300023833167
 20
-84.44000032670766
 30
0.0
 40
5.00000000000065
100
AcDbArc
 50
83.10789742065467
 51
96.89210257934583
  0
ARC
  5
277
330
1F
100
AcDbEntity
  8
0
  6
Continuous
 62
     3
100
AcDbCircle
 10
35.33000238331374
 20
-84.44000032670962
 30
0.0
 40
5.500000000000328
100
AcDbArc
 50
118.762913126105
 51
128.7370868738234
  0
ARC
  5
278
330
1F
100
AcDbEntity
  8
0
  6
Continuous
 62
     3
100
AcDbCircle
 10
35.3300023833133
 20
-84.44000032670698
 30
0.0
 40
5.000000000000841
100
AcDbArc
 50
60.60789742061608
 51
74.39210257931542
  0
ARC
  5
279
330
1F
100
AcDbEntity
  8
0
  6
Continuous
 62
     3
100
AcDbCircle
 10
35.33000238332058
 20
-84.44000032670604
 30
0.0
 40
5.000000000000276
100
AcDbArc
 50
105.6078974207042
 51
119.3921025793944
  0
ARC
  5
27A
330
1F
100
AcDbEntity
  8
0
  6
Continuous
 62
     3
100
AcDbCircle
 10
35.3300023833167
 20
-84.44000032670766
 30
0.0
 40
5.000000000000243
100
AcDbArc
 50
128.1078974206529
 51
141.8921025793474
  0
ARC
  5
27B
330
1F
100
AcDbEntity
  8
0
  6
Continuous
 62
     3
100
AcDbCircle
 10
35.3300023833171
 20
-84.44000032670561
 30
0.0
 40
5.500000000000528
100
AcDbArc
 50
163.7629131261655
 51
173.7370868738827
  0
ARC
  5
27C
330
1F
100
AcDbEntity
  8
0
  6
Continuous
 62
     3
100
AcDbCircle
 10
35.3300023833167
 20
-84.44000032670766
 30
0.0
 40
4.999999999999416
100
AcDbArc
 50
38.10789742065996
 51
51.8921025793563
  0
ARC
  5
27D
330
1F
100
AcDbEntity
  8
0
  6
Continuous
 62
     3
100
AcDbCircle
 10
35.3300023833167
 20
-84.44000032670766
 30
0.0
 40
5.500000000000011
100
AcDbArc
 50
28.76291312614219
 51
38.7370868738668
  0
ARC
  5
27E
330
1F
100
AcDbEntity
  8
0
  6
Continuous
 62
     3
100
AcDbCircle
 10
35.33000238331589
 20
-84.44000032670888
 30
0.0
 40
5.50000000000079
100
AcDbArc
 50
141.2629131261245
 51
151.2370868738477
  0
ARC
  5
27F
330
1F
100
AcDbEntity
  8
0
  6
Continuous
 62
     3
100
AcDbCircle
 10
35.3300023833167
 20
-84.44000032670766
 30
0.0
 40
4.999999999999798
100
AcDbArc
 50
15.60789742065947
 51
29.39210257934629
  0
ARC
  5
280
330
1F
100
AcDbEntity
  8
0
  6
Continuous
 62
     3
100
AcDbCircle
 10
35.3300023833167
 20
-84.44000032670766
 30
0.0
 40
5.000000000000641
100
AcDbArc
 50
150.6078974206595
 51
164.3921025793437
  0
ARC
  5
281
330
1F
100
AcDbEntity
  8
0
  6
Continuous
 62
     3
100
AcDbCircle
 10
35.3300023833171
 20
-84.44000032670561
 30
0.0
 40
5.49999999999871
100
AcDbArc
 50
6.26291312611936
 51
16.23708687383973
  0
ARC
  5
282
330
1F
100
AcDbEntity
  8
0
  6
Continuous
 62
     3
100
AcDbCircle
 10
35.3300023833167
 20
-84.44000032670766
 30
0.0
 40
5.000000000000655
100
AcDbArc
 50
173.1078974206546
 51
186.8921025793454
  0
ARC
  5
283
330
1F
100
AcDbEntity
  8
0
  6
Continuous
 62
     3
100
AcDbCircle
 10
35.3300023833167
 20
-84.44000032670766
 30
0.0
 40
4.999999999999629
100
AcDbArc
 50
353.1078974206532
 51
6.89210257934683
  0
ARC
  5
284
330
1F
100
AcDbEntity
  8
0
  6
Continuous
 62
     3
100
AcDbCircle
 10
35.3300023833185
 20
-84.44000032670729
 30
0.0
 40
5.50000000000087
100
AcDbArc
 50
253.762913126114
 51
263.7370868738425
  0
ARC
  5
285
330
1F
100
AcDbEntity
  8
0
  6
Continuous
 62
     3
100
AcDbCircle
 10
35.3300023833185
 20
-84.44000032670729
 30
0.0
 40
5.499999999999506
100
AcDbArc
 50
276.262913126121
 51
286.2370868738399
  0
ARC
  5
286
330
1F
100
AcDbEntity
  8
0
  6
Continuous
 62
     3
100
AcDbCircle
 10
35.33000238331589
 20
-84.44000032670888
 30
0.0
 40
5.499999999998839
100
AcDbArc
 50
298.7629131261463
 51
308.7370868738734
  0
ARC
  5
287
330
1F
100
AcDbEntity
  8
0
  6
Continuous
 62
     3
100
AcDbCircle
 10
35.3300023833167
 20
-84.44000032670766
 30
0.0
 40
5.499999999999867
100
AcDbArc
 50
231.262913126133
 51
241.237086873858
  0
ARC
  5
288
330
1F
100
AcDbEntity
  8
0
  6
Continuous
 62
     3
100
AcDbCircle
 10
35.3300023833167
 20
-84.44000032670766
 30
0.0
 40
4.999999999999668
100
AcDbArc
 50
263.1078974206528
 51
276.8921025793467
  0
ARC
  5
289
330
1F
100
AcDbEntity
  8
0
  6
Continuous
 62
     3
100
AcDbCircle
 10
35.3300023833167
 20
-84.44000032670766
 30
0.0
 40
4.999999999999761
100
AcDbArc
 50
240.6078974206533
 51
254.3921025793404
  0
ARC
  5
28A
330
1F
100
AcDbEntity
  8
0
  6
Continuous
 62
     3
100
AcDbCircle
 10
35.33000238331916
 20
-84.44000032670397
 30
0.0
 40
5.499999999999646
100
AcDbArc
 50
321.2629131260952
 51
331.237086873812
  0
ARC
  5
28B
330
1F
100
AcDbEntity
  8
0
  6
Continuous
 62
     3
100
AcDbCircle
 10
35.33000238331393
 20
-84.44000032670351
 30
0.0
 40
5.500000000000458
100
AcDbArc
 50
208.7629131261886
 51
218.737086873904
  0
ARC
  5
28C
330
1F
100
AcDbEntity
  8
0
  6
Continuous
 62
     3
100
AcDbCircle
 10
35.33000238331709
 20
-84.44000032670965
 30
0.0
 40
5.500000000000517
100
AcDbArc
 50
186.2629131261179
 51
196.2370868738348
  0
ARC
  5
28D
330
1F
100
AcDbEntity
  8
0
  6
Continuous
 62
     3
100
AcDbCircle
 10
35.33000238331709
 20
-84.44000032670965
 30
0.0
 40
5.499999999998813
100
AcDbArc
 50
343.76291312616
 51
353.7370868738801
  0
ARC
  5
28E
330
1F
100
AcDbEntity
  8
0
  6
Continuous
 62
     3
100
AcDbCircle
 10
35.3300023833167
 20
-84.44000032670766
 30
0.0
 40
5.000000000000519
100
AcDbArc
 50
195.607897420645
 51
209.3921025793405
  0
ARC
  5
28F
330
1F
100
AcDbEntity
  8
0
  6
Continuous
 62
     3
100
AcDbCircle
 10
35.3300023833167
 20
-84.44000032670766
 30
0.0
 40
4.99999999999975
100
AcDbArc
 50
330.6078974206537
 51
344.3921025793518
  0
ARC
  5
290
330
1F
100
AcDbEntity
  8
0
  6
Continuous
 62
     3
100
AcDbCircle
 10
35.3300023833167
 20
-84.44000032670766
 30
0.0
 40
4.999999999999528
100
AcDbArc
 50
285.607897420648
 51
299.3921025793463
  0
ARC
  5
291
330
1F
100
AcDbEntity
  8
0
  6
Continuous
 62
     3
100
AcDbCircle
 10
35.3300023833167
 20
-84.44000032670766
 30
0.0
 40
5.000000000000232
100
AcDbArc
 50
218.1078974206526
 51
231.892102579347
  0
ARC
  5
292
330
1F
100
AcDbEntity
  8
0
  6
Continuous
 62
     3
100
AcDbCircle
 10
35.3300023833167
 20
-84.44000032670766
 30
0.0
 40
4.999999999999612
100
AcDbArc
 50
308.1078974206437
 51
321.89210257934
  0
ARC
  5
293
330
1F
100
AcDbEntity
  8
0
  6
Continuous
 62
     3
100
AcDbCircle
 10
35.3300023833167
 20
-84.44000032670766
 30
0.0
 40
6.549999999999724
100
AcDbArc
 50
180.0
 51
251.7612637679774
  0
ARC
  5
294
330
1F
100
AcDbEntity
  8
1
  6
Continuous
 62
     3
100
AcDbCircle
 10
5.17327835256079
 20
-94.44000032670766
 30
0.0
 40
4.849999999999418
100
AcDbArc
 50
32.28938410647222
 51
147.7106158935393
  0
ARC
  5
295
330
1F
100
AcDbEntity
  8
1
  6
Continuous
 62
     3
100
AcDbCircle
 10
5.17327835256079
 20
-94.44000032670766
 30
0.0
 40
4.850000000000955
100
AcDbArc
 50
212.2893841064607
 51
327.7106158935277
  0
ARC
  5
296
330
1F
100
AcDbEntity
  8
0
  6
Continuous
 62
     3
100
AcDbCircle
 10
76.62125661218046
 20
-49.50999447935482
 30
0.0
 40
4.760000000032785
100
AcDbArc
 50
282.0041883463545
 51
77.99581165364643
  0
ARC
  5
297
330
1F
100
AcDbEntity
  8
0
  6
Continuous
 62
     3
100
AcDbCircle
 10
76.62125661213001
 20
-49.50999447935462
 30
0.0
 40
4.760000000043477
100
AcDbArc
 50
257.9958116543384
 51
282.004188346948
  0
ARC
  5
298
330
1F
100
AcDbEntity
  8
0
  6
Continuous
 62
     3
100
AcDbCircle
 10
76.62125661234577
 20
-49.50999447937201
 30
0.0
 40
4.760000000015589
100
AcDbArc
 50
77.99581165563582
 51
90.00000000198989
  0
ARC
  5
299
330
1F
100
AcDbEntity
  8
0
  6
Continuous
 62
     3
100
AcDbCircle
 10
76.62125661191573
 20
-49.50999447938246
 30
0.0
 40
4.760000000026047
100
AcDbArc
 50
89.99999999681341
 51
102.0041883430692
  0
ARC
  5
29A
330
1F
100
AcDbEntity
  8
0
  6
Continuous
 62
     3
100
AcDbCircle
 10
76.62125661218046
 20
-49.50999447935482
 30
0.0
 40
4.760000000054067
100
AcDbArc
 50
102.0041883462553
 51
257.9958116537439
  0
ARC
  5
29B
330
1F
100
AcDbEntity
  8
0
  6
Continuous
 62
     3
100
AcDbCircle
 10
76.62125661218046
 20
-49.50999447935298
 30
0.0
 40
1.14500000000003
100
AcDbArc
 50
172.4723653245985
 51
187.5276346752924
  0
ARC
  5
29C
330
1F
100
AcDbEntity
  8
0
  6
Continuous
 62
     3
100
AcDbCircle
 10
76.62125661218046
 20
-49.50999447935298
 30
0.0
 40
1.145000000000699
100
AcDbArc
 50
82.4723653246273
 51
97.52763467535118
  0
ARC
  5
29D
330
1F
100
AcDbEntity
  8
0
  6
Continuous
 62
     3
100
AcDbCircle
 10
76.62125661218046
 20
-49.50999447935298
 30
0.0
 40
1.1450000000007
100
AcDbArc
 50
97.52763467535118
 51
172.4723653245985
  0
ARC
  5
29E
330
1F
100
AcDbEntity
  8
0
  6
Continuous
 62
     3
100
AcDbCircle
 10
76.62125661218046
 20
-49.50999447935298
 30
0.0
 40
1.145000000000263
100
AcDbArc
 50
25.89232102836962
 51
82.4723653246273
  0
ARC
  5
29F
330
1F
100
AcDbEntity
  8
0
  6
Continuous
 62
     3
100
AcDbCircle
 10
76.62125661218046
 20
-49.50999447935298
 30
0.0
 40
1.14500000000004
100
AcDbArc
 50
7.52763467543265
 51
25.89232102836962
  0
ARC
  5
2A0
330
1F
100
AcDbEntity
  8
0
  6
Continuous
 62
     3
100
AcDbCircle
 10
76.62125661218046
 20
-49.50999447935298
 30
0.0
 40
1.144999999999831
100
AcDbArc
 50
352.4723653247008
 51
7.52763467543265
  0
ARC
  5
2A1
330
1F
100
AcDbEntity
  8
0
  6
Continuous
 62
     3
100
AcDbCircle
 10
76.62125661218101
 20
-49.50999447935112
 30
0.0
 40
1.144999999999519
100
AcDbArc
 50
334.1076789717756
 51
352.4723653246048
  0
ARC
  5
2A2
330
1F
100
AcDbEntity
  8
0
  6
Continuous
 62
     3
100
AcDbCircle
 10
76.6212566121829
 20
-49.50999447935543
 30
0.0
 40
0.7249999999984101
100
AcDbArc
 50
1.06333819514301
 51
88.93666180253297
  0
ARC
  5
2A3
330
1F
100
AcDbEntity
  8
0
  6
Continuous
 62
     3
100
AcDbCircle
 10
76.47125661218173
 20
-49.65999447935148
 30
0.0
 40
1.015000000000279
100
AcDbArc
 50
8.49848450477981
 51
81.5015154952661
  0
ARC
  5
2A4
330
1F
100
AcDbEntity
  8
0
  6
Continuous
 62
     3
100
AcDbCircle
 10
76.47125661218173
 20
-49.65999447935148
 30
0.0
 40
1.145000000001409
100
AcDbArc
 50
7.52763467538092
 51
82.47236532466594
  0
ARC
  5
2A5
330
1F
100
AcDbEntity
  8
0
  6
Continuous
 62
     3
100
AcDbCircle
 10
76.62125661218407
 20
-49.50999447934937
 30
0.0
 40
0.7249999999984563
100
AcDbArc
 50
91.06333819491604
 51
178.9366618026021
  0
ARC
  5
2A6
330
1F
100
AcDbEntity
  8
0
  6
Continuous
 62
     3
100
AcDbCircle
 10
76.7712566121801
 20
-49.65999447935147
 30
0.0
 40
1.015000000000289
100
AcDbArc
 50
98.49848450477528
 51
171.5015154951964
  0
ARC
  5
2A7
330
1F
100
AcDbEntity
  8
0
  6
Continuous
 62
     3
100
AcDbCircle
 10
76.62125661201894
 20
-49.50999447935298
 30
0.0
 40
0.7249999999990077
100
AcDbArc
 50
88.93666178957369
 51
91.06333818186299
  0
ARC
  5
2A8
330
1F
100
AcDbEntity
  8
0
  6
Continuous
 62
     3
100
AcDbCircle
 10
76.7712566121801
 20
-49.65999447935147
 30
0.0
 40
1.1450000000022
100
AcDbArc
 50
97.52763467537926
 51
172.4723653246218
  0
ARC
  5
2A9
330
1F
100
AcDbEntity
  8
0
  6
Continuous
 62
     3
100
AcDbCircle
 10
76.62125661216827
 20
-49.50999447934079
 30
0.0
 40
0.7250000000219786
100
AcDbArc
 50
181.0633381952152
 51
268.9366618062776
  0
ARC
  5
2AA
330
1F
100
AcDbEntity
  8
0
  6
Continuous
 62
     3
100
AcDbCircle
 10
76.62125661218046
 20
-49.50999448040435
 30
0.0
 40
0.7250000000144255
100
AcDbArc
 50
178.9366617192377
 51
181.0633381111599
  0
ARC
  5
2AB
330
1F
100
AcDbEntity
  8
0
  6
Continuous
 62
     3
100
AcDbCircle
 10
76.771256612181
 20
-49.35999447935311
 30
0.0
 40
1.015000000000295
100
AcDbArc
 50
188.4984845047099
 51
261.5015154951695
  0
ARC
  5
2AC
330
1F
100
AcDbEntity
  8
0
  6
Continuous
 62
     3
100
AcDbCircle
 10
76.6212566119023
 20
-49.50999447935298
 30
0.0
 40
0.7250000000048497
100
AcDbArc
 50
268.9366618272754
 51
271.0633382168427
  0
ARC
  5
2AD
330
1F
100
AcDbEntity
  8
0
  6
Continuous
 62
     3
100
AcDbCircle
 10
76.62125661218046
 20
-49.50999447919297
 30
0.0
 40
0.724999999997843
100
AcDbArc
 50
358.9366617898427
 51
1.06333818230276
  0
ARC
  5
2AE
330
1F
100
AcDbEntity
  8
0
  6
Continuous
 62
     3
100
AcDbCircle
 10
76.62125661217802
 20
-49.50999447935543
 30
0.0
 40
0.7249999999972893
100
AcDbArc
 50
271.0633381950604
 51
358.936661802683
  0
ARC
  5
2AF
330
1F
100
AcDbEntity
  8
0
  6
Continuous
 62
     3
100
AcDbCircle
 10
76.47125661217628
 20
-49.35999447934857
 30
0.0
 40
1.145000000007306
100
AcDbArc
 50
277.5276346756166
 51
352.4723653244673
  0
ARC
  5
2B0
330
1F
100
AcDbEntity
  8
0
  6
Continuous
 62
     3
100
AcDbCircle
 10
76.47125661217773
 20
-49.35999447934711
 30
0.0
 40
1.015000000004994
100
AcDbArc
 50
278.4984845049327
 51
351.501515494968
  0
ARC
  5
2B1
330
1F
100
AcDbEntity
  8
0
  6
Continuous
 62
     3
100
AcDbCircle
 10
76.771256612181
 20
-49.35999447935311
 30
0.0
 40
1.145000000002992
100
AcDbArc
 50
187.5276346753288
 51
262.4723653246159
  0
ARC
  5
2B2
330
1F
100
AcDbEntity
  8
0
  6
Continuous
 62
     3
100
AcDbCircle
 10
76.62125661218046
 20
-49.50999447935298
 30
0.0
 40
1.14499999999916
100
AcDbArc
 50
262.4723653246078
 51
277.527634675403
  0
ARC
  5
2B3
330
1F
100
AcDbEntity
  8
0
  6
Continuous
 62
     3
100
AcDbCircle
 10
76.62125661218046
 20
-49.50999447935298
 30
0.0
 40
1.144999999999828
100
AcDbArc
 50
187.5276346752924
 51
262.4723653246078
  0
ARC
  5
2B4
330
1F
100
AcDbEntity
  8
0
  6
Continuous
 62
     3
100
AcDbCircle
 10
76.62125661218046
 20
-49.50999447935298
 30
0.0
 40
1.144999999999159
100
AcDbArc
 50
277.527634675403
 51
334.1076789718714
  0
ARC
  5
2B5
330
1F
100
AcDbEntity
  8
0
  6
Continuous
 62
     3
100
AcDbCircle
 10
76.62125661218046
 20
-49.50999447935298
 30
0.0
 40
1.14500000000003
100
AcDbArc
 50
172.4723653245985
 51
187.5276346752924
  0
ARC
  5
2B6
330
1F
100
AcDbEntity
  8
0
  6
Continuous
 62
     3
100
AcDbCircle
 10
76.62125661218046
 20
-49.50999447935298
 30
0.0
 40
1.145000000000699
100
AcDbArc
 50
82.4723653246273
 51
97.52763467535118
  0
ARC
  5
2B7
330
1F
100
AcDbEntity
  8
0
  6
Continuous
 62
     3
100
AcDbCircle
 10
76.62125661218046
 20
-49.50999447935298
 30
0.0
 40
1.1450000000007
100
AcDbArc
 50
97.52763467535118
 51
172.4723653245985
  0
ARC
  5
2B8
330
1F
100
AcDbEntity
  8
0
  6
Continuous
 62
     3
100
AcDbCircle
 10
76.62125661218046
 20
-49.50999447935298
 30
0.0
 40
1.145000000000263
100
AcDbArc
 50
25.89232102836962
 51
82.4723653246273
  0
ARC
  5
2B9
330
1F
100
AcDbEntity
  8
0
  6
Continuous
 62
     3
100
AcDbCircle
 10
76.62125661218046
 20
-49.50999447935298
 30
0.0
 40
1.14500000000004
100
AcDbArc
 50
7.52763467543265
 51
25.89232102836962
  0
ARC
  5
2BA
330
1F
100
AcDbEntity
  8
0
  6
Continuous
 62
     3
100
AcDbCircle
 10
76.62125661218046
 20
-49.50999447935298
 30
0.0
 40
1.144999999999831
100
AcDbArc
 50
352.4723653247008
 51
7.52763467543265
  0
ARC
  5
2BB
330
1F
100
AcDbEntity
  8
0
  6
Continuous
 62
     3
100
AcDbCircle
 10
76.62125661218101
 20
-49.50999447935112
 30
0.0
 40
1.144999999999519
100
AcDbArc
 50
334.1076789717756
 51
352.4723653246048
  0
ARC
  5
2BC
330
1F
100
AcDbEntity
  8
0
  6
Continuous
 62
     3
100
AcDbCircle
 10
76.62125661218046
 20
-49.50999447935298
 30
0.0
 40
1.14499999999916
100
AcDbArc
 50
262.4723653246078
 51
277.527634675403
  0
ARC
  5
2BD
330
1F
100
AcDbEntity
  8
0
  6
Continuous
 62
     3
100
AcDbCircle
 10
76.62125661218046
 20
-49.50999447935298
 30
0.0
 40
1.144999999999828
100
AcDbArc
 50
187.5276346752924
 51
262.4723653246078
  0
ARC
  5
2BE
330
1F
100
AcDbEntity
  8
0
  6
Continuous
 62
     3
100
AcDbCircle
 10
76.62125661218046
 20
-49.50999447935298
 30
0.0
 40
1.144999999999159
100
AcDbArc
 50
277.527634675403
 51
334.1076789718714
  0
ARC
  5
2BF
330
1F
100
AcDbEntity
  8
0
  6
Continuous
 62
     3
100
AcDbCircle
 10
7.39124920904833
 20
-49.50999447935467
 30
0.0
 40
1.144999999999931
100
AcDbArc
 50
7.78008391453037
 51
172.2199160854695
  0
ARC
  5
2C0
330
1F
100
AcDbEntity
  8
0
  6
Continuous
 62
     3
100
AcDbCircle
 10
7.39124920904833
 20
-49.50999447935467
 30
0.0
 40
1.144999999999903
100
AcDbArc
 50
172.2199160854695
 51
7.78008391453037
  0
ARC
  5
2C1
330
1F
100
AcDbEntity
  8
0
  6
Continuous
 62
     3
100
AcDbCircle
 10
7.39124920904833
 20
-49.50999447935467
 30
0.0
 40
0.8449999999998521
100
AcDbArc
 50
169.4302744636951
 51
10.5697255363046
  0
ARC
  5
2C2
330
1F
100
AcDbEntity
  8
0
  6
Continuous
 62
     3
100
AcDbCircle
 10
7.39124920904833
 20
-49.50999447935467
 30
0.0
 40
0.5499999999999906
100
AcDbArc
 50
16.36874949543956
 51
163.6312505045621
  0
ARC
  5
2C3
330
1F
100
AcDbEntity
  8
0
  6
Continuous
 62
     3
100
AcDbCircle
 10
7.39124920904833
 20
-49.50999447935467
 30
0.0
 40
0.5500000000000451
100
AcDbArc
 50
163.6312505045621
 51
16.36874949543956
  0
ARC
  5
2C4
330
1F
100
AcDbEntity
  8
0
  6
Continuous
 62
     3
100
AcDbCircle
 10
7.39124920904833
 20
-49.50999447935467
 30
0.0
 40
1.144999999999931
100
AcDbArc
 50
7.78008391453037
 51
172.2199160854695
  0
ARC
  5
2C5
330
1F
100
AcDbEntity
  8
0
  6
Continuous
 62
     3
100
AcDbCircle
 10
7.39124920904833
 20
-49.50999447935467
 30
0.0
 40
1.144999999999903
100
AcDbArc
 50
172.2199160854695
 51
7.78008391453037
  0
ARC
  5
2C6
330
1F
100
AcDbEntity
  8
0
  6
Continuous
 62
     3
100
AcDbCircle
 10
7.39124920904833
 20
-49.50999447935467
 30
0.0
 40
4.7299999999997
100
AcDbArc
 50
31.10336061690988
 51
148.8966393830858
  0
ARC
  5
2C7
330
1F
100
AcDbEntity
  8
0
  6
Continuous
 62
     3
100
AcDbCircle
 10
7.39124920904833
 20
-49.50999447935467
 30
0.0
 40
4.235000000000851
100
AcDbArc
 50
16.99771585270325
 51
163.002284147318
  0
ARC
  5
2C8
330
1F
100
AcDbEntity
  8
0
  6
Continuous
 62
     3
100
AcDbCircle
 10
7.39124920904833
 20
-49.50999447935467
 30
0.0
 40
4.730000000000422
100
AcDbArc
 50
211.1033606169247
 51
328.8966393830789
  0
ARC
  5
2C9
330
1F
100
AcDbEntity
  8
0
  6
Continuous
 62
     3
100
AcDbCircle
 10
7.39124920904833
 20
-49.50999447935467
 30
0.0
 40
4.235000000001192
100
AcDbArc
 50
196.9977158526958
 51
343.0022841472841
  0
ARC
  5
2CA
330
1F
100
AcDbEntity
  8
0
  6
Continuous
 62
     3
100
AcDbCircle
 10
29.30322360064113
 20
-47.5099944793552
 30
0.0
 40
1.999999999999684
100
AcDbArc
 50
292.7056545050897
 51
334.6909918284512
  0
CIRCLE
  5
2CB
330
1F
100
AcDbEntity
  8
0
  6
Continuous
 62
     3
100
AcDbCircle
 10
68.15499999999835
 20
-94.44000032670766
 30
0.0
 40
4.234999999998749
  0
CIRCLE
  5
2CC
330
1F
100
AcDbEntity
  8
0
  6
Continuous
 62
     3
100
AcDbCircle
 10
68.15499999999835
 20
-94.44000032670766
 30
0.0
 40
5.899999999998741
  0
CIRCLE
  5
2CD
330
1F
100
AcDbEntity
  8
0
  6
Continuous
 62
     3
100
AcDbCircle
 10
68.15499999999835
 20
-94.44000032670766
 30
0.0
 40
4.729999999998654
  0
CIRCLE
  5
2CE
330
1F
100
AcDbEntity
  8
0
  6
Continuous
 62
     3
100
AcDbCircle
 10
50.88125429728214
 20
-28.00999027795177
 30
0.0
 40
0.990000000000741
  0
CIRCLE
  5
2CF
330
1F
100
AcDbEntity
  8
0
  6
Continuous
 62
     3
100
AcDbCircle
 10
76.62125661218046
 20
-49.50999447935482
 30
0.0
 40
3.049999999999223
  0
CIRCLE
  5
2D0
330
1F
100
AcDbEntity
  8
0
  6
Continuous
 62
     3
100
AcDbCircle
 10
76.62125661218046
 20
-49.50999447935482
 30
0.0
 40
4.064999999998356
  0
CIRCLE
  5
2D1
330
1F
100
AcDbEntity
  8
0
  6
Continuous
 62
     3
100
AcDbCircle
 10
76.62125661218046
 20
-49.50999447935482
 30
0.0
 40
6.499999999998948
  0
CIRCLE
  5
2D2
330
1F
100
AcDbEntity
  8
0
  6
Continuous
 62
     3
100
AcDbCircle
 10
76.62125661218046
 20
-49.50999447935482
 30
0.0
 40
2.3749999999987
  0
CIRCLE
  5
2D3
330
1F
100
AcDbEntity
  8
0
  6
Continuous
 62
     3
100
AcDbCircle
 10
76.62125661218046
 20
-49.50999447935482
 30
0.0
 40
1.149999999999118
  0
CIRCLE
  5
2D4
330
1F
100
AcDbEntity
  8
0
  6
Continuous
 62
     3
100
AcDbCircle
 10
76.62125661218046
 20
-49.50999447935482
 30
0.0
 40
2.999999999999083
  0
CIRCLE
  5
2D5
330
1F
100
AcDbEntity
  8
0
  6
Continuous
 62
     3
100
AcDbCircle
 10
7.39124920904833
 20
-49.50999447935467
 30
0.0
 40
3.19999999999947
  0
CIRCLE
  5
2D6
330
1F
100
AcDbEntity
  8
0
  6
Continuous
 62
     3
100
AcDbCircle
 10
7.39124920904833
 20
-49.50999447935467
 30
0.0
 40
3.499999999999467
  0
CIRCLE
  5
2D7
330
1F
100
AcDbEntity
  8
0
  6
Continuous
 62
     3
100
AcDbCircle
 10
7.39124920904833
 20
-49.50999447935467
 30
0.0
 40
3.105000000000622
  0
CIRCLE
  5
2D8
330
1F
100
AcDbEntity
  8
0
  6
Continuous
 62
     3
100
AcDbCircle
 10
7.39124920904833
 20
-49.50999447935467
 30
0.0
 40
6.499999999999467
  0
CIRCLE
  5
2D9
330
1F
100
AcDbEntity
  8
0
  6
Continuous
 62
     3
100
AcDbCircle
 10
7.39124920904833
 20
-49.50999447935467
 30
0.0
 40
4.000000000000533
  0
SPLINE
  5
2DA
330
1F
100
AcDbEntity
  8
0
  6
Continuous
 62
     3
100
AcDbSpline
210
0.0
220
0.0
230
1.0
 70
  1064
 71
     3
 72
    23
 73
    19
 74
    17
 42
0.000000001
 43
0.0000000001
 44
0.00000001
 40
0.0
 40
0.0
 40
0.0
 40
0.0
 40
0.0230897966760343
 40
0.0461795933517068
 40
0.1155977111725564
 40
0.1795829070029365
 40
0.3579537874717479
 40
0.5422061679539983
 40
0.7576090205754292
 40
0.9971517407785563
 40
1.236950065387777
 40
1.452141426924867
 40
1.629069449189024
 40
1.814985869267502
 40
1.878723233675104
 40
1.948213884355509
 40
1.971257811005983
 40
1.994301737656804
 40
1.994301737656804
 40
1.994301737656804
 40
1.994301737656804
 10
51.87125429728292
 20
-54.26999447935289
 30
0.0
 10
51.86371697099498
 20
-54.26843673235681
 30
0.0
 10
51.8486423155052
 20
-54.26532125253041
 30
0.0
 10
51.81086462391976
 20
-54.25773086254375
 30
0.0
 10
51.75963503513374
 20
-54.24789003718124
 30
0.0
 10
51.65732738025937
 20
-54.22961867366199
 30
0.0
 10
51.5167512982875
 20
-54.20794969669058
 30
0.0
 10
51.32532792032174
 20
-54.18563450712874
 30
0.0
 10
51.11277569396752
 20
-54.16981285721988
 30
0.0
 10
50.88116821020631
 20
-54.16384474074935
 30
0.0
 10
50.64963133973821
 20
-54.1698174741212
 30
0.0
 10
50.43950007246447
 20
-54.18546572018843
 30
0.0
 10
50.24806116311336
 20
-54.20763595547148
 30
0.0
 10
50.10747523456581
 20
-54.22920700504024
 30
0.0
 10
50.00274976883419
 20
-54.24791340022027
 30
0.0
 10
49.9515926548841
 20
-54.25774083453292
 30
0.0
 10
49.91382134718997
 20
-54.26533048246031
 30
0.0
 10
49.89877664627954
 20
-54.26843980900507
 30
0.0
 10
49.89125429728131
 20
-54.26999447936014
 30
0.0
 11
51.87125429728292
 21
-54.26999447935289
 31
0.0
 11
51.84863807261014
 21
-54.26534205025261
 31
0.0
 11
51.82600165560104
 21
-54.26078888212777
 31
0.0
 11
51.75782810065103
 21
-54.24770295382877
 31
0.0
 11
51.69483945746947
 21
-54.23645412568816
 31
0.0
 11
51.5185448481644
 21
-54.20931776871925
 31
0.0
 11
51.33552822540474
 21
-54.18801388123224
 31
0.0
 11
51.12071709830195
 21
-54.17205867069787
 31
0.0
 11
50.88125343997428
 21
-54.16590470191254
 31
0.0
 11
50.64153443219329
 21
-54.17207187172914
 31
0.0
 11
50.42693472629001
 21
-54.18801829637461
 31
0.0
 11
50.25117819787714
 21
-54.20834482795269
 31
0.0
 11
50.06740595460171
 21
-54.23649936595703
 31
0.0
 11
50.00466160839149
 21
-54.24770644671294
 31
0.0
 11
49.93641696070394
 21
-54.26080677595635
 31
0.0
 11
49.91382557283744
 21
-54.26535119607214
 31
0.0
 11
49.89125429728131
 21
-54.26999447936014
 31
0.0
  0
SPLINE
  5
2DB
330
1F
100
AcDbEntity
  8
0
  6
Continuous
 62
     3
100
AcDbSpline
210
0.0
220
0.0
230
1.0
 70
  1064
 71
     3
 72
    23
 73
    19
 74
    17
 42
0.000000001
 43
0.0000000001
 44
0.00000001
 40
0.0
 40
0.0
 40
0.0
 40
0.0
 40
0.0230897966684814
 40
0.0461795933366307
 40
0.1155977237808236
 40
0.1795829069452438
 40
0.3579537898848016
 40
0.5422061679545794
 40
0.7576090201188665
 40
0.9971517407799767
 40
1.236950064912336
 40
1.452141426905307
 40
1.629069445643267
 40
1.814985869158794
 40
1.878723238013191
 40
1.948213884330843
 40
1.971257810993593
 40
1.994301737656719
 40
1.994301737656719
 40
1.994301737656719
 40
1.994301737656719
 10
49.89125429728136
 20
-44.74999447935643
 30
0.0
 10
49.89879162356684
 20
-44.75155222635199
 30
0.0
 10
49.91386627905171
 20
-44.75466770617732
 30
0.0
 10
49.95164397475743
 20
-44.76225809699231
 30
0.0
 10
50.00287356353958
 20
-44.77209892229069
 30
0.0
 10
50.10518121923205
 20
-44.79037028582627
 30
0.0
 10
50.24575729705614
 20
-44.8120392621248
 30
0.0
 10
50.43718067489374
 20
-44.83435445162279
 30
0.0
 10
50.64973290044512
 20
-44.8501761014821
 30
0.0
 10
50.88134038404785
 20
-44.85614421795992
 30
0.0
 10
51.11287725466129
 20
-44.85017148459615
 30
0.0
 10
51.32300852075701
 20
-44.83452323862764
 30
0.0
 10
51.51444743023575
 20
-44.81235300340214
 30
0.0
 10
51.65503336022871
 20
-44.79078195366326
 30
0.0
 10
51.75975882710837
 20
-44.77207555823347
 30
0.0
 10
51.8109159410857
 20
-44.76224812389392
 30
0.0
 10
51.84868724736215
 20
-44.75465847625159
 30
0.0
 10
51.86373194828061
 20
-44.75154914970519
 30
0.0
 10
51.87125429728287
 20
-44.74999447934928
 30
0.0
 11
49.89125429728136
 21
-44.74999447935643
 31
0.0
 11
49.91387052194674
 21
-44.75464690845519
 31
0.0
 11
49.93650693894843
 21
-44.75920007657868
 31
0.0
 11
50.00468050631135
 21
-44.77228600717453
 31
0.0
 11
50.06766913703797
 21
-44.78353483301146
 31
0.0
 11
50.24396374879145
 21
-44.81067119031449
 31
0.0
 11
50.4269803691601
 21
-44.83197507747725
 31
0.0
 11
50.64179149580622
 21
-44.84793028798813
 31
0.0
 11
50.88125515459143
 21
-44.85408425679688
 31
0.0
 11
51.12097416189603
 21
-44.8479170870047
 31
0.0
 11
51.33557386825478
 21
-44.83197066233673
 31
0.0
 11
51.51133039317224
 21
-44.81164413122809
 31
0.0
 11
51.69510263985542
 21
-44.78348959277079
 31
0.0
 11
51.75784699043855
 21
-44.77228251120719
 31
0.0
 11
51.82609163383613
 21
-44.75918218275788
 31
0.0
 11
51.84868302171468
 21
-44.75463776263975
 31
0.0
 11
51.87125429728287
 21
-44.74999447934928
 31
0.0
  0
SPLINE
  5
2DC
330
1F
100
AcDbEntity
  8
0
  6
Continuous
 62
     3
100
AcDbSpline
210
0.0
220
0.0
230
1.0
 70
  1064
 71
     3
 72
    11
 73
     7
 74
     5
 42
0.000000001
 43
0.0000000001
 44
0.00000001
 40
0.0
 40
0.0
 40
0.0
 40
0.0
 40
0.0309257281887212
 40
0.0665073881466884
 40
0.0963578062433947
 40
0.1296804272428534
 40
0.1296804272428534
 40
0.1296804272428534
 40
0.1296804272428534
 10
76.63471093545328
 20
-48.7851193306691
 30
0.0
 10
76.63369603631239
 20
-48.77486082511397
 30
0.0
 10
76.63151342721766
 20
-48.75279937652877
 30
0.0
 10
76.62820742546698
 20
-48.72085060512648
 30
0.0
 10
76.62474023303972
 20
-48.68811544833407
 30
0.0
 10
76.62245960781213
 20
-48.66718162020648
 30
0.0
 10
76.62125661218055
 20
-48.65613941013046
 30
0.0
 11
76.63471093545328
 21
-48.7851193306691
 31
0.0
 11
76.63164477649548
 21
-48.75434597637381
 31
0.0
 11
76.62799532896815
 21
-48.71895196472082
 31
0.0
 11
76.6248481555354
 21
-48.68926791578247
 31
0.0
 11
76.62125661218055
 21
-48.65613941013046
 31
0.0
  0
SPLINE
  5
2DD
330
1F
100
AcDbEntity
  8
0
  6
Continuous
 62
     3
100
AcDbSpline
210
0.0
220
0.0
230
1.0
 70
  1064
 71
     3
 72
    11
 73
     7
 74
     5
 42
0.000000001
 43
0.0000000001
 44
0.00000001
 40
0.0
 40
0.0
 40
0.0
 40
0.0
 40
0.030925727727542
 40
0.0665073881364101
 40
0.0963578054846442
 40
0.1296804272323817
 40
0.1296804272323817
 40
0.1296804272323817
 40
0.1296804272323817
 10
76.60780228894596
 20
-48.7851193306624
 30
0.0
 10
76.60881718805871
 20
-48.77486082525895
 30
0.0
 10
76.61099979712502
 20
-48.7527993766744
 30
0.0
 10
76.61430579885423
 20
-48.72085060552408
 30
0.0
 10
76.61777299129517
 20
-48.68811544858205
 30
0.0
 10
76.62005361652227
 20
-48.66718162045446
 30
0.0
 10
76.62125661218055
 20
-48.65613941013046
 30
0.0
 11
76.60780228894596
 21
-48.7851193306624
 31
0.0
 11
76.61086844782535
 21
-48.75434597682275
 31
0.0
 11
76.61451789539362
 21
-48.7189519647207
 31
0.0
 11
76.61766506874652
 21
-48.68926791652655
 31
0.0
 11
76.62125661218055
 21
-48.65613941013046
 31
0.0
  0
SPLINE
  5
2DE
330
1F
100
AcDbEntity
  8
0
  6
Continuous
 62
     3
100
AcDbSpline
210
0.0
220
0.0
230
1.0
 70
  1064
 71
     3
 72
    11
 73
     7
 74
     5
 42
0.000000001
 43
0.0000000001
 44
0.00000001
 40
0.0
 40
0.0
 40
0.0
 40
0.0
 40
0.0309257291630594
 40
0.0665073881469869
 40
0.0963578041351814
 40
0.1296804272419592
 40
0.1296804272419592
 40
0.1296804272419592
 40
0.1296804272419592
 10
75.89638146349768
 20
-49.49654015607987
 30
0.0
 10
75.88612295761938
 20
-49.49755505525307
 30
0.0
 10
75.86406150903413
 20
-49.49973766434838
 30
0.0
 10
75.83211273833102
 20
-49.5030436660282
 30
0.0
 10
75.79937758186158
 20
-49.50651085841841
 30
0.0
 10
75.77844375373422
 20
-49.50879148364461
 30
0.0
 10
75.76740154295982
 20
-49.50999447935152
 30
0.0
 11
75.89638146349768
 21
-49.49654015607987
 31
0.0
 11
75.865608108233
 21
-49.49960631513594
 31
0.0
 11
75.83021409754912
 21
-49.50325576256508
 31
0.0
 11
75.80053005070724
 21
-49.50640293577293
 31
0.0
 11
75.76740154295982
 21
-49.50999447935152
 31
0.0
  0
SPLINE
  5
2DF
330
1F
100
AcDbEntity
  8
0
  6
Continuous
 62
     3
100
AcDbSpline
210
0.0
220
0.0
230
1.0
 70
  1064
 71
     3
 72
    11
 73
     7
 74
     5
 42
0.000000001
 43
0.0000000001
 44
0.00000001
 40
0.0
 40
0.0
 40
0.0
 40
0.0
 40
0.0333226216141838
 40
0.063173039080204
 40
0.0987546999513463
 40
0.1296804271983414
 40
0.1296804271983414
 40
0.1296804271983414
 40
0.1296804271983414
 10
75.76740154295982
 20
-49.50999447935152
 30
0.0
 10
75.77844375323951
 20
-49.51119747500511
 30
0.0
 10
75.79937758136191
 20
-49.51347810023186
 30
0.0
 10
75.8321127384519
 20
-49.51694529268872
 30
0.0
 10
75.86406150963526
 20
-49.5202512944208
 30
0.0
 10
75.88612295821375
 20
-49.52243390348625
 30
0.0
 10
75.89638146345784
 20
-49.52344880258312
 30
0.0
 11
75.76740154295982
 21
-49.50999447935152
 31
0.0
 11
75.80053004922308
 21
-49.51358602277158
 31
0.0
 11
75.83021409753435
 21
-49.51673319613713
 31
0.0
 11
75.8656081100963
 21
-49.52038264375206
 31
0.0
 11
75.89638146345784
 21
-49.52344880258312
 31
0.0
  0
SPLINE
  5
2E0
330
1F
100
AcDbEntity
  8
0
  6
Continuous
 62
     3
100
AcDbSpline
210
0.0
220
0.0
230
1.0
 70
  1064
 71
     3
 72
    11
 73
     7
 74
     5
 42
0.000000001
 43
0.0000000001
 44
0.00000001
 40
0.0
 40
0.0
 40
0.0
 40
0.0
 40
0.0309257282566676
 40
0.0665073881310441
 40
0.0963578062025951
 40
0.1296804272214243
 40
0.1296804272214243
 40
0.1296804272214243
 40
0.1296804272214243
 10
76.60780228894482
 20
-50.23486962805156
 30
0.0
 10
76.60881718807607
 20
-50.24512813363042
 30
0.0
 10
76.6109997971447
 20
-50.26718958221294
 30
0.0
 10
76.61430579889887
 20
-50.29913835360126
 30
0.0
 10
76.61777299132197
 20
-50.33187351036412
 30
0.0
 10
76.62005361654874
 20
-50.3528073384899
 30
0.0
 10
76.62125661218073
 20
-50.36384954857236
 30
0.0
 11
76.60780228894482
 21
-50.23486962805156
 31
0.0
 11
76.61086844788002
 21
-50.26564298241739
 31
0.0
 11
76.61451789539475
 21
-50.30103699398764
 31
0.0
 11
76.61766506882475
 21
-50.33072104290099
 31
0.0
 11
76.62125661218073
 21
-50.36384954857236
 31
0.0
  0
SPLINE
  5
2E1
330
1F
100
AcDbEntity
  8
0
  6
Continuous
 62
     3
100
AcDbSpline
210
0.0
220
0.0
230
1.0
 70
  1064
 71
     3
 72
    11
 73
     7
 74
     5
 42
0.000000001
 43
0.0000000001
 44
0.00000001
 40
0.0
 40
0.0
 40
0.0
 40
0.0
 40
0.0309257280455356
 40
0.0665073881468114
 40
0.0963578084401041
 40
0.1296804272436113
 40
0.1296804272436113
 40
0.1296804272436113
 40
0.1296804272436113
 10
77.34613176086324
 20
-49.52344880262389
 30
0.0
 10
77.3563902663709
 20
-49.52243390348771
 30
0.0
 10
77.37845171495609
 20
-49.52025129439311
 30
0.0
 10
77.41040048708679
 20
-49.5169452925673
 30
0.0
 10
77.44313564392658
 20
-49.51347810013201
 30
0.0
 10
77.4640694720544
 20
-49.51119747490423
 30
0.0
 10
77.47511168140272
 20
-49.50999447935185
 30
0.0
 11
77.34613176086324
 21
-49.52344880262389
 31
0.0
 11
77.37690511501609
 21
-49.52038264368051
 31
0.0
 11
77.41229912681163
 21
-49.51673319613873
 31
0.0
 11
77.44198317793408
 21
-49.51358602247191
 31
0.0
 11
77.47511168140272
 21
-49.50999447935185
 31
0.0
  0
SPLINE
  5
2E2
330
1F
100
AcDbEntity
  8
0
  6
Continuous
 62
     3
100
AcDbSpline
210
0.0
220
0.0
230
1.0
 70
  1064
 71
     3
 72
    11
 73
     7
 74
     5
 42
0.000000001
 43
0.0000000001
 44
0.00000001
 40
0.0
 40
0.0
 40
0.0
 40
0.0
 40
0.0333226197315704
 40
0.0631730390961209
 40
0.098754699804458
 40
0.1296804272336588
 40
0.1296804272336588
 40
0.1296804272336588
 40
0.1296804272336588
 10
77.47511168140272
 20
-49.50999447935185
 30
0.0
 10
77.46406947174684
 20
-49.50879148376601
 30
0.0
 10
77.44313564361927
 20
-49.50651085853836
 30
0.0
 10
77.4104004865782
 20
-49.50304366608412
 30
0.0
 10
77.37845171475891
 20
-49.49973766428654
 30
0.0
 10
77.35639026617419
 20
-49.49755505521831
 30
0.0
 10
77.34613176086978
 20
-49.49654015611445
 30
0.0
 11
77.47511168140272
 21
-49.50999447935185
 31
0.0
 11
77.44198317701131
 21
-49.50640293613279
 31
0.0
 11
77.41229912681231
 21
-49.50325576256498
 31
0.0
 11
77.37690511441237
 21
-49.49960631496619
 31
0.0
 11
77.34613176086978
 21
-49.49654015611445
 31
0.0
  0
SPLINE
  5
2E3
330
1F
100
AcDbEntity
  8
0
  6
Continuous
 62
     3
100
AcDbSpline
210
0.0
220
0.0
230
1.0
 70
  1064
 71
     3
 72
    11
 73
     7
 74
     5
 42
0.000000001
 43
0.0000000001
 44
0.00000001
 40
0.0
 40
0.0
 40
0.0
 40
0.0
 40
0.0333226217971191
 40
0.0631730390953135
 40
0.0987546994314335
 40
0.1296804272318637
 40
0.1296804272318637
 40
0.1296804272318637
 40
0.1296804272318637
 10
76.62125661218073
 20
-50.36384954857236
 30
0.0
 10
76.62245960784077
 20
-50.352807338232
 30
0.0
 10
76.62474023306775
 20
-50.33187351010459
 30
0.0
 10
76.62820742550613
 20
-50.29913835318692
 30
0.0
 10
76.63151342723336
 20
-50.26718958205311
 30
0.0
 10
76.63369603630177
 20
-50.24512813346873
 30
0.0
 10
76.63471093541793
 20
-50.2348696280412
 30
0.0
 11
76.62125661218073
 21
-50.36384954857236
 31
0.0
 11
76.62484815561997
 21
-50.33072104212717
 31
0.0
 11
76.62799532896751
 21
-50.30103699398276
 31
0.0
 11
76.63164477652877
 21
-50.26564298195312
 31
0.0
 11
76.63471093541793
 21
-50.2348696280412
 31
0.0
  0
SPLINE
  5
2E4
330
1F
100
AcDbEntity
  8
0
  6
Continuous
 62
     3
100
AcDbSpline
210
0.0
220
0.0
230
1.0
 70
  1064
 71
     3
 72
    11
 73
     7
 74
     5
 42
0.000000001
 43
0.0000000001
 44
0.00000001
 40
0.0
 40
0.0
 40
0.0
 40
0.0
 40
0.1105296035096938
 40
0.2134787393338871
 40
0.324637237980631
 40
0.4269582417973521
 40
0.4269582417973521
 40
0.4269582417973521
 40
0.4269582417973521
 10
28.4112542972828
 20
-26.87553005388397
 30
0.0
 10
28.38532757958605
 20
-26.90170689376942
 30
0.0
 10
28.33525229043578
 20
-26.95226529389964
 30
0.0
 10
28.25917572192295
 20
-27.02922167047166
 30
0.0
 10
28.18508146888576
 20
-27.10429017818208
 30
0.0
 10
28.13517468066993
 20
-27.15501527936326
 30
0.0
 10
28.11125429728273
 20
-27.17932789166341
 30
0.0
 11
28.4112542972828
 21
-26.87553005388397
 31
0.0
 11
28.33348700784388
 21
-26.95407330276666
 31
0.0
 11
28.26110870461682
 21
-27.02728468023448
 31
0.0
 11
28.183034085468
 21
-27.1064084166804
 31
0.0
 11
28.11125429728273
 21
-27.17932789166341
 31
0.0
  0
SPLINE
  5
2E5
330
1F
100
AcDbEntity
  8
0
  6
Continuous
 62
     3
100
AcDbSpline
210
0.0
220
0.0
230
1.0
 70
  1064
 71
     3
 72
    11
 73
     7
 74
     5
 42
0.000000001
 43
0.0000000001
 44
0.00000001
 40
0.0
 40
0.0
 40
0.0
 40
0.0
 40
0.1023210047097858
 40
0.2134795024634453
 40
0.3164286383493153
 40
0.42695824179734
 40
0.42695824179734
 40
0.42695824179734
 40
0.42695824179734
 10
28.11125429728278
 20
-28.84065266424705
 30
0.0
 10
28.13517468087882
 20
-28.86496527675934
 30
0.0
 10
28.18508146909476
 20
-28.91569037794039
 30
0.0
 10
28.2591757221467
 20
-28.99075888566515
 30
0.0
 10
28.33525229045023
 20
-29.06771526202546
 30
0.0
 10
28.38532757960052
 20
-29.11827366215567
 30
0.0
 10
28.4112542972828
 20
-29.14445050202652
 30
0.0
 11
28.11125429728278
 21
-28.84065266424705
 31
0.0
 11
28.18303408609491
 21
-28.91357213986615
 31
0.0
 11
28.26110870461682
 21
-28.992695875676
 31
0.0
 11
28.33348700788726
 21
-29.06590725318767
 31
0.0
 11
28.4112542972828
 21
-29.14445050202652
 31
0.0
  0
SPLINE
  5
2E6
330
1F
100
AcDbEntity
  8
0
  6
Continuous
 62
     3
100
AcDbSpline
210
0.0
220
0.0
230
1.0
 70
  1064
 71
     3
 72
    33
 73
    29
 74
    27
 42
0.000000001
 43
0.0000000001
 44
0.00000001
 40
0.0
 40
0.0
 40
0.0
 40
0.0
 40
0.2451904427581626
 40
0.4621210385763354
 40
0.6678420744551522
 40
0.8649794373327121
 40
0.9601533485955681
 40
1.062195159470881
 40
1.161393864952597
 40
1.279057203823667
 40
1.381536437472676
 40
1.519883638157957
 40
1.577538034920889
 40
1.646055087895142
 40
1.714184833828966
 40
1.773201560035723
 40
1.899389244102419
 40
2.02649524468602
 40
2.164842445375311
 40
2.26732167902031
 40
2.384985017907666
 40
2.484183723373099
 40
2.586225534245848
 40
2.681399445511259
 40
2.878536808388885
 40
3.084257844267634
 40
3.301188440097491
 40
3.546378882941295
 40
3.546378882941295
 40
3.546378882941295
 40
3.546378882941295
 10
30.07521777170061
 20
-29.14445050202091
 30
0.0
 10
30.15678353649906
 20
-29.13846207020208
 30
0.0
 10
30.31051406213773
 20
-29.12717540133676
 30
0.0
 10
30.52939246212093
 20
-29.08219312822229
 30
0.0
 10
30.72220985597382
 20
-29.00256526064009
 30
0.0
 10
30.85298231555265
 20
-28.89559802132117
 30
0.0
 10
30.93320586227583
 20
-28.79100989324902
 30
0.0
 10
30.98229904166558
 20
-28.70491960474677
 30
0.0
 10
31.02383585854506
 20
-28.60687165710161
 30
0.0
 10
31.0551758122791
 20
-28.50495132227405
 30
0.0
 10
31.08093711185874
 20
-28.3881843311871
 30
0.0
 10
31.09528160739932
 20
-28.2896197699231
 30
0.0
 10
31.103814741779
 20
-28.20185601576237
 30
0.0
 10
31.1082191012555
 20
-28.13722747247873
 30
0.0
 10
31.11073879856517
 20
-28.07204582193156
 30
0.0
 10
31.11176483704771
 20
-27.98760104783084
 30
0.0
 10
31.10906903325469
 20
-27.88347917792583
 30
0.0
 10
31.09861687792542
 20
-27.7532875431144
 30
0.0
 10
31.0809375983486
 20
-27.63179772902223
 30
0.0
 10
31.05517567896359
 20
-27.51502882140321
 30
0.0
 10
31.02383588978393
 20
-27.41310899540425
 30
0.0
 10
30.98229903364825
 20
-27.31506092637628
 30
0.0
 10
30.93320586423787
 20
-27.22897066872777
 30
0.0
 10
30.85298231440985
 20
-27.12438253105402
 30
0.0
 10
30.72220985638345
 20
-27.01741529653723
 30
0.0
 10
30.52939246199985
 20
-26.93778742732287
 30
0.0
 10
30.31051406213613
 20
-26.89280515467568
 30
0.0
 10
30.15678353644229
 20
-26.8815184857406
 30
0.0
 10
30.07521777160324
 20
-26.87553005388394
 30
0.0
 11
30.07521777170061
 21
-29.14445050202091
 31
0.0
 11
30.31927460810101
 21
-29.12090020775274
 31
0.0
 11
30.53121376972914
 21
-29.07463277166217
 31
0.0
 11
30.71978276982465
 21
-28.9923960566942
 31
0.0
 11
30.87189197719633
 21
-28.86699298891037
 31
0.0
 11
30.93007224800088
 21
-28.79167280834
 31
0.0
 11
30.9809395860797
 21
-28.70321352264354
 31
0.0
 11
31.01997387237742
 21
-28.61201753703857
 31
0.0
 11
31.05501332251001
 21
-28.49969256911962
 31
0.0
 11
31.07732165393465
 21
-28.39967091246913
 31
0.0
 11
31.09761675230041
 21
-28.26282042058671
 31
0.0
 11
31.10321164319669
 21
-28.20543813501951
 31
0.0
 11
31.10789154950149
 21
-28.13708109387611
 31
0.0
 11
31.11053390049378
 21
-28.0690026074815
 31
0.0
 11
31.11125429728239
 21
-28.00999027795524
 31
0.0
 11
31.10794185883176
 21
-27.88384607664391
 31
0.0
 11
31.09761675230041
 21
-27.75716013532376
 31
0.0
 11
31.07732165393397
 21
-27.62030964343738
 31
0.0
 11
31.05501332251001
 21
-27.52028798679085
 31
0.0
 11
31.01997387237181
 21
-27.4079630188566
 31
0.0
 11
30.9809395860797
 21
-27.31676703326693
 31
0.0
 11
30.93007224800229
 21
-27.22830774757262
 31
0.0
 11
30.87189197719633
 21
-27.15298756700011
 31
0.0
 11
30.7197827698246
 21
-27.02758449921624
 31
0.0
 11
30.53121376972914
 21
-26.94534778424832
 31
0.0
 11
30.3192746080892
 21
-26.89908034815708
 31
0.0
 11
30.07521777160324
 21
-26.87553005388394
 31
0.0
  0
SPLINE
  5
2E7
330
1F
100
AcDbEntity
  8
0
  6
Continuous
 62
     3
100
AcDbSpline
210
0.0
220
0.0
230
1.0
 70
  1064
 71
     3
 72
    31
 73
    27
 74
    25
 42
0.000000001
 43
0.0000000001
 44
0.00000001
 40
0.0
 40
0.0
 40
0.0
 40
0.0
 40
0.1425741130779166
 40
0.275027965643778
 40
0.3950494884842373
 40
0.5202119629779623
 40
0.563738214176262
 40
0.6123829496199005
 40
0.6562924334211377
 40
0.708406396294895
 40
0.7490132010828837
 40
0.7982297487525698
 40
0.8395333422612612
 40
0.89017427754121
 40
0.9319024789475279
 40
0.9821410102537522
 40
1.031383065383018
 40
1.072003314408815
 40
1.118913030231405
 40
1.167930696513847
 40
1.216573671476675
 40
1.260084797669376
 40
1.384846735671647
 40
1.504375410237745
 40
1.637484473094494
 40
1.780808366305105
 40
1.780808366305105
 40
1.780808366305105
 40
1.780808366305105
 10
30.07521777160324
 20
-28.5376975831919
 30
0.0
 10
30.12228922524671
 20
-28.53088543056132
 30
0.0
 10
30.21309088315749
 20
-28.51774465661054
 30
0.0
 10
30.34012052092647
 20
-28.48105199379825
 30
0.0
 10
30.45456469492856
 20
-28.42714990651394
 30
0.0
 10
30.53132470128586
 20
-28.3671295844001
 30
0.0
 10
30.57931116325655
 20
-28.31274497496948
 30
0.0
 10
30.60577507024917
 20
-28.27578656660832
 30
0.0
 10
30.62972822523671
 20
-28.23385440040505
 30
0.0
 10
30.64812656307062
 20
-28.19208121099529
 30
0.0
 10
30.66292339529226
 20
-28.14709072337298
 30
0.0
 10
30.67275770832882
 20
-28.10442378273294
 30
0.0
 10
30.67921461823815
 20
-28.05776962941807
 30
0.0
 10
30.68139413815384
 20
-28.0131892114735
 30
0.0
 10
30.67951672964497
 20
-27.96564440581668
 30
0.0
 10
30.67350307967071
 20
-27.91888285583349
 30
0.0
 10
30.66303520274983
 20
-27.87329165835924
 30
0.0
 10
30.64881159689605
 20
-27.82992369660689
 30
0.0
 10
30.63069840353582
 20
-27.78808275118176
 30
0.0
 10
30.6070339592163
 20
-27.74599801169459
 30
0.0
 10
30.57962310595494
 20
-27.70762916736556
 30
0.0
 10
30.53178855740949
 20
-27.65329532183792
 30
0.0
 10
30.45536406255475
 20
-27.59335307254767
 30
0.0
 10
30.3410940567918
 20
-27.53927217477372
 30
0.0
 10
30.21380117106576
 20
-27.50235360443625
 30
0.0
 10
30.12253638635457
 20
-27.48913598622254
 30
0.0
 10
30.07521777160324
 20
-27.48228297271858
 30
0.0
 11
30.07521777160324
 21
-28.5376975831919
 31
0.0
 11
30.21579646952298
 21
-28.5139276651638
 31
0.0
 11
30.34283259070642
 21
-28.47643303495616
 31
0.0
 11
30.45082227261999
 21
-28.42405560856744
 31
0.0
 11
30.54884345839972
 21
-28.34622571412961
 31
0.0
 11
30.57763995112463
 21
-28.31358683256428
 31
0.0
 11
30.6059570919227
 21
-28.27403370532273
 31
0.0
 11
30.62774905156716
 21
-28.23591345735587
 31
0.0
 11
30.64878540421162
 21
-28.18823393287872
 31
0.0
 11
30.66148888512291
 21
-28.14966536789818
 31
0.0
 11
30.67256827676059
 21
-28.10171210211195
 31
0.0
 11
30.67824134393396
 21
-28.060799962305
 31
0.0
 11
30.68072128167333
 21
-28.01021978543773
 31
0.0
 11
30.67907171671577
 21
-27.96852420093784
 31
0.0
 11
30.67264549155053
 21
-27.9186983671346
 31
0.0
 11
30.66160099577256
 21
-27.87071087750944
 31
0.0
 11
30.64892549104039
 21
-27.83211895805005
 31
0.0
 11
30.63026606384397
 21
-27.7890800539712
 31
0.0
 11
30.60622277538559
 21
-27.74636410916206
 31
0.0
 11
30.57795000969239
 21
-27.7067814136438
 31
0.0
 11
30.54919951345769
 21
-27.67412215602018
 31
0.0
 11
30.45160176968443
 21
-27.59640329157111
 31
0.0
 11
30.34414871296272
 21
-27.54404925741017
 31
0.0
 11
30.21652907205623
 21
-27.50621738998705
 31
0.0
 11
30.07521777160324
 21
-27.48228297271858
 31
0.0
  0
SPLINE
  5
2E8
330
1F
100
AcDbEntity
  8
0
  6
Continuous
 62
     3
100
AcDbSpline
210
0.0
220
0.0
230
1.0
 70
  1064
 71
     3
 72
    11
 73
     7
 74
     5
 42
0.000000001
 43
0.0000000001
 44
0.00000001
 40
0.0
 40
0.0
 40
0.0
 40
0.0
 40
0.3155367229808136
 40
0.6193500347034525
 40
0.9343829865192607
 40
1.239552147630973
 40
1.239552147630973
 40
1.239552147630973
 40
1.239552147630973
 10
33.70704268052813
 20
-51.95343467710595
 30
0.0
 10
33.67768982899531
 20
-51.85242667172388
 30
0.0
 10
33.62007471230807
 20
-51.65416349552014
 30
0.0
 10
33.54358582374618
 20
-51.35219369018405
 30
0.0
 10
33.47578238280651
 20
-51.05166024330737
 30
0.0
 10
33.43923657752189
 20
-50.8481593742078
 30
0.0
 10
33.4212542972829
 20
-50.74802719298235
 30
0.0
 11
33.70704268052813
 21
-51.95343467710595
 31
0.0
 11
33.62077892649625
 21
-51.64991863413711
 31
0.0
 11
33.54576924973011
 21
-51.35551062313013
 31
0.0
 11
33.47737144699888
 21
-51.04799232849984
 31
0.0
 11
33.4212542972829
 21
-50.74802719298235
 31
0.0
  0
SPLINE
  5
2E9
330
1F
100
AcDbEntity
  8
0
  6
Continuous
 62
     3
100
AcDbSpline
210
0.0
220
0.0
230
1.0
 70
  1064
 71
     3
 72
    11
 73
     7
 74
     5
 42
0.000000001
 43
0.0000000001
 44
0.00000001
 40
0.0
 40
0.0
 40
0.0
 40
0.0
 40
0.3048029733425716
 40
0.6194441720441565
 40
0.9236225821293402
 40
1.239552172524253
 40
1.239552172524253
 40
1.239552172524253
 40
1.239552172524253
 10
33.4212542972829
 20
-48.27196176572805
 30
0.0
 10
33.43921373665349
 20
-48.17194953338219
 30
0.0
 10
33.47571231297866
 20
-47.96869694393985
 30
0.0
 10
33.54346799310593
 20
-47.66828723554887
 30
0.0
 10
33.61997027172271
 20
-47.36619466806548
 30
0.0
 10
33.67765416534163
 20
-47.16768832174485
 30
0.0
 10
33.70704268053132
 20
-47.06655428160129
 30
0.0
 11
33.4212542972829
 21
-48.27196176572805
 31
0.0
 11
33.47729791503266
 21
-47.97235541467278
 31
0.0
 11
33.54559278585234
 21
-47.6652155527846
 31
0.0
 11
33.62067661494842
 21
-47.37044967289955
 31
0.0
 11
33.70704268053132
 21
-47.06655428160129
 31
0.0
  0
XLINE
  5
2EA
330
1F
100
AcDbEntity
  8
1
  6
DOT_CENTER
 62
     3
 60
     1
100
AcDbXline
 10
31.22199563256145
 20
-49.50999447935388
 30
0.0
 11
1.0
 21
0.0
 31
0.0
  0
LINE
  5
2EB
330
1F
100
AcDbEntity
  8
1
 62
     2
100
AcDbLine
 10
46.6933476576996
 20
-27.49047240301378
 30
0.0
 11
47.19533346123547
 21
-26.58504044931823
 31
0.0
  0
LINE
  5
2EC
330
1F
100
AcDbEntity
  8
1
 62
     2
100
AcDbLine
 10
46.6933476576996
 20
-27.49047240301378
 30
0.0
 11
47.58079609274858
 21
-26.9573382314832
 31
0.0
  0
LEADER
  5
2ED
330
1F
100
AcDbEntity
  8
1
  6
Continuous
 62
     2
100
AcDbLeader
  3
Standard
 71
     0
 76
     3
 10
46.6933476576996
 20
-27.49047240301378
 30
0.0
 10
52.72593067307904
 20
-21.24457077446446
 30
0.0
 10
69.38884873619898
 20
-21.24457077446446
 30
0.0
  0
LINE
  5
2EE
330
1F
100
AcDbEntity
  8
1
 62
     2
100
AcDbLine
 10
38.52083264279154
 20
-44.75589610790478
 30
0.0
 11
37.63338420774256
 21
-44.2227619363742
 31
0.0
  0
LINE
  5
2EF
330
1F
100
AcDbEntity
  8
1
 62
     2
100
AcDbLine
 10
38.52083264279154
 20
-44.75589610790478
 30
0.0
 11
38.01884683925567
 21
-43.85046415420923
 31
0.0
  0
LEADER
  5
2F0
330
1F
100
AcDbEntity
  8
1
  6
Continuous
 62
     2
100
AcDbLeader
  3
Standard
 71
     0
 76
     3
 10
38.52083264279154
 20
-44.75589610790478
 30
0.0
 10
32.4882496274121
 20
-38.50999447935546
 30
0.0
 10
17.04533156429216
 20
-38.50999447935546
 30
0.0
  0
LINE
  5
2F1
330
1F
100
AcDbEntity
  8
1
 62
     2
100
AcDbLine
 10
72.0142752599995
 20
-89.31920431897765
 30
0.0
 11
72.30268009981359
 21
-88.32491089241972
 31
0.0
  0
LINE
  5
2F2
330
1F
100
AcDbEntity
  8
1
 62
     2
100
AcDbLine
 10
72.0142752599995
 20
-89.31920431897765
 30
0.0
 11
72.76118789113184
 21
-88.60232337266966
 31
0.0
  0
LEADER
  5
2F3
330
1F
100
AcDbEntity
  8
1
  6
Continuous
 62
     2
100
AcDbLeader
  3
Standard
 71
     0
 76
     3
 10
72.0142752599995
 20
-89.31920431897765
 30
0.0
 10
75.6016410944475
 20
-83.39000032670796
 30
0.0
 10
78.8532925009005
 20
-83.39000032670796
 30
0.0
  0
LINE
  5
2F4
330
1F
100
AcDbEntity
  8
1
 62
     2
100
AcDbLine
 10
39.73215941012677
 20
-79.58989584213181
 30
0.0
 11
40.04891501269854
 21
-78.60426778958669
 31
0.0
  0
LINE
  5
2F5
330
1F
100
AcDbEntity
  8
1
 62
     2
100
AcDbLine
 10
39.73215941012677
 20
-79.58989584213181
 30
0.0
 11
40.49929183501754
 21
-78.89469471123104
 31
0.0
  0
LEADER
  5
2F6
330
1F
100
AcDbEntity
  8
1
  6
Continuous
 62
     2
100
AcDbLeader
  3
Standard
 71
     0
 76
     3
 10
39.73215941012677
 20
-79.58989584213181
 30
0.0
 10
43.73018168798245
 20
-73.39000032670796
 30
0.0
 10
48.8395564007435
 20
-73.39000032670796
 30
0.0
  0
LINE
  5
2F7
330
1F
100
AcDbEntity
  8
1
 62
     2
100
AcDbLine
 10
43.9212542972831
 20
-43.00999447935548
 30
0.0
 11
44.49202262130771
 21
-42.14626981835833
 31
0.0
  0
LINE
  5
2F8
330
1F
100
AcDbEntity
  8
1
 62
     2
100
AcDbLine
 10
43.9212542972831
 20
-43.00999447935548
 30
0.0
 11
44.84741649606245
 21
-42.54737114306916
 31
0.0
  0
LEADER
  5
2F9
330
1F
100
AcDbEntity
  8
1
  6
Continuous
 62
     2
100
AcDbLeader
  3
Standard
 71
     0
 76
     3
 10
43.9212542972831
 20
-43.00999447935548
 30
0.0
 10
49.00000238331671
 20
-38.50999447935546
 30
0.0
 10
56.6989265634745
 20
-38.50999447935546
 30
0.0
  0
TEXT
  5
2FA
330
1F
100
AcDbEntity
  8
1
 62
     3
100
AcDbText
 10
53.41585320344642
 20
-20.66449329974408
 30
0.0
 40
1.25
  1
STACK BNC066刻印
 41
0.89
 51
10.0
  7
CONVERTER_12
100
AcDbText
  0
TEXT
  5
2FB
330
1F
100
AcDbEntity
  8
1
 62
     3
100
AcDbText
 10
18.41101214288165
 20
-37.92991700463507
 30
0.0
 40
1.25
  1
3/8-32NEF-2A
 41
0.9
 51
10.0
  7
CONVERTER_11
100
AcDbText
  0
MTEXT
  5
2FC
330
1F
100
AcDbEntity
  8
1
 62
     3
100
AcDbMText
 10
5.17327835256079
 20
-83.42741509735089
 30
0.0
 40
1.25
 41
0.0
 71
     5
 72
     1
  1
取付穴参考寸法
  7
CONVERTER_12
 73
     1
 44
0.90909090909091
  0
LWPOLYLINE
  5
2FD
330
1F
100
AcDbEntity
  8
1
 62
     2
100
AcDbPolyline
 90
        8
 70
     1
 43
0.0
 10
81.41800555957485
 20
-85.94500032670796
 10
81.41800555957485
 20
-85.94500032670796
 42
0.4142135623731
 10
83.91800555957485
 20
-83.44500032670796
 10
83.91800555957485
 20
-83.44500032670796
 42
0.4142135623731
 10
81.41800555957485
 20
-80.94500032670796
 10
81.41800555957485
 20
-80.94500032670796
 42
0.4142135623731
 10
78.91800555957485
 20
-83.44500032670796
 10
78.91800555957485
 20
-83.44500032670796
 42
0.4142135623731
  0
MTEXT
  5
2FE
330
1F
100
AcDbEntity
  8
1
 62
     2
100
AcDbMText
 10
81.41800555957485
 20
-83.44500032670796
 30
0.0
 40
2.5
 41
0.0
 71
     5
 72
     1
  1
5
  7
CONVERTER_11
 73
     1
 44
1.0
  0
LWPOLYLINE
  5
2FF
330
1F
100
AcDbEntity
  8
1
 62
     2
100
AcDbPolyline
 90
        8
 70
     1
 43
0.0
 10
51.42174149426485
 20
-75.89000032670796
 10
51.42174149426485
 20
-75.89000032670796
 42
0.4142135623731
 10
53.92174149426485
 20
-73.39000032670796
 10
53.92174149426485
 20
-73.39000032670796
 42
0.4142135623731
 10
51.42174149426485
 20
-70.89000032670796
 10
51.42174149426485
 20
-70.89000032670796
 42
0.4142135623731
 10
48.92174149426485
 20
-73.39000032670796
 10
48.92174149426485
 20
-73.39000032670796
 42
0.4142135623731
  0
MTEXT
  5
300
330
1F
100
AcDbEntity
  8
1
 62
     2
100
AcDbMText
 10
51.42174149426485
 20
-73.39000032670796
 30
0.0
 40
2.5
 41
0.0
 71
     5
 72
     1
  1
4
  7
CONVERTER_11
 73
     1
 44
1.0
  0
LWPOLYLINE
  5
301
330
1F
100
AcDbEntity
  8
1
 62
     2
100
AcDbPolyline
 90
        8
 70
     1
 43
0.0
 10
69.3147094453217
 20
-41.00999447935546
 10
69.3147094453217
 20
-41.00999447935546
 42
0.4142135623731
 10
71.8147094453217
 20
-38.50999447935546
 10
71.8147094453217
 20
-38.50999447935546
 42
0.4142135623731
 10
69.3147094453217
 20
-36.00999447935546
 10
69.3147094453217
 20
-36.00999447935546
 42
0.4142135623731
 10
66.8147094453217
 20
-38.50999447935546
 10
66.8147094453217
 20
-38.50999447935546
 42
0.4142135623731
  0
MTEXT
  5
302
330
1F
100
AcDbEntity
  8
1
 62
     2
100
AcDbMText
 10
69.3147094453217
 20
-38.50999447935546
 30
0.0
 40
2.5
 41
0.0
 71
     5
 72
     1
  1
3
  7
CONVERTER_11
 73
     1
 44
1.0
  0
LWPOLYLINE
  5
303
330
1F
100
AcDbEntity
  8
1
 62
     2
100
AcDbPolyline
 90
        8
 70
     1
 43
0.0
 10
64.3147094453217
 20
-41.00999447935546
 10
64.3147094453217
 20
-41.00999447935546
 42
0.4142135623731
 10
66.8147094453217
 20
-38.50999447935546
 10
66.8147094453217
 20
-38.50999447935546
 42
0.4142135623731
 10
64.3147094453217
 20
-36.00999447935546
 10
64.3147094453217
 20
-36.00999447935546
 42
0.4142135623731
 10
61.8147094453217
 20
-38.50999447935546
 10
61.8147094453217
 20
-38.50999447935546
 42
0.4142135623731
  0
MTEXT
  5
304
330
1F
100
AcDbEntity
  8
1
 62
     2
100
AcDbMText
 10
64.3147094453217
 20
-38.50999447935546
 30
0.0
 40
2.5
 41
0.0
 71
     5
 72
     1
  1
2
  7
CONVERTER_11
 73
     1
 44
1.0
  0
LWPOLYLINE
  5
305
330
1F
100
AcDbEntity
  8
1
 62
     2
100
AcDbPolyline
 90
        8
 70
     1
 43
0.0
 10
59.3147094453217
 20
-41.00999447935546
 10
59.3147094453217
 20
-41.00999447935546
 42
0.4142135623731
 10
61.8147094453217
 20
-38.50999447935546
 10
61.8147094453217
 20
-38.50999447935546
 42
0.4142135623731
 10
59.3147094453217
 20
-36.00999447935546
 10
59.3147094453217
 20
-36.00999447935546
 42
0.4142135623731
 10
56.8147094453217
 20
-38.50999447935546
 10
56.8147094453217
 20
-38.50999447935546
 42
0.4142135623731
  0
MTEXT
  5
306
330
1F
100
AcDbEntity
  8
1
 62
     2
100
AcDbMText
 10
59.3147094453217
 20
-38.50999447935546
 30
0.0
 40
2.5
 41
0.0
 71
     5
 72
     1
  1
1
  7
CONVERTER_11
 73
     1
 44
1.0
  0
TEXT
  5
307
330
1F
100
AcDbEntity
  8
1
 62
     3
100
AcDbText
 10
12.90349555767305
 20
-31.20516425441062
 30
0.0
 40
1.0
  1
-
 41
0.9
  7
CONVERTER_15
100
AcDbText
  0
TEXT
  5
308
330
1F
100
AcDbEntity
  8
1
 62
     3
100
AcDbText
 10
12.7902602635554
 20
-28.65737013676377
 30
0.0
 40
1.0
  1
-
 41
0.9
  7
CONVERTER_15
100
AcDbText
  0
TEXT
  5
309
330
1F
100
AcDbEntity
  8
1
 62
     3
100
AcDbText
 10
12.90349555767305
 20
-26.22281131323413
 30
0.0
 40
1.0
  1
-
 41
0.9
  7
CONVERTER_15
100
AcDbText
  0
TEXT
  5
30A
330
1F
100
AcDbEntity
  8
1
 62
     3
100
AcDbText
 10
12.89007644002594
 20
-25.75479660735161
 30
0.0
 40
1.0
  1
+0.1mm
 41
0.9
  7
CONVERTER_15
100
AcDbText
  0
TEXT
  5
30B
330
1F
100
AcDbEntity
  8
1
 62
     3
100
AcDbText
 10
12.89595879296756
 20
-30.73788484264648
 30
0.0
 40
1.0
  1
+0.3mm
 41
0.9
  7
CONVERTER_15
100
AcDbText
  0
TEXT
  5
30C
330
1F
100
AcDbEntity
  8
1
 62
     3
100
AcDbText
 10
12.8224293812027
 20
-28.16435543088161
 30
0.0
 40
1.0
  1
+0.2mm
 41
0.9
  7
CONVERTER_15
100
AcDbText
  0
TEXT
  5
30D
330
1F
100
AcDbEntity
  8
1
 62
     3
100
AcDbText
 10
13.92537055767296
 20
-23.23788484264648
 30
0.0
 40
1.25
  1
許容差
 41
0.89
  7
CONVERTER_16
100
AcDbText
  0
TEXT
  5
30E
330
1F
100
AcDbEntity
  8
1
 62
     3
100
AcDbText
 10
0.62867938120235
 20
-30.70957601911639
 30
0.0
 40
1.0
  1
16.0～63.0mm
 41
0.89
  7
CONVERTER_16
100
AcDbText
  0
TEXT
  5
30F
330
1F
100
AcDbEntity
  8
1
 62
     3
100
AcDbText
 10
0.71323820473208
 20
-28.22648778382288
 30
0.0
 40
1.0
  1
4.0～16.0mm
 41
0.89
  7
CONVERTER_16
100
AcDbText
  0
TEXT
  5
310
330
1F
100
AcDbEntity
  8
1
 62
     3
100
AcDbText
 10
0.763605851791
 20
-25.73788484264648
 30
0.0
 40
1.0
  1
4.0mm 未満
 41
0.89
  7
CONVERTER_16
100
AcDbText
  0
TEXT
  5
311
330
1F
100
AcDbEntity
  8
1
 62
     3
100
AcDbText
 10
2.45478232237883
 20
-23.23788484264648
 30
0.0
 40
1.25
  1
基準寸法
 41
0.89
  7
CONVERTER_16
100
AcDbText
  0
TEXT
  5
312
330
1F
100
AcDbEntity
  8
1
 62
     3
100
AcDbText
 10
0.61654702826172
 20
-20.81141425441089
 30
0.0
 40
1.25
  1
指定無き公差は、下記による
 41
0.89
  7
CONVERTER_16
100
AcDbText
  0
DIMENSION
  5
325
330
1F
100
AcDbEntity
  8
1
100
AcDbDimension
  2
*D3
 10
1.07327835256042
 20
-108.0359292192609
 30
0.0
 11
5.17327835256079
 21
-106.4421792192609
 31
0.0
 70
    32
  1
<>
 71
     5
 42
-1.0
 53
0.00013888888889
  3
ME10_DIM_10
100
AcDbAlignedDimension
 13
9.27327835256024
 23
-97.03084960831376
 33
0.0
 14
1.07327835255951
 24
-97.03084960831376
 34
0.0
100
AcDbRotatedDimension
  0
DIMENSION
  5
332
330
1F
100
AcDbEntity
  8
1
100
AcDbDimension
  2
*D5
 10
27.62125429728282
 20
-68.5099944793539
 30
0.0
 11
41.5317481147931
 21
-67.3599944793539
 31
0.0
 70
    32
  1
<>
 71
     5
 42
-1.0
 53
0.00013888888889
  3
ME10_DIM_11
100
AcDbAlignedDimension
 13
55.1212542972828
 23
-54.26999447935292
 33
0.0
 14
27.62125429728282
 24
-50.65499447935319
 34
0.0
100
AcDbRotatedDimension
  0
DIMENSION
  5
33F
330
1F
100
AcDbEntity
  8
1
100
AcDbDimension
  2
*D6
 10
33.2800023833167
 20
-115.5900003267076
 30
0.0
 11
35.3300023833167
 21
-114.4650003267076
 31
0.0
 70
    32
  1
<>
 71
     5
 42
-1.0
 53
0.00013888888889
  3
ME10_DIM_12
100
AcDbAlignedDimension
 13
37.38000238331668
 23
-105.4455220056647
 33
0.0
 14
33.2800023833167
 24
-105.4455220056647
 34
0.0
100
AcDbRotatedDimension
  0
DIMENSION
  5
34C
330
1F
100
AcDbEntity
  8
1
100
AcDbDimension
  2
*D7
 10
28.78000238331698
 20
-73.39000032670795
 30
0.0
 11
35.3300023833167
 21
-72.26500032670795
 31
0.0
 70
    32
  1
<>
 71
     5
 42
-1.0
 53
0.00013888888889
  3
ME10_DIM_13
100
AcDbAlignedDimension
 13
41.88000238331641
 23
-84.44000032670766
 33
0.0
 14
28.78000238331698
 24
-84.44000032670766
 34
0.0
100
AcDbRotatedDimension
  0
DIMENSION
  5
359
330
1F
100
AcDbEntity
  8
1
100
AcDbDimension
  2
*D8
 10
49.95125429728267
 20
-77.89000032670795
 30
0.0
 11
48.82625429728267
 21
-91.4227218730982
 31
0.0
 70
    32
  1
<>
 71
     5
 42
-1.0
 53
90.0
  3
ME10_DIM_14
100
AcDbAlignedDimension
 13
35.3300023833167
 23
-107.0900003267076
 33
0.0
 14
35.3300023833167
 24
-77.89000032670795
 34
0.0
 50
90.0
100
AcDbRotatedDimension
  0
DIMENSION
  5
368
330
1F
100
AcDbEntity
  8
1
100
AcDbDimension
  2
*D9
 10
34.5800023833167
 20
-111.5900003267076
 30
0.0
 11
38.9876249673977
 21
-110.4650003267076
 31
0.0
 70
    32
  1
<>
 71
     5
 42
-1.0
 53
0.00013888888889
  3
ME10_DIM_15
100
AcDbAlignedDimension
 13
36.0800023833167
 23
-104.3400003267077
 33
0.0
 14
34.5800023833167
 24
-104.3400003267077
 34
0.0
100
AcDbRotatedDimension
  0
DIMENSION
  5
375
330
1F
100
AcDbEntity
  8
1
100
AcDbDimension
  2
*D10
 10
62.15499999999837
 20
-83.39000032670795
 30
0.0
 11
68.0445730304456
 21
-82.26500032670795
 31
0.0
 70
    32
  1
<>
 71
     5
 42
-1.0
 53
0.00013888888889
  3
ME10_DIM_16
100
AcDbAlignedDimension
 13
74.15499999999835
 23
-90.98890265766398
 33
0.0
 14
62.15499999999837
 24
-90.98890265766398
 34
0.0
100
AcDbRotatedDimension
  0
DIMENSION
  5
384
330
1F
100
AcDbEntity
  8
1
100
AcDbDimension
  2
*D11
 10
42.4212542972831
 20
-64.5099944793539
 30
0.0
 11
45.6595244828075
 21
-63.38499447935391
 31
0.0
 70
    32
  1
<>
 71
     5
 42
-1.0
 53
0.00013888888889
  3
ME10_DIM_17
100
AcDbAlignedDimension
 13
43.92125429728308
 23
-56.00999447935391
 33
0.0
 14
42.4212542972831
 24
-56.00999447935391
 34
0.0
100
AcDbRotatedDimension
  0
DIMENSION
  5
391
330
1F
100
AcDbEntity
  8
1
100
AcDbDimension
  2
*D12
 10
27.62125429728282
 20
-64.5099944793539
 30
0.0
 11
34.71227128498814
 21
-63.35999447935391
 31
0.0
 70
    32
  1
<>
 71
     5
 42
-1.0
 53
0.00013888888889
  3
ME10_DIM_18
100
AcDbAlignedDimension
 13
42.4212542972831
 23
-56.00999447935391
 33
0.0
 14
27.62125429728282
 24
-50.65499447935319
 34
0.0
100
AcDbRotatedDimension
  0
DIMENSION
  5
39E
330
1F
100
AcDbEntity
  8
1
100
AcDbDimension
  2
*D13
 10
59.62125429728284
 20
-56.00999447935391
 30
0.0
 11
58.37125429728284
 21
-49.3215296126381
 31
0.0
 70
    32
  1
<>
 71
     5
 42
-1.0
 53
90.0
  3
ME10_DIM_19
100
AcDbAlignedDimension
 13
43.9212542972831
 23
-43.00999447935548
 33
0.0
 14
43.92125429728308
 24
-56.00999447935391
 34
0.0
 50
90.0
100
AcDbRotatedDimension
  0
DIMENSION
  5
3AB
330
1F
100
AcDbEntity
  8
1
100
AcDbDimension
  2
*D14
 10
3.34124920904833
 20
-60.50999447935391
 30
0.0
 11
7.29951111285529
 21
-59.38499447935391
 31
0.0
 70
    32
  1
<>
 71
     5
 42
-1.0
 53
0.00013888888889
  3
ME10_DIM_20
100
AcDbAlignedDimension
 13
11.44124920904832
 23
-51.95343467739316
 33
0.0
 14
3.34124920904833
 24
-51.95343467710946
 34
0.0
100
AcDbRotatedDimension
  0
INSERT
  5
3B6
330
1F
100
AcDbEntity
  8
1
100
AcDbBlockReference
  2
*D15
 10
0.0
 20
0.0
 30
0.0
  0
INSERT
  5
3C1
330
1F
100
AcDbEntity
  8
1
100
AcDbBlockReference
  2
*D16
 10
0.0
 20
0.0
 30
0.0
  0
DIMENSION
  5
3CE
330
1F
100
AcDbEntity
  8
1
100
AcDbDimension
  2
*D17
 10
31.9212542972829
 20
-60.50999447935391
 30
0.0
 11
36.7614568076738
 21
-59.35999447935391
 31
0.0
 70
    32
  1
<>
 71
     5
 42
-1.0
 53
0.00013888888889
  3
ME10_DIM_21
100
AcDbAlignedDimension
 13
42.4212542972831
 23
-56.00999447935391
 33
0.0
 14
31.9212542972829
 24
-53.00999447935519
 34
0.0
100
AcDbRotatedDimension
  0
DIMENSION
  5
3DD
330
1F
100
AcDbEntity
  8
1
100
AcDbDimension
  2
*D18
 10
45.95125429728257
 20
-107.0900003267076
 30
0.0
 11
44.82625429728257
 21
-106.296994304347
 31
0.0
 70
    32
  1
<>
 71
     5
 42
-1.0
 53
90.0
  3
ME10_DIM_22
100
AcDbAlignedDimension
 13
35.3300023833167
 23
-105.0900003267077
 33
0.0
 14
35.3300023833167
 24
-107.0900003267076
 34
0.0
 50
90.0
100
AcDbRotatedDimension
  0
DIMENSION
  5
3EA
330
1F
100
AcDbEntity
  8
1
100
AcDbDimension
  2
*D19
 10
45.95125429728257
 20
-105.0900003267077
 30
0.0
 11
44.82625429728257
 21
-101.5900003267077
 31
0.0
 70
    32
  1
<>
 71
     5
 42
-1.0
 53
90.0
  3
ME10_DIM_23
100
AcDbAlignedDimension
 13
35.3300023833167
 23
-98.09000032670767
 33
0.0
 14
35.3300023833167
 24
-105.0900003267077
 34
0.0
 50
90.0
100
AcDbRotatedDimension
  0
INSERT
  5
3F3
330
1F
100
AcDbEntity
  8
1
100
AcDbBlockReference
  2
*D20
 10
0.0
 20
0.0
 30
0.0
  0
INSERT
  5
3FB
330
1F
100
AcDbEntity
  8
1
100
AcDbBlockReference
  2
*D21
 10
0.0
 20
0.0
 30
0.0
  0
ENDSEC
  0
SECTION
  2
OBJECTS
  0
DICTIONARY
  5
C
330
0
100
AcDbDictionary
281
     1
  3
ACAD_GROUP
350
D
  3
ACAD_LAYOUT
350
1A
  3
ACAD_MATERIAL
350
43
  3
ACAD_MLEADERSTYLE
350
6B
  3
ACAD_MLINESTYLE
350
17
  3
ACAD_PLOTSETTINGS
350
19
  3
ACAD_PLOTSTYLENAME
350
E
  3
ACAD_SCALELIST
350
47
  3
ACAD_TABLESTYLE
350
69
  3
ACAD_VISUALSTYLE
350
2A
  3
AcDbVariableDictionary
350
3FC
  0
DICTIONARY
  5
403
330
8
100
AcDbDictionary
280
     1
281
     1
  3
ACAD_XREC_ROUNDTRIP
360
404
  0
DICTIONARY
  5
D
102
{ACAD_REACTORS
330
C
102
}
330
C
100
AcDbDictionary
281
     1
  0
DICTIONARY
  5
1A
102
{ACAD_REACTORS
330
C
102
}
330
C
100
AcDbDictionary
281
     1
  3
Layout1
350
1E
  3
Layout2
350
26
  3
Model
350
22
  0
DICTIONARY
  5
43
102
{ACAD_REACTORS
330
C
102
}
330
C
100
AcDbDictionary
281
     1
  3
ByBlock
350
45
  3
ByLayer
350
44
  3
Global
350
46
  0
DICTIONARY
  5
6B
102
{ACAD_REACTORS
330
C
102
}
330
C
100
AcDbDictionary
281
     1
  3
Standard
350
6C
  0
DICTIONARY
  5
17
102
{ACAD_REACTORS
330
C
102
}
330
C
100
AcDbDictionary
281
     1
  3
Standard
350
18
  0
DICTIONARY
  5
19
102
{ACAD_REACTORS
330
C
102
}
330
C
100
AcDbDictionary
281
     1
  0
ACDBDICTIONARYWDFLT
  5
E
102
{ACAD_REACTORS
330
C
102
}
330
C
100
AcDbDictionary
281
     1
  3
Normal
350
F
100
AcDbDictionaryWithDefault
340
F
  0
DICTIONARY
  5
47
102
{ACAD_REACTORS
330
C
102
}
330
C
100
AcDbDictionary
281
     1
  3
A0
350
48
  3
A1
350
49
  3
A2
350
4A
  3
A3
350
4B
  3
A4
350
4C
  3
A5
350
4D
  3
A6
350
4E
  3
A7
350
4F
  3
A8
350
50
  3
A9
350
51
  3
B0
350
52
  3
B1
350
53
  3
B2
350
54
  3
B3
350
55
  3
B4
350
56
  3
B5
350
57
  3
B6
350
58
  3
B7
350
59
  3
B8
350
5A
  3
B9
350
5B
  3
C0
350
5C
  3
C1
350
5D
  3
C2
350
5E
  3
C3
350
5F
  3
C4
350
60
  3
C5
350
61
  3
C6
350
62
  3
C7
350
63
  3
C8
350
64
  3
C9
350
65
  3
D0
350
66
  3
D1
350
67
  3
D2
350
68
  0
DICTIONARY
  5
69
102
{ACAD_REACTORS
330
C
102
}
330
C
100
AcDbDictionary
281
     1
  3
Standard
350
6A
  0
DICTIONARY
  5
2A
102
{ACAD_REACTORS
330
C
102
}
330
C
100
AcDbDictionary
281
     1
  3
2dWireframe
350
2F
  3
Basic
350
32
  3
Brighten
350
36
  3
ColorChange
350
3A
  3
Conceptual
350
34
  3
Dim
350
35
  3
EdgeColorOff
350
3D
  3
Facepattern
350
39
  3
Flat
350
2B
  3
FlatWithEdges
350
2C
  3
Gouraud
350
2D
  3
GouraudWithEdges
350
2E
  3
Hidden
350
31
  3
JitterOff
350
3B
  3
Linepattern
350
38
  3
OverhangOff
350
3C
  3
Realistic
350
33
  3
Shaded
350
42
  3
Shaded with edges
350
41
  3
Shades of Gray
350
3E
  3
Sketchy
350
3F
  3
Thicken
350
37
  3
Wireframe
350
30
  3
X-Ray
350
40
  0
DICTIONARY
  5
3FC
102
{ACAD_REACTORS
330
C
102
}
330
C
100
AcDbDictionary
281
     1
  3
CANNOSCALE
350
405
  3
CMLEADERSTYLE
350
3FE
  3
CTABLESTYLE
350
3FD
  3
DIMASSOC
350
401
  3
HIDETEXT
350
402
  3
MSLTSCALE
350
406
  0
XRECORD
  5
404
102
{ACAD_REACTORS
330
403
102
}
330
403
100
AcDbXrecord
280
     1
102
VTR_0.000_0.000_1.000_1.000_GRIDDISPLAY
 70
     3
102
VTR_0.000_0.000_1.000_1.000_GRIDMAJOR
 70
     5
102
VTR_0.000_0.000_1.000_1.000_DEFAULTLIGHTING
280
     1
102
VTR_0.000_0.000_1.000_1.000_DEFAULTLIGHTINGTYPE
 70
     1
102
VTR_0.000_0.000_1.000_1.000_BRIGHTNESS
141
0.0
102
VTR_0.000_0.000_1.000_1.000_CONTRAST
142
0.0
  0
LAYOUT
  5
1E
102
{ACAD_REACTORS
330
1A
102
}
330
1A
100
AcDbPlotSettings
  1

  2
none_device
  4

  6

 40
0.0
 41
0.0
 42
0.0
 43
0.0
 44
0.0
 45
0.0
 46
0.0
 47
0.0
 48
0.0
 49
0.0
140
0.0
141
0.0
142
1.0
143
1.0
 70
   688
 72
     0
 73
     0
 74
     5
  7

 75
    16
147
1.0
148
0.0
149
0.0
100
AcDbLayout
  1
Layout1
 70
     1
 71
     1
 10
0.0
 20
0.0
 11
12.0
 21
9.0
 12
0.0
 22
0.0
 32
0.0
 14
1.00000000000000E+20
 24
1.00000000000000E+20
 34
1.00000000000000E+20
 15
-1.00000000000000E+20
 25
-1.00000000000000E+20
 35
-1.00000000000000E+20
146
0.0
 13
0.0
 23
0.0
 33
0.0
 16
1.0
 26
0.0
 36
0.0
 17
0.0
 27
1.0
 37
0.0
 76
     0
330
1B
  0
LAYOUT
  5
26
102
{ACAD_REACTORS
330
1A
102
}
330
1A
100
AcDbPlotSettings
  1

  2
none_device
  4

  6

 40
0.0
 41
0.0
 42
0.0
 43
0.0
 44
0.0
 45
0.0
 46
0.0
 47
0.0
 48
0.0
 49
0.0
140
0.0
141
0.0
142
1.0
143
1.0
 70
   688
 72
     0
 73
     0
 74
     5
  7

 75
    16
147
1.0
148
0.0
149
0.0
100
AcDbLayout
  1
Layout2
 70
     1
 71
     2
 10
0.0
 20
0.0
 11
0.0
 21
0.0
 12
0.0
 22
0.0
 32
0.0
 14
0.0
 24
0.0
 34
0.0
 15
0.0
 25
0.0
 35
0.0
146
0.0
 13
0.0
 23
0.0
 33
0.0
 16
1.0
 26
0.0
 36
0.0
 17
0.0
 27
1.0
 37
0.0
 76
     0
330
23
  0
LAYOUT
  5
22
102
{ACAD_REACTORS
330
1A
102
}
330
1A
100
AcDbPlotSettings
  1

  2
none_device
  4
Letter_(8.50_x_11.00_Inches)
  6

 40
6.35
 41
6.35
 42
6.35000508
 43
6.35000508
 44
215.9
 45
279.4
 46
0.0
 47
0.0
 48
0.0
 49
0.0
140
0.0
141
0.0
142
1.0
143
1.0
 70
  1712
 72
     0
 73
     0
 74
     0
  7

 75
     0
147
1.0
148
0.0
149
0.0
100
AcDbLayout
  1
Model
 70
     1
 71
     0
 10
0.0
 20
0.0
 11
12.0
 21
9.0
 12
0.0
 22
0.0
 32
0.0
 14
-2.99374708938558
 24
-146.1450983195054
 34
0.0
 15
87.00625291061435
 25
-17.97317896029287
 35
0.0
146
0.0
 13
0.0
 23
0.0
 33
0.0
 16
1.0
 26
0.0
 36
0.0
 17
0.0
 27
1.0
 37
0.0
 76
     0
330
1F
331
29
  0
MATERIAL
  5
45
102
{ACAD_REACTORS
330
43
102
}
102
{ACAD_XDICTIONARY
360
439
102
}
330
43
100
AcDbMaterial
  1
ByBlock
  0
MATERIAL
  5
44
102
{ACAD_REACTORS
330
43
102
}
102
{ACAD_XDICTIONARY
360
437
102
}
330
43
100
AcDbMaterial
  1
ByLayer
  0
MATERIAL
  5
46
102
{ACAD_REACTORS
330
43
102
}
102
{ACAD_XDICTIONARY
360
43B
102
}
330
43
100
AcDbMaterial
  1
Global
  0
MLEADERSTYLE
  5
6C
102
{ACAD_REACTORS
330
6B
102
}
102
{ACAD_XDICTIONARY
360
43E
102
}
330
6B
100
AcDbMLeaderStyle
170
     2
171
     1
172
     0
 90
        2
 40
0.0
 41
0.0
173
     1
 91
-1056964608
340
14
 92
       -2
290
     1
 42
0.09
291
     1
 43
0.36
  3
Standard
341
0
 44
0.18
300

342
11
174
     1
178
     6
175
     1
176
     0
 93
-1056964608
 45
0.18
292
     0
297
     0
 46
0.18
343
0
 94
-1056964608
 47
1.0
 49
1.0
140
1.0
293
     1
141
0.0
294
     1
177
     0
142
1.0
295
     0
296
     0
143
0.125
1001
ACAD_MLEADERVER
1070
     2
  0
MLINESTYLE
  5
18
102
{ACAD_REACTORS
330
17
102
}
330
17
100
AcDbMlineStyle
  2
Standard
 70
     0
  3

 62
   256
 51
90.0
 52
90.0
 71
     2
 49
0.5
 62
   256
  6
BYLAYER
 49
-0.5
 62
   256
  6
BYLAYER
  0
ACDBPLACEHOLDER
  5
F
102
{ACAD_REACTORS
330
E
102
}
330
E
  0
SCALE
  5
48
102
{ACAD_REACTORS
330
47
102
}
330
47
100
AcDbScale
 70
     0
300
1:1
140
1.0
141
1.0
290
     1
  0
SCALE
  5
49
102
{ACAD_REACTORS
330
47
102
}
330
47
100
AcDbScale
 70
     0
300
1:2
140
1.0
141
2.0
290
     0
  0
SCALE
  5
4A
102
{ACAD_REACTORS
330
47
102
}
330
47
100
AcDbScale
 70
     0
300
1:4
140
1.0
141
4.0
290
     0
  0
SCALE
  5
4B
102
{ACAD_REACTORS
330
47
102
}
330
47
100
AcDbScale
 70
     0
300
1:5
140
1.0
141
5.0
290
     0
  0
SCALE
  5
4C
102
{ACAD_REACTORS
330
47
102
}
330
47
100
AcDbScale
 70
     0
300
1:8
140
1.0
141
8.0
290
     0
  0
SCALE
  5
4D
102
{ACAD_REACTORS
330
47
102
}
330
47
100
AcDbScale
 70
     0
300
1:10
140
1.0
141
10.0
290
     0
  0
SCALE
  5
4E
102
{ACAD_REACTORS
330
47
102
}
330
47
100
AcDbScale
 70
     0
300
1:16
140
1.0
141
16.0
290
     0
  0
SCALE
  5
4F
102
{ACAD_REACTORS
330
47
102
}
330
47
100
AcDbScale
 70
     0
300
1:20
140
1.0
141
20.0
290
     0
  0
SCALE
  5
50
102
{ACAD_REACTORS
330
47
102
}
330
47
100
AcDbScale
 70
     0
300
1:30
140
1.0
141
30.0
290
     0
  0
SCALE
  5
51
102
{ACAD_REACTORS
330
47
102
}
330
47
100
AcDbScale
 70
     0
300
1:40
140
1.0
141
40.0
290
     0
  0
SCALE
  5
52
102
{ACAD_REACTORS
330
47
102
}
330
47
100
AcDbScale
 70
     0
300
1:50
140
1.0
141
50.0
290
     0
  0
SCALE
  5
53
102
{ACAD_REACTORS
330
47
102
}
330
47
100
AcDbScale
 70
     0
300
1:100
140
1.0
141
100.0
290
     0
  0
SCALE
  5
54
102
{ACAD_REACTORS
330
47
102
}
330
47
100
AcDbScale
 70
     0
300
2:1
140
2.0
141
1.0
290
     0
  0
SCALE
  5
55
102
{ACAD_REACTORS
330
47
102
}
330
47
100
AcDbScale
 70
     0
300
4:1
140
4.0
141
1.0
290
     0
  0
SCALE
  5
56
102
{ACAD_REACTORS
330
47
102
}
330
47
100
AcDbScale
 70
     0
300
8:1
140
8.0
141
1.0
290
     0
  0
SCALE
  5
57
102
{ACAD_REACTORS
330
47
102
}
330
47
100
AcDbScale
 70
     0
300
10:1
140
10.0
141
1.0
290
     0
  0
SCALE
  5
58
102
{ACAD_REACTORS
330
47
102
}
330
47
100
AcDbScale
 70
     0
300
100:1
140
100.0
141
1.0
290
     0
  0
SCALE
  5
59
102
{ACAD_REACTORS
330
47
102
}
330
47
100
AcDbScale
 70
     0
300
1/128" = 1'-0"
140
0.0078125
141
12.0
290
     0
  0
SCALE
  5
5A
102
{ACAD_REACTORS
330
47
102
}
330
47
100
AcDbScale
 70
     0
300
1/64" = 1'-0"
140
0.015625
141
12.0
290
     0
  0
SCALE
  5
5B
102
{ACAD_REACTORS
330
47
102
}
330
47
100
AcDbScale
 70
     0
300
1/32" = 1'-0"
140
0.03125
141
12.0
290
     0
  0
SCALE
  5
5C
102
{ACAD_REACTORS
330
47
102
}
330
47
100
AcDbScale
 70
     0
300
1/16" = 1'-0"
140
0.0625
141
12.0
290
     0
  0
SCALE
  5
5D
102
{ACAD_REACTORS
330
47
102
}
330
47
100
AcDbScale
 70
     0
300
3/32" = 1'-0"
140
0.09375
141
12.0
290
     0
  0
SCALE
  5
5E
102
{ACAD_REACTORS
330
47
102
}
330
47
100
AcDbScale
 70
     0
300
1/8" = 1'-0"
140
0.125
141
12.0
290
     0
  0
SCALE
  5
5F
102
{ACAD_REACTORS
330
47
102
}
330
47
100
AcDbScale
 70
     0
300
3/16" = 1'-0"
140
0.1875
141
12.0
290
     0
  0
SCALE
  5
60
102
{ACAD_REACTORS
330
47
102
}
330
47
100
AcDbScale
 70
     0
300
1/4" = 1'-0"
140
0.25
141
12.0
290
     0
  0
SCALE
  5
61
102
{ACAD_REACTORS
330
47
102
}
330
47
100
AcDbScale
 70
     0
300
3/8" = 1'-0"
140
0.375
141
12.0
290
     0
  0
SCALE
  5
62
102
{ACAD_REACTORS
330
47
102
}
330
47
100
AcDbScale
 70
     0
300
1/2" = 1'-0"
140
0.5
141
12.0
290
     0
  0
SCALE
  5
63
102
{ACAD_REACTORS
330
47
102
}
330
47
100
AcDbScale
 70
     0
300
3/4" = 1'-0"
140
0.75
141
12.0
290
     0
  0
SCALE
  5
64
102
{ACAD_REACTORS
330
47
102
}
330
47
100
AcDbScale
 70
     0
300
1" = 1'-0"
140
1.0
141
12.0
290
     0
  0
SCALE
  5
65
102
{ACAD_REACTORS
330
47
102
}
330
47
100
AcDbScale
 70
     0
300
1-1/2" = 1'-0"
140
1.5
141
12.0
290
     0
  0
SCALE
  5
66
102
{ACAD_REACTORS
330
47
102
}
330
47
100
AcDbScale
 70
     0
300
3" = 1'-0"
140
3.0
141
12.0
290
     0
  0
SCALE
  5
67
102
{ACAD_REACTORS
330
47
102
}
330
47
100
AcDbScale
 70
     0
300
6" = 1'-0"
140
6.0
141
12.0
290
     0
  0
SCALE
  5
68
102
{ACAD_REACTORS
330
47
102
}
330
47
100
AcDbScale
 70
     0
300
1'-0" = 1'-0"
140
12.0
141
12.0
290
     0
  0
TABLESTYLE
  5
6A
102
{ACAD_REACTORS
330
69
102
}
330
69
100
AcDbTableStyle
  3
Standard
 70
     0
 71
     0
 40
0.06
 41
0.06
280
     0
281
     0
  7
Standard
140
0.18
170
     2
 62
     0
 63
   257
283
     0
274
    -2
284
     1
 64
     0
275
    -2
285
     1
 65
     0
276
    -2
286
     1
 66
     0
277
    -2
287
     1
 67
     0
278
    -2
288
     1
 68
     0
279
    -2
289
     1
 69
     0
  7
Standard
140
0.25
170
     5
 62
     0
 63
   257
283
     0
274
    -2
284
     1
 64
     0
275
    -2
285
     1
 65
     0
276
    -2
286
     1
 66
     0
277
    -2
287
     1
 67
     0
278
    -2
288
     1
 68
     0
279
    -2
289
     1
 69
     0
  7
Standard
140
0.18
170
     5
 62
     0
 63
   257
283
     0
274
    -2
284
     1
 64
     0
275
    -2
285
     1
 65
     0
276
    -2
286
     1
 66
     0
277
    -2
287
     1
 67
     0
278
    -2
288
     1
 68
     0
279
    -2
289
     1
 69
     0
  0
VISUALSTYLE
  5
2F
102
{ACAD_REACTORS
330
2A
102
}
102
{ACAD_XDICTIONARY
360
40F
102
}
330
2A
100
AcDbVisualStyle
  2
2dWireframe
 70
     4
 71
     0
 72
     2
 73
     0
 90
        0
 40
0.6
 41
30.0
 62
     5
 63
     7
 74
     1
 91
        4
 64
     7
 65
   257
 75
     1
175
     1
 42
1.0
 92
        0
 66
   257
 43
1.0
 76
     1
 77
     6
 78
     2
 67
     7
 79
     5
170
     0
171
     0
290
     0
174
     0
 93
        1
 44
0.0
173
     0
291
     0
 45
0.0
1001
ACAD
1000
AcDbSavedByObjectVersion
1070
     0
  0
VISUALSTYLE
  5
32
102
{ACAD_REACTORS
330
2A
102
}
102
{ACAD_XDICTIONARY
360
415
102
}
330
2A
100
AcDbVisualStyle
  2
Basic
 70
     7
 71
     1
 72
     0
 73
     1
 90
        0
 40
0.6
 41
30.0
 62
     5
 63
     7
 74
     0
 91
        4
 64
     7
 65
   257
 75
     1
175
     1
 42
1.0
 92
        8
 66
     7
 43
1.0
 76
     1
 77
     6
 78
     2
 67
     7
 79
     5
170
     0
171
     0
290
     0
174
     0
 93
        1
 44
0.0
173
     0
291
     1
 45
0.0
1001
ACAD
1000
AcDbSavedByObjectVersion
1070
     0
  0
VISUALSTYLE
  5
36
102
{ACAD_REACTORS
330
2A
102
}
102
{ACAD_XDICTIONARY
360
41D
102
}
330
2A
100
AcDbVisualStyle
  2
Brighten
 70
    12
 71
     2
 72
     2
 73
     0
 90
        0
 40
0.6
 41
30.0
 62
     5
 63
     7
 74
     1
 91
        4
 64
     7
 65
   257
 75
     1
175
     1
 42
1.0
 92
        8
 66
     7
 43
1.0
 76
     1
 77
     6
 78
     2
 67
     7
 79
     5
170
     0
171
     0
290
     0
174
     0
 93
        1
 44
50.0
173
     0
291
     1
 45
0.0
1001
ACAD
1000
AcDbSavedByObjectVersion
1070
     0
  0
VISUALSTYLE
  5
3A
102
{ACAD_REACTORS
330
2A
102
}
102
{ACAD_XDICTIONARY
360
425
102
}
330
2A
100
AcDbVisualStyle
  2
ColorChange
 70
    16
 71
     2
 72
     2
 73
     3
 90
        0
 40
0.6
 41
30.0
 62
     5
 63
     8
 74
     1
 91
        4
 64
     7
 65
   257
 75
     1
175
     1
 42
1.0
 92
        8
 66
     8
 43
1.0
 76
     1
 77
     6
 78
     2
 67
     7
 79
     5
170
     0
171
     0
290
     0
174
     0
 93
        1
 44
0.0
173
     0
291
     1
 45
0.0
1001
ACAD
1000
AcDbSavedByObjectVersion
1070
     0
  0
VISUALSTYLE
  5
34
102
{ACAD_REACTORS
330
2A
102
}
102
{ACAD_XDICTIONARY
360
419
102
}
330
2A
100
AcDbVisualStyle
  2
Conceptual
 70
     9
 71
     3
 72
     2
 73
     0
 90
        0
 40
0.6
 41
30.0
 62
     5
 63
     7
 74
     2
 91
        2
 64
     7
 65
   257
 75
     1
175
     1
 42
179.0
 92
        8
 66
     7
 43
1.0
 76
     1
 77
     6
 78
     2
 67
     7
 79
     3
170
     0
171
     0
290
     0
174
     0
 93
        1
 44
0.0
173
     0
291
     0
 45
0.0
1001
ACAD
1000
AcDbSavedByObjectVersion
1070
     0
  0
VISUALSTYLE
  5
35
102
{ACAD_REACTORS
330
2A
102
}
102
{ACAD_XDICTIONARY
360
41B
102
}
330
2A
100
AcDbVisualStyle
  2
Dim
 70
    11
 71
     2
 72
     2
 73
     0
 90
        0
 40
0.6
 41
30.0
 62
     5
 63
     7
 74
     1
 91
        4
 64
     7
 65
   257
 75
     1
175
     1
 42
1.0
 92
        8
 66
     7
 43
1.0
 76
     1
 77
     6
 78
     2
 67
     7
 79
     5
170
     0
171
     0
290
     0
174
     0
 93
        1
 44
-50.0
173
     0
291
     1
 45
0.0
1001
ACAD
1000
AcDbSavedByObjectVersion
1070
     0
  0
VISUALSTYLE
  5
3D
102
{ACAD_REACTORS
330
2A
102
}
102
{ACAD_XDICTIONARY
360
42B
102
}
330
2A
100
AcDbVisualStyle
  2
EdgeColorOff
 70
    22
 71
     2
 72
     2
 73
     0
 90
        0
 40
0.6
 41
30.0
 62
     5
 63
     7
 74
     1
 91
        4
 64
     7
 65
   257
 75
     1
175
     1
 42
1.0
 92
        8
 66
     7
 43
1.0
 76
     1
 77
     6
 78
     2
 67
     7
 79
     5
170
     0
171
     0
290
     0
174
     0
 93
        1
 44
0.0
173
     0
291
     1
 45
0.0
1001
ACAD
1000
AcDbSavedByObjectVersion
1070
     0
  0
VISUALSTYLE
  5
39
102
{ACAD_REACTORS
330
2A
102
}
102
{ACAD_XDICTIONARY
360
423
102
}
330
2A
100
AcDbVisualStyle
  2
Facepattern
 70
    15
 71
     2
 72
     2
 73
     0
 90
        0
 40
0.6
 41
30.0
 62
     5
 63
     7
 74
     1
 91
        4
 64
     7
 65
   257
 75
     1
175
     1
 42
1.0
 92
        8
 66
     7
 43
1.0
 76
     1
 77
     6
 78
     2
 67
     7
 79
     5
170
     0
171
     0
290
     0
174
     0
 93
        1
 44
0.0
173
     0
291
     1
 45
0.0
1001
ACAD
1000
AcDbSavedByObjectVersion
1070
     0
  0
VISUALSTYLE
  5
2B
102
{ACAD_REACTORS
330
2A
102
}
102
{ACAD_XDICTIONARY
360
407
102
}
330
2A
100
AcDbVisualStyle
  2
Flat
 70
     0
 71
     2
 72
     1
 73
     1
 90
        2
 40
0.6
 41
30.0
 62
     5
 63
     7
 74
     0
 91
        0
 64
     7
 65
   257
 75
     1
175
     1
 42
1.0
 92
        8
 66
     7
 43
1.0
 76
     1
 77
     6
 78
     2
 67
     7
 79
     5
170
     0
171
     0
290
     0
174
     0
 93
       13
 44
0.0
173
     0
291
     1
 45
0.0
1001
ACAD
1000
AcDbSavedByObjectVersion
1070
     0
  0
VISUALSTYLE
  5
2C
102
{ACAD_REACTORS
330
2A
102
}
102
{ACAD_XDICTIONARY
360
409
102
}
330
2A
100
AcDbVisualStyle
  2
FlatWithEdges
 70
     1
 71
     2
 72
     1
 73
     1
 90
        2
 40
0.6
 41
30.0
 62
     5
 63
     7
 74
     1
 91
        0
 64
     7
 65
   257
 75
     1
175
     1
 42
1.0
 92
        0
 66
   257
 43
1.0
 76
     1
 77
     6
 78
     2
 67
     7
 79
     5
170
     0
171
     0
290
     0
174
     0
 93
       13
 44
0.0
173
     0
291
     1
 45
0.0
1001
ACAD
1000
AcDbSavedByObjectVersion
1070
     0
  0
VISUALSTYLE
  5
2D
102
{ACAD_REACTORS
330
2A
102
}
102
{ACAD_XDICTIONARY
360
40B
102
}
330
2A
100
AcDbVisualStyle
  2
Gouraud
 70
     2
 71
     2
 72
     2
 73
     1
 90
        2
 40
0.6
 41
30.0
 62
     5
 63
     7
 74
     0
 91
        0
 64
     7
 65
   257
 75
     1
175
     1
 42
1.0
 92
        0
 66
     7
 43
1.0
 76
     1
 77
     6
 78
     2
 67
     7
 79
     5
170
     0
171
     0
290
     0
174
     0
 93
       13
 44
0.0
173
     0
291
     1
 45
0.0
1001
ACAD
1000
AcDbSavedByObjectVersion
1070
     0
  0
VISUALSTYLE
  5
2E
102
{ACAD_REACTORS
330
2A
102
}
102
{ACAD_XDICTIONARY
360
40D
102
}
330
2A
100
AcDbVisualStyle
  2
GouraudWithEdges
 70
     3
 71
     2
 72
     2
 73
     1
 90
        2
 40
0.6
 41
30.0
 62
     5
 63
     7
 74
     1
 91
        0
 64
     7
 65
   257
 75
     1
175
     1
 42
1.0
 92
        0
 66
   257
 43
1.0
 76
     1
 77
     6
 78
     2
 67
     7
 79
     5
170
     0
171
     0
290
     0
174
     0
 93
       13
 44
0.0
173
     0
291
     1
 45
0.0
1001
ACAD
1000
AcDbSavedByObjectVersion
1070
     0
  0
VISUALSTYLE
  5
31
102
{ACAD_REACTORS
330
2A
102
}
102
{ACAD_XDICTIONARY
360
413
102
}
330
2A
100
AcDbVisualStyle
  2
Hidden
 70
     6
 71
     1
 72
     2
 73
     2
 90
        0
 40
0.6
 41
30.0
 62
     5
 63
     7
 74
     2
 91
        2
 64
     7
 65
   257
 75
     2
175
     1
 42
40.0
 92
        0
 66
   257
 43
1.0
 76
     1
 77
     6
 78
     2
 67
     7
 79
     3
170
     0
171
     0
290
     0
174
     0
 93
        1
 44
0.0
173
     0
291
     0
 45
0.0
1001
ACAD
1000
AcDbSavedByObjectVersion
1070
     0
  0
VISUALSTYLE
  5
3B
102
{ACAD_REACTORS
330
2A
102
}
102
{ACAD_XDICTIONARY
360
427
102
}
330
2A
100
AcDbVisualStyle
  2
JitterOff
 70
    20
 71
     2
 72
     2
 73
     0
 90
        0
 40
0.6
 41
30.0
 62
     5
 63
     7
 74
     1
 91
        4
 64
     7
 65
   257
 75
     1
175
     1
 42
1.0
 92
       10
 66
     7
 43
1.0
 76
     1
 77
     6
 78
     2
 67
     7
 79
     5
170
     0
171
     0
290
     0
174
     0
 93
        1
 44
0.0
173
     0
291
     1
 45
0.0
1001
ACAD
1000
AcDbSavedByObjectVersion
1070
     0
  0
VISUALSTYLE
  5
38
102
{ACAD_REACTORS
330
2A
102
}
102
{ACAD_XDICTIONARY
360
421
102
}
330
2A
100
AcDbVisualStyle
  2
Linepattern
 70
    14
 71
     2
 72
     2
 73
     0
 90
        0
 40
0.6
 41
30.0
 62
     5
 63
     7
 74
     1
 91
        4
 64
     7
 65
   257
 75
     7
175
     7
 42
1.0
 92
        8
 66
     7
 43
1.0
 76
     1
 77
     6
 78
     2
 67
     7
 79
     5
170
     0
171
     0
290
     0
174
     0
 93
        1
 44
0.0
173
     0
291
     1
 45
0.0
1001
ACAD
1000
AcDbSavedByObjectVersion
1070
     0
  0
VISUALSTYLE
  5
3C
102
{ACAD_REACTORS
330
2A
102
}
102
{ACAD_XDICTIONARY
360
429
102
}
330
2A
100
AcDbVisualStyle
  2
OverhangOff
 70
    21
 71
     2
 72
     2
 73
     0
 90
        0
 40
0.6
 41
30.0
 62
     5
 63
     7
 74
     1
 91
        4
 64
     7
 65
   257
 75
     1
175
     1
 42
1.0
 92
        9
 66
     7
 43
1.0
 76
     1
 77
     6
 78
     2
 67
     7
 79
     5
170
     0
171
     0
290
     0
174
     0
 93
        1
 44
0.0
173
     0
291
     1
 45
0.0
1001
ACAD
1000
AcDbSavedByObjectVersion
1070
     0
  0
VISUALSTYLE
  5
33
102
{ACAD_REACTORS
330
2A
102
}
102
{ACAD_XDICTIONARY
360
417
102
}
330
2A
100
AcDbVisualStyle
  2
Realistic
 70
     8
 71
     2
 72
     3
 73
     0
 90
        2
 40
0.6
 41
30.0
 62
     5
 63
     7
 74
     0
 91
        0
 64
     7
 65
   257
 75
     1
175
     1
 42
1.0
 92
        8
 66
   257
 43
1.0
 76
     1
 77
     6
 78
     2
 67
     7
 79
     3
170
     0
171
     0
290
     0
174
     0
 93
       13
 44
0.0
173
     0
291
     0
 45
0.0
1001
ACAD
1000
AcDbSavedByObjectVersion
1070
     0
  0
VISUALSTYLE
  5
42
102
{ACAD_REACTORS
330
2A
102
}
102
{ACAD_XDICTIONARY
360
435
102
}
330
2A
100
AcDbVisualStyle
  2
Shaded
 70
    27
 71
     2
 72
     2
 73
     1
 90
        2
 40
0.6
 41
30.0
 62
     5
 63
     7
 74
     0
 91
        4
 64
     7
 65
   257
 75
     1
175
     1
 42
1.0
 92
        8
 66
   257
 43
1.0
 76
     1
 77
     6
 78
     2
 67
     8
 79
     3
170
     0
171
     0
290
     0
174
     0
 93
        5
 44
0.0
173
     0
291
     0
 45
0.0
1001
ACAD
1000
AcDbSavedByObjectVersion
1070
     0
  0
VISUALSTYLE
  5
41
102
{ACAD_REACTORS
330
2A
102
}
102
{ACAD_XDICTIONARY
360
433
102
}
330
2A
100
AcDbVisualStyle
  2
Shaded with edges
 70
    26
 71
     2
 72
     2
 73
     1
 90
        2
 40
0.6
 41
30.0
 62
     5
 63
     7
 74
     1
 91
       10
 64
     7
 65
   257
 75
     2
175
     1
 42
1.0
 92
        8
 66
   257
 43
1.0
 76
     1
 77
     6
 78
     2
 67
     7
 79
     3
170
     0
171
     0
290
     0
174
     0
 93
        5
 44
0.0
173
     0
291
     0
 45
0.0
1001
ACAD
1000
AcDbSavedByObjectVersion
1070
     0
  0
VISUALSTYLE
  5
3E
102
{ACAD_REACTORS
330
2A
102
}
102
{ACAD_XDICTIONARY
360
42D
102
}
330
2A
100
AcDbVisualStyle
  2
Shades of Gray
 70
    23
 71
     2
 72
     2
 73
     3
 90
        0
 40
0.6
 41
30.0
 62
     5
 63
     7
 74
     2
 91
        2
 64
     7
 65
     7
 75
     1
175
     1
 42
40.0
 92
        8
 66
     7
 43
1.0
 76
     1
 77
     6
 78
     2
 67
     7
 79
     3
170
     0
171
     0
290
     0
174
     0
 93
        1
 44
0.0
173
     0
291
     0
 45
0.0
1001
ACAD
1000
AcDbSavedByObjectVersion
1070
     0
  0
VISUALSTYLE
  5
3F
102
{ACAD_REACTORS
330
2A
102
}
102
{ACAD_XDICTIONARY
360
42F
102
}
330
2A
100
AcDbVisualStyle
  2
Sketchy
 70
    24
 71
     1
 72
     2
 73
     2
 90
        0
 40
0.6
 41
30.0
 62
     5
 63
     7
 74
     2
 91
        2
 64
     7
 65
     7
 75
     1
175
     1
 42
40.0
 92
       11
 66
     7
 43
1.0
 76
     1
 77
     6
 78
     2
 67
     7
 79
     6
170
     0
171
     0
290
     0
174
     0
 93
        1
 44
0.0
173
     0
291
     0
 45
0.0
1001
ACAD
1000
AcDbSavedByObjectVersion
1070
     0
  0
VISUALSTYLE
  5
37
102
{ACAD_REACTORS
330
2A
102
}
102
{ACAD_XDICTIONARY
360
41F
102
}
330
2A
100
AcDbVisualStyle
  2
Thicken
 70
    13
 71
     2
 72
     2
 73
     0
 90
        0
 40
0.6
 41
30.0
 62
     5
 63
     7
 74
     1
 91
        4
 64
     7
 65
   257
 75
     1
175
     1
 42
1.0
 92
       12
 66
     7
 43
1.0
 76
     1
 77
     6
 78
     2
 67
     7
 79
     5
170
     0
171
     0
290
     0
174
     0
 93
        1
 44
0.0
173
     0
291
     1
 45
0.0
1001
ACAD
1000
AcDbSavedByObjectVersion
1070
     0
  0
VISUALSTYLE
  5
30
102
{ACAD_REACTORS
330
2A
102
}
102
{ACAD_XDICTIONARY
360
411
102
}
330
2A
100
AcDbVisualStyle
  2
Wireframe
 70
     5
 71
     0
 72
     2
 73
     0
 90
        0
 40
0.6
 41
30.0
 62
     5
 63
     7
 74
     1
 91
        4
 64
     7
 65
   257
 75
     1
175
     1
 42
1.0
 92
        0
 66
   257
 43
1.0
 76
     1
 77
     6
 78
     2
 67
     7
 79
     3
170
     0
171
     0
290
     0
174
     0
 93
        1
 44
0.0
173
     0
291
     0
 45
0.0
1001
ACAD
1000
AcDbSavedByObjectVersion
1070
     0
  0
VISUALSTYLE
  5
40
102
{ACAD_REACTORS
330
2A
102
}
102
{ACAD_XDICTIONARY
360
431
102
}
330
2A
100
AcDbVisualStyle
  2
X-Ray
 70
    25
 71
     2
 72
     2
 73
     1
 90
        1
 40
0.5
 41
30.0
 62
     5
 63
     7
 74
     1
 91
        0
 64
     7
 65
   257
 75
     1
175
     1
 42
1.0
 92
        8
 66
     7
 43
1.0
 76
     1
 77
     6
 78
     2
 67
     7
 79
     3
170
     0
171
     0
290
     0
174
     0
 93
       13
 44
0.0
173
     0
291
     0
 45
0.0
1001
ACAD
1000
AcDbSavedByObjectVersion
1070
     0
  0
DICTIONARYVAR
  5
405
102
{ACAD_REACTORS
330
3FC
102
}
330
3FC
100
DictionaryVariables
280
     0
  1
1:1
  0
DICTIONARYVAR
  5
3FE
102
{ACAD_REACTORS
330
3FC
102
}
330
3FC
100
DictionaryVariables
280
     0
  1
Standard
  0
DICTIONARYVAR
  5
3FD
102
{ACAD_REACTORS
330
3FC
102
}
330
3FC
100
DictionaryVariables
280
     0
  1
Standard
  0
DICTIONARYVAR
  5
401
102
{ACAD_REACTORS
330
3FC
102
}
330
3FC
100
DictionaryVariables
280
     0
  1
2
  0
DICTIONARYVAR
  5
402
102
{ACAD_REACTORS
330
3FC
102
}
330
3FC
100
DictionaryVariables
280
     0
  1
1
  0
DICTIONARYVAR
  5
406
102
{ACAD_REACTORS
330
3FC
102
}
330
3FC
100
DictionaryVariables
280
     0
  1
1
  0
DICTIONARY
  5
439
330
45
100
AcDbDictionary
280
     1
281
     1
  3
ACAD_XREC_ROUNDTRIP
360
43A
  0
DICTIONARY
  5
437
330
44
100
AcDbDictionary
280
     1
281
     1
  3
ACAD_XREC_ROUNDTRIP
360
438
  0
DICTIONARY
  5
43B
330
46
100
AcDbDictionary
280
     1
281
     1
  3
ACAD_XREC_ROUNDTRIP
360
43C
  0
DICTIONARY
  5
43E
330
6C
100
AcDbDictionary
280
     1
281
     1
  3
ACAD_XREC_ROUNDTRIP
360
43F
  0
DICTIONARY
  5
40F
330
2F
100
AcDbDictionary
280
     1
281
     1
  3
ACAD_XREC_ROUNDTRIP
360
410
  0
DICTIONARY
  5
415
330
32
100
AcDbDictionary
280
     1
281
     1
  3
ACAD_XREC_ROUNDTRIP
360
416
  0
DICTIONARY
  5
41D
330
36
100
AcDbDictionary
280
     1
281
     1
  3
ACAD_XREC_ROUNDTRIP
360
41E
  0
DICTIONARY
  5
425
330
3A
100
AcDbDictionary
280
     1
281
     1
  3
ACAD_XREC_ROUNDTRIP
360
426
  0
DICTIONARY
  5
419
330
34
100
AcDbDictionary
280
     1
281
     1
  3
ACAD_XREC_ROUNDTRIP
360
41A
  0
DICTIONARY
  5
41B
330
35
100
AcDbDictionary
280
     1
281
     1
  3
ACAD_XREC_ROUNDTRIP
360
41C
  0
DICTIONARY
  5
42B
330
3D
100
AcDbDictionary
280
     1
281
     1
  3
ACAD_XREC_ROUNDTRIP
360
42C
  0
DICTIONARY
  5
423
330
39
100
AcDbDictionary
280
     1
281
     1
  3
ACAD_XREC_ROUNDTRIP
360
424
  0
DICTIONARY
  5
407
330
2B
100
AcDbDictionary
280
     1
281
     1
  3
ACAD_XREC_ROUNDTRIP
360
408
  0
DICTIONARY
  5
409
330
2C
100
AcDbDictionary
280
     1
281
     1
  3
ACAD_XREC_ROUNDTRIP
360
40A
  0
DICTIONARY
  5
40B
330
2D
100
AcDbDictionary
280
     1
281
     1
  3
ACAD_XREC_ROUNDTRIP
360
40C
  0
DICTIONARY
  5
40D
330
2E
100
AcDbDictionary
280
     1
281
     1
  3
ACAD_XREC_ROUNDTRIP
360
40E
  0
DICTIONARY
  5
413
330
31
100
AcDbDictionary
280
     1
281
     1
  3
ACAD_XREC_ROUNDTRIP
360
414
  0
DICTIONARY
  5
427
330
3B
100
AcDbDictionary
280
     1
281
     1
  3
ACAD_XREC_ROUNDTRIP
360
428
  0
DICTIONARY
  5
421
330
38
100
AcDbDictionary
280
     1
281
     1
  3
ACAD_XREC_ROUNDTRIP
360
422
  0
DICTIONARY
  5
429
330
3C
100
AcDbDictionary
280
     1
281
     1
  3
ACAD_XREC_ROUNDTRIP
360
42A
  0
DICTIONARY
  5
417
330
33
100
AcDbDictionary
280
     1
281
     1
  3
ACAD_XREC_ROUNDTRIP
360
418
  0
DICTIONARY
  5
435
330
42
100
AcDbDictionary
280
     1
281
     1
  3
ACAD_XREC_ROUNDTRIP
360
436
  0
DICTIONARY
  5
433
330
41
100
AcDbDictionary
280
     1
281
     1
  3
ACAD_XREC_ROUNDTRIP
360
434
  0
DICTIONARY
  5
42D
330
3E
100
AcDbDictionary
280
     1
281
     1
  3
ACAD_XREC_ROUNDTRIP
360
42E
  0
DICTIONARY
  5
42F
330
3F
100
AcDbDictionary
280
     1
281
     1
  3
ACAD_XREC_ROUNDTRIP
360
430
  0
DICTIONARY
  5
41F
330
37
100
AcDbDictionary
280
     1
281
     1
  3
ACAD_XREC_ROUNDTRIP
360
420
  0
DICTIONARY
  5
411
330
30
100
AcDbDictionary
280
     1
281
     1
  3
ACAD_XREC_ROUNDTRIP
360
412
  0
DICTIONARY
  5
431
330
40
100
AcDbDictionary
280
     1
281
     1
  3
ACAD_XREC_ROUNDTRIP
360
432
  0
XRECORD
  5
43A
102
{ACAD_REACTORS
330
439
102
}
330
439
100
AcDbXrecord
280
     1
102
MATERIAL
148
0.0
149
0.0
149
0.0
 93
        0
 94
      127
282
     0
 72
     1
 77
     1
171
     1
175
     1
179
     1
273
     0
  0
XRECORD
  5
438
102
{ACAD_REACTORS
330
437
102
}
330
437
100
AcDbXrecord
280
     1
102
MATERIAL
148
0.0
149
0.0
149
0.0
 93
        0
 94
      127
282
     0
 72
     1
 77
     1
171
     1
175
     1
179
     1
273
     0
  0
XRECORD
  5
43C
102
{ACAD_REACTORS
330
43B
102
}
330
43B
100
AcDbXrecord
280
     1
102
MATERIAL
148
0.0
149
0.0
149
0.0
 93
        0
 94
      127
282
     0
 72
     1
 77
     1
171
     1
175
     1
179
     1
273
     0
  0
XRECORD
  5
43F
102
{ACAD_REACTORS
330
43E
102
}
330
43E
100
AcDbXrecord
280
     1
102
ACAD_ROUNDTRIP_2010_MLEADER_STYLE
  0
XRECORD
  5
410
102
{ACAD_REACTORS
330
40F
102
}
330
40F
100
AcDbXrecord
280
     1
102
RTVSPropertyOp0
 70
     1
102
RTVSPropertyOp1
 70
     1
102
RTVSPropertyOp2
 70
     1
102
RTVSPropertyOp3
 70
     1
102
RTVSPropertyOp4
 70
     1
102
RTVSPropertyOp5
 70
     1
102
RTVSPropertyOp6
 70
     1
102
RTVSPropertyOp7
 70
     1
102
RTVSPropertyOp8
 70
     1
102
RTVSPropertyOp9
 70
     1
102
RTVSPropertyOp10
 70
     1
102
RTVSPropertyOp11
 70
     1
102
RTVSPropertyOp12
 70
     1
102
RTVSPropertyOp13
 70
     1
102
RTVSPropertyOp14
 70
     1
102
RTVSPropertyOp15
 70
     1
102
RTVSPropertyOp16
 70
     1
102
RTVSPropertyOp17
 70
     1
102
RTVSPropertyOp18
 70
     1
102
RTVSPropertyOp19
 70
     1
102
RTVSPropertyOp20
 70
     1
102
RTVSPropertyOp21
 70
     1
102
RTVSPropertyOp22
 70
     1
102
RTVSPropertyOp23
 70
     1
102
RTVSPropertyOp24
 70
     1
102
RTVSPropertyOp25
 70
     1
102
RTVSPropertyOp26
 70
     1
102
RTVSPropertyOp27
 70
     1
102
RTVSPropertyOp28
 70
     1
102
RTVSPropertyOp29
 70
     1
102
RTVSPropertyOp30
 70
     1
102
RTVSPropertyOp31
 70
     1
102
RTVSPropertyOp32
 70
     1
102
RTVSPropertyOp33
 70
     1
102
RTVSPropertyOp34
 70
     1
102
RTVSPropertyOp35
 70
     1
102
RTVSPropertyOp36
 70
     1
102
RTVSPropertyOp37
 70
     1
102
RTVSPropertyOp38
 70
     1
102
RTVSPropertyOp39
 70
     1
102
RTVSPropertyOp40
 70
     1
102
RTVSPropertyOp41
 70
     1
102
RTVSPropertyOp42
 70
     1
102
RTVSPropertyOp43
 70
     1
102
RTVSPropertyOp44
 70
     1
102
RTVSPropertyOp45
 70
     1
102
RTVSPropertyOp46
 70
     1
102
RTVSPropertyOp47
 70
     1
102
RTVSPropertyOp48
 70
     1
102
RTVSPropertyOp49
 70
     1
102
RTVSPropertyOp50
 70
     1
102
RTVSPropertyOp51
 70
     0
102
RTVSPropertyOp52
 70
     0
102
RTVSPropertyOp53
 70
     1
102
RTVSPropertyOp54
 70
     1
102
RTVSPropertyOp55
 70
     1
102
RTVSPropertyOp56
 70
     1
102
RTVSPropertyOp57
 70
     1
102
RTVSPost2010Prop28
280
     1
102
RTVSPost2010PropOp28
 70
     1
102
RTVSPost2010Prop29
280
     1
102
RTVSPost2010PropOp29
 70
     1
102
RTVSPost2010Prop30
280
     0
102
RTVSPost2010PropOp30
 70
     1
102
RTVSPost2010Prop31
280
     0
102
RTVSPost2010PropOp31
 70
     1
102
RTVSPost2010Prop32
280
     0
102
RTVSPost2010PropOp32
 70
     1
102
RTVSPost2010Prop33
280
     0
102
RTVSPost2010PropOp33
 70
     1
102
RTVSPost2010Prop34
280
     0
102
RTVSPost2010PropOp34
 70
     1
102
RTVSPost2010Prop35
280
     0
102
RTVSPost2010PropOp35
 70
     1
102
RTVSPost2010Prop36
280
     0
102
RTVSPost2010PropOp36
 70
     1
102
RTVSPost2010Prop37
 90
       50
102
RTVSPost2010PropOp37
 70
     1
102
RTVSPost2010Prop38
140
0.0
102
RTVSPost2010PropOp38
 70
     1
102
RTVSPost2010Prop39
140
1.0
102
RTVSPost2010PropOp39
 70
     1
102
RTVSPost2010Prop40
 90
        0
102
RTVSPost2010PropOp40
 70
     1
102
RTVSPost2010Prop41ColorIndex
 90
       18
102
RTVSPost2010Prop41ColorRGB
 90
        0
102
RTVSPost2010PropOp41
 70
     1
102
RTVSPost2010Prop42
 90
       50
102
RTVSPost2010PropOp42
 70
     1
102
RTVSPost2010Prop43
 90
        3
102
RTVSPost2010PropOp43
 70
     1
102
RTVSPost2010Prop44ColorIndex
 90
        5
102
RTVSPost2010Prop44ColorRGB
 90
      255
102
RTVSPost2010PropOp44
 70
     1
102
RTVSPost2010Prop45
280
     0
102
RTVSPost2010PropOp45
 70
     1
102
RTVSPost2010Prop46
 90
       50
102
RTVSPost2010PropOp46
 70
     1
102
RTVSPost2010Prop47
 90
       50
102
RTVSPost2010PropOp47
 70
     1
102
RTVSPost2010Prop48
 90
       50
102
RTVSPost2010PropOp48
 70
     1
102
RTVSPost2010Prop49
280
     0
102
RTVSPost2010PropOp49
 70
     1
102
RTVSPost2010Prop50
 90
       50
102
RTVSPost2010PropOp50
 70
     1
102
RTVSPost2010Prop51ColorIndex
 90
      256
102
RTVSPost2010Prop51ColorRGB
 90
-16777216
102
RTVSPost2010PropOp51
 70
     0
102
RTVSPost2010Prop52
140
1.0
102
RTVSPost2010PropOp52
 70
     0
102
RTVSPost2010Prop53
 90
        2
102
RTVSPost2010PropOp53
 70
     1
102
RTVSPost2010Prop54
  1
strokes_ogs.tif
102
RTVSPost2010PropOp54
 70
     1
102
RTVSPost2010Prop55
280
     0
102
RTVSPost2010PropOp55
 70
     1
102
RTVSPost2010Prop56
140
1.0
102
RTVSPost2010PropOp56
 70
     1
102
RTVSPost2010Prop57
140
1.0
102
RTVSPost2010PropOp57
 70
     1
  0
XRECORD
  5
416
102
{ACAD_REACTORS
330
415
102
}
330
415
100
AcDbXrecord
280
     1
102
RTVSPropertyOp0
 70
     1
102
RTVSPropertyOp1
 70
     1
102
RTVSPropertyOp2
 70
     1
102
RTVSPropertyOp3
 70
     1
102
RTVSPropertyOp4
 70
     1
102
RTVSPropertyOp5
 70
     1
102
RTVSPropertyOp6
 70
     1
102
RTVSPropertyOp7
 70
     1
102
RTVSPropertyOp8
 70
     1
102
RTVSPropertyOp9
 70
     1
102
RTVSPropertyOp10
 70
     1
102
RTVSPropertyOp11
 70
     1
102
RTVSPropertyOp12
 70
     1
102
RTVSPropertyOp13
 70
     1
102
RTVSPropertyOp14
 70
     1
102
RTVSPropertyOp15
 70
     1
102
RTVSPropertyOp16
 70
     1
102
RTVSPropertyOp17
 70
     1
102
RTVSPropertyOp18
 70
     1
102
RTVSPropertyOp19
 70
     1
102
RTVSPropertyOp20
 70
     1
102
RTVSPropertyOp21
 70
     1
102
RTVSPropertyOp22
 70
     1
102
RTVSPropertyOp23
 70
     1
102
RTVSPropertyOp24
 70
     1
102
RTVSPropertyOp25
 70
     1
102
RTVSPropertyOp26
 70
     1
102
RTVSPropertyOp27
 70
     1
102
RTVSPropertyOp28
 70
     1
102
RTVSPropertyOp29
 70
     1
102
RTVSPropertyOp30
 70
     1
102
RTVSPropertyOp31
 70
     1
102
RTVSPropertyOp32
 70
     1
102
RTVSPropertyOp33
 70
     1
102
RTVSPropertyOp34
 70
     1
102
RTVSPropertyOp35
 70
     1
102
RTVSPropertyOp36
 70
     1
102
RTVSPropertyOp37
 70
     1
102
RTVSPropertyOp38
 70
     1
102
RTVSPropertyOp39
 70
     1
102
RTVSPropertyOp40
 70
     1
102
RTVSPropertyOp41
 70
     1
102
RTVSPropertyOp42
 70
     1
102
RTVSPropertyOp43
 70
     1
102
RTVSPropertyOp44
 70
     1
102
RTVSPropertyOp45
 70
     1
102
RTVSPropertyOp46
 70
     1
102
RTVSPropertyOp47
 70
     1
102
RTVSPropertyOp48
 70
     1
102
RTVSPropertyOp49
 70
     1
102
RTVSPropertyOp50
 70
     1
102
RTVSPropertyOp51
 70
     0
102
RTVSPropertyOp52
 70
     0
102
RTVSPropertyOp53
 70
     1
102
RTVSPropertyOp54
 70
     1
102
RTVSPropertyOp55
 70
     1
102
RTVSPropertyOp56
 70
     1
102
RTVSPropertyOp57
 70
     1
102
RTVSPost2010Prop28
280
     0
102
RTVSPost2010PropOp28
 70
     1
102
RTVSPost2010Prop29
280
     1
102
RTVSPost2010PropOp29
 70
     1
102
RTVSPost2010Prop30
280
     1
102
RTVSPost2010PropOp30
 70
     1
102
RTVSPost2010Prop31
280
     0
102
RTVSPost2010PropOp31
 70
     1
102
RTVSPost2010Prop32
280
     0
102
RTVSPost2010PropOp32
 70
     1
102
RTVSPost2010Prop33
280
     0
102
RTVSPost2010PropOp33
 70
     1
102
RTVSPost2010Prop34
280
     0
102
RTVSPost2010PropOp34
 70
     1
102
RTVSPost2010Prop35
280
     0
102
RTVSPost2010PropOp35
 70
     1
102
RTVSPost2010Prop36
280
     0
102
RTVSPost2010PropOp36
 70
     1
102
RTVSPost2010Prop37
 90
       50
102
RTVSPost2010PropOp37
 70
     1
102
RTVSPost2010Prop38
140
0.0
102
RTVSPost2010PropOp38
 70
     1
102
RTVSPost2010Prop39
140
1.0
102
RTVSPost2010PropOp39
 70
     1
102
RTVSPost2010Prop40
 90
        0
102
RTVSPost2010PropOp40
 70
     1
102
RTVSPost2010Prop41ColorIndex
 90
       18
102
RTVSPost2010Prop41ColorRGB
 90
        0
102
RTVSPost2010PropOp41
 70
     1
102
RTVSPost2010Prop42
 90
       50
102
RTVSPost2010PropOp42
 70
     1
102
RTVSPost2010Prop43
 90
        3
102
RTVSPost2010PropOp43
 70
     1
102
RTVSPost2010Prop44ColorIndex
 90
        5
102
RTVSPost2010Prop44ColorRGB
 90
      255
102
RTVSPost2010PropOp44
 70
     1
102
RTVSPost2010Prop45
280
     0
102
RTVSPost2010PropOp45
 70
     1
102
RTVSPost2010Prop46
 90
       50
102
RTVSPost2010PropOp46
 70
     1
102
RTVSPost2010Prop47
 90
       50
102
RTVSPost2010PropOp47
 70
     1
102
RTVSPost2010Prop48
 90
       50
102
RTVSPost2010PropOp48
 70
     1
102
RTVSPost2010Prop49
280
     0
102
RTVSPost2010PropOp49
 70
     1
102
RTVSPost2010Prop50
 90
       50
102
RTVSPost2010PropOp50
 70
     1
102
RTVSPost2010Prop51ColorIndex
 90
      256
102
RTVSPost2010Prop51ColorRGB
 90
-16777216
102
RTVSPost2010PropOp51
 70
     0
102
RTVSPost2010Prop52
140
1.0
102
RTVSPost2010PropOp52
 70
     0
102
RTVSPost2010Prop53
 90
        2
102
RTVSPost2010PropOp53
 70
     1
102
RTVSPost2010Prop54
  1
strokes_ogs.tif
102
RTVSPost2010PropOp54
 70
     1
102
RTVSPost2010Prop55
280
     0
102
RTVSPost2010PropOp55
 70
     1
102
RTVSPost2010Prop56
140
1.0
102
RTVSPost2010PropOp56
 70
     1
102
RTVSPost2010Prop57
140
1.0
102
RTVSPost2010PropOp57
 70
     1
  0
XRECORD
  5
41E
102
{ACAD_REACTORS
330
41D
102
}
330
41D
100
AcDbXrecord
280
     1
102
RTVSPropertyOp0
 70
     1
102
RTVSPropertyOp1
 70
     1
102
RTVSPropertyOp2
 70
     1
102
RTVSPropertyOp3
 70
     1
102
RTVSPropertyOp4
 70
     1
102
RTVSPropertyOp5
 70
     1
102
RTVSPropertyOp6
 70
     1
102
RTVSPropertyOp7
 70
     1
102
RTVSPropertyOp8
 70
     1
102
RTVSPropertyOp9
 70
     1
102
RTVSPropertyOp10
 70
     1
102
RTVSPropertyOp11
 70
     1
102
RTVSPropertyOp12
 70
     1
102
RTVSPropertyOp13
 70
     1
102
RTVSPropertyOp14
 70
     1
102
RTVSPropertyOp15
 70
     1
102
RTVSPropertyOp16
 70
     1
102
RTVSPropertyOp17
 70
     1
102
RTVSPropertyOp18
 70
     1
102
RTVSPropertyOp19
 70
     1
102
RTVSPropertyOp20
 70
     1
102
RTVSPropertyOp21
 70
     1
102
RTVSPropertyOp22
 70
     1
102
RTVSPropertyOp23
 70
     1
102
RTVSPropertyOp24
 70
     1
102
RTVSPropertyOp25
 70
     1
102
RTVSPropertyOp26
 70
     1
102
RTVSPropertyOp27
 70
     1
102
RTVSPropertyOp28
 70
     1
102
RTVSPropertyOp29
 70
     1
102
RTVSPropertyOp30
 70
     1
102
RTVSPropertyOp31
 70
     1
102
RTVSPropertyOp32
 70
     1
102
RTVSPropertyOp33
 70
     1
102
RTVSPropertyOp34
 70
     1
102
RTVSPropertyOp35
 70
     1
102
RTVSPropertyOp36
 70
     1
102
RTVSPropertyOp37
 70
     1
102
RTVSPropertyOp38
 70
     1
102
RTVSPropertyOp39
 70
     1
102
RTVSPropertyOp40
 70
     1
102
RTVSPropertyOp41
 70
     1
102
RTVSPropertyOp42
 70
     1
102
RTVSPropertyOp43
 70
     1
102
RTVSPropertyOp44
 70
     1
102
RTVSPropertyOp45
 70
     1
102
RTVSPropertyOp46
 70
     1
102
RTVSPropertyOp47
 70
     1
102
RTVSPropertyOp48
 70
     1
102
RTVSPropertyOp49
 70
     1
102
RTVSPropertyOp50
 70
     1
102
RTVSPropertyOp51
 70
     0
102
RTVSPropertyOp52
 70
     0
102
RTVSPropertyOp53
 70
     1
102
RTVSPropertyOp54
 70
     1
102
RTVSPropertyOp55
 70
     1
102
RTVSPropertyOp56
 70
     1
102
RTVSPropertyOp57
 70
     1
102
RTVSPost2010Prop28
280
     0
102
RTVSPost2010PropOp28
 70
     1
102
RTVSPost2010Prop29
280
     1
102
RTVSPost2010PropOp29
 70
     1
102
RTVSPost2010Prop30
280
     1
102
RTVSPost2010PropOp30
 70
     1
102
RTVSPost2010Prop31
280
     0
102
RTVSPost2010PropOp31
 70
     1
102
RTVSPost2010Prop32
280
     0
102
RTVSPost2010PropOp32
 70
     1
102
RTVSPost2010Prop33
280
     0
102
RTVSPost2010PropOp33
 70
     1
102
RTVSPost2010Prop34
280
     0
102
RTVSPost2010PropOp34
 70
     1
102
RTVSPost2010Prop35
280
     0
102
RTVSPost2010PropOp35
 70
     1
102
RTVSPost2010Prop36
280
     0
102
RTVSPost2010PropOp36
 70
     1
102
RTVSPost2010Prop37
 90
       50
102
RTVSPost2010PropOp37
 70
     1
102
RTVSPost2010Prop38
140
0.0
102
RTVSPost2010PropOp38
 70
     1
102
RTVSPost2010Prop39
140
1.0
102
RTVSPost2010PropOp39
 70
     1
102
RTVSPost2010Prop40
 90
        0
102
RTVSPost2010PropOp40
 70
     1
102
RTVSPost2010Prop41ColorIndex
 90
       18
102
RTVSPost2010Prop41ColorRGB
 90
        0
102
RTVSPost2010PropOp41
 70
     1
102
RTVSPost2010Prop42
 90
       50
102
RTVSPost2010PropOp42
 70
     1
102
RTVSPost2010Prop43
 90
        3
102
RTVSPost2010PropOp43
 70
     1
102
RTVSPost2010Prop44ColorIndex
 90
        5
102
RTVSPost2010Prop44ColorRGB
 90
      255
102
RTVSPost2010PropOp44
 70
     1
102
RTVSPost2010Prop45
280
     0
102
RTVSPost2010PropOp45
 70
     1
102
RTVSPost2010Prop46
 90
       50
102
RTVSPost2010PropOp46
 70
     1
102
RTVSPost2010Prop47
 90
       50
102
RTVSPost2010PropOp47
 70
     1
102
RTVSPost2010Prop48
 90
       50
102
RTVSPost2010PropOp48
 70
     1
102
RTVSPost2010Prop49
280
     0
102
RTVSPost2010PropOp49
 70
     1
102
RTVSPost2010Prop50
 90
       50
102
RTVSPost2010PropOp50
 70
     1
102
RTVSPost2010Prop51ColorIndex
 90
      256
102
RTVSPost2010Prop51ColorRGB
 90
-16777216
102
RTVSPost2010PropOp51
 70
     0
102
RTVSPost2010Prop52
140
1.0
102
RTVSPost2010PropOp52
 70
     0
102
RTVSPost2010Prop53
 90
        2
102
RTVSPost2010PropOp53
 70
     1
102
RTVSPost2010Prop54
  1
strokes_ogs.tif
102
RTVSPost2010PropOp54
 70
     1
102
RTVSPost2010Prop55
280
     0
102
RTVSPost2010PropOp55
 70
     1
102
RTVSPost2010Prop56
140
1.0
102
RTVSPost2010PropOp56
 70
     1
102
RTVSPost2010Prop57
140
1.0
102
RTVSPost2010PropOp57
 70
     1
  0
XRECORD
  5
426
102
{ACAD_REACTORS
330
425
102
}
330
425
100
AcDbXrecord
280
     1
102
RTVSPropertyOp0
 70
     1
102
RTVSPropertyOp1
 70
     1
102
RTVSPropertyOp2
 70
     1
102
RTVSPropertyOp3
 70
     1
102
RTVSPropertyOp4
 70
     1
102
RTVSPropertyOp5
 70
     1
102
RTVSPropertyOp6
 70
     1
102
RTVSPropertyOp7
 70
     1
102
RTVSPropertyOp8
 70
     1
102
RTVSPropertyOp9
 70
     1
102
RTVSPropertyOp10
 70
     1
102
RTVSPropertyOp11
 70
     1
102
RTVSPropertyOp12
 70
     1
102
RTVSPropertyOp13
 70
     1
102
RTVSPropertyOp14
 70
     1
102
RTVSPropertyOp15
 70
     1
102
RTVSPropertyOp16
 70
     1
102
RTVSPropertyOp17
 70
     1
102
RTVSPropertyOp18
 70
     1
102
RTVSPropertyOp19
 70
     1
102
RTVSPropertyOp20
 70
     1
102
RTVSPropertyOp21
 70
     1
102
RTVSPropertyOp22
 70
     1
102
RTVSPropertyOp23
 70
     1
102
RTVSPropertyOp24
 70
     1
102
RTVSPropertyOp25
 70
     1
102
RTVSPropertyOp26
 70
     1
102
RTVSPropertyOp27
 70
     1
102
RTVSPropertyOp28
 70
     1
102
RTVSPropertyOp29
 70
     1
102
RTVSPropertyOp30
 70
     1
102
RTVSPropertyOp31
 70
     1
102
RTVSPropertyOp32
 70
     1
102
RTVSPropertyOp33
 70
     1
102
RTVSPropertyOp34
 70
     1
102
RTVSPropertyOp35
 70
     1
102
RTVSPropertyOp36
 70
     1
102
RTVSPropertyOp37
 70
     1
102
RTVSPropertyOp38
 70
     1
102
RTVSPropertyOp39
 70
     1
102
RTVSPropertyOp40
 70
     1
102
RTVSPropertyOp41
 70
     1
102
RTVSPropertyOp42
 70
     1
102
RTVSPropertyOp43
 70
     1
102
RTVSPropertyOp44
 70
     1
102
RTVSPropertyOp45
 70
     1
102
RTVSPropertyOp46
 70
     1
102
RTVSPropertyOp47
 70
     1
102
RTVSPropertyOp48
 70
     1
102
RTVSPropertyOp49
 70
     1
102
RTVSPropertyOp50
 70
     1
102
RTVSPropertyOp51
 70
     0
102
RTVSPropertyOp52
 70
     0
102
RTVSPropertyOp53
 70
     1
102
RTVSPropertyOp54
 70
     1
102
RTVSPropertyOp55
 70
     1
102
RTVSPropertyOp56
 70
     1
102
RTVSPropertyOp57
 70
     1
102
RTVSPost2010Prop28
280
     0
102
RTVSPost2010PropOp28
 70
     1
102
RTVSPost2010Prop29
280
     1
102
RTVSPost2010PropOp29
 70
     1
102
RTVSPost2010Prop30
280
     1
102
RTVSPost2010PropOp30
 70
     1
102
RTVSPost2010Prop31
280
     0
102
RTVSPost2010PropOp31
 70
     1
102
RTVSPost2010Prop32
280
     0
102
RTVSPost2010PropOp32
 70
     1
102
RTVSPost2010Prop33
280
     0
102
RTVSPost2010PropOp33
 70
     1
102
RTVSPost2010Prop34
280
     0
102
RTVSPost2010PropOp34
 70
     1
102
RTVSPost2010Prop35
280
     0
102
RTVSPost2010PropOp35
 70
     1
102
RTVSPost2010Prop36
280
     0
102
RTVSPost2010PropOp36
 70
     1
102
RTVSPost2010Prop37
 90
       50
102
RTVSPost2010PropOp37
 70
     1
102
RTVSPost2010Prop38
140
0.0
102
RTVSPost2010PropOp38
 70
     1
102
RTVSPost2010Prop39
140
1.0
102
RTVSPost2010PropOp39
 70
     1
102
RTVSPost2010Prop40
 90
        0
102
RTVSPost2010PropOp40
 70
     1
102
RTVSPost2010Prop41ColorIndex
 90
       18
102
RTVSPost2010Prop41ColorRGB
 90
        0
102
RTVSPost2010PropOp41
 70
     1
102
RTVSPost2010Prop42
 90
       50
102
RTVSPost2010PropOp42
 70
     1
102
RTVSPost2010Prop43
 90
        3
102
RTVSPost2010PropOp43
 70
     1
102
RTVSPost2010Prop44ColorIndex
 90
        5
102
RTVSPost2010Prop44ColorRGB
 90
      255
102
RTVSPost2010PropOp44
 70
     1
102
RTVSPost2010Prop45
280
     0
102
RTVSPost2010PropOp45
 70
     1
102
RTVSPost2010Prop46
 90
       50
102
RTVSPost2010PropOp46
 70
     1
102
RTVSPost2010Prop47
 90
       50
102
RTVSPost2010PropOp47
 70
     1
102
RTVSPost2010Prop48
 90
       50
102
RTVSPost2010PropOp48
 70
     1
102
RTVSPost2010Prop49
280
     0
102
RTVSPost2010PropOp49
 70
     1
102
RTVSPost2010Prop50
 90
       50
102
RTVSPost2010PropOp50
 70
     1
102
RTVSPost2010Prop51ColorIndex
 90
      256
102
RTVSPost2010Prop51ColorRGB
 90
-16777216
102
RTVSPost2010PropOp51
 70
     0
102
RTVSPost2010Prop52
140
1.0
102
RTVSPost2010PropOp52
 70
     0
102
RTVSPost2010Prop53
 90
        2
102
RTVSPost2010PropOp53
 70
     1
102
RTVSPost2010Prop54
  1
strokes_ogs.tif
102
RTVSPost2010PropOp54
 70
     1
102
RTVSPost2010Prop55
280
     0
102
RTVSPost2010PropOp55
 70
     1
102
RTVSPost2010Prop56
140
1.0
102
RTVSPost2010PropOp56
 70
     1
102
RTVSPost2010Prop57
140
1.0
102
RTVSPost2010PropOp57
 70
     1
  0
XRECORD
  5
41A
102
{ACAD_REACTORS
330
419
102
}
330
419
100
AcDbXrecord
280
     1
102
RTVSPropertyOp0
 70
     1
102
RTVSPropertyOp1
 70
     1
102
RTVSPropertyOp2
 70
     1
102
RTVSPropertyOp3
 70
     1
102
RTVSPropertyOp4
 70
     1
102
RTVSPropertyOp5
 70
     1
102
RTVSPropertyOp6
 70
     1
102
RTVSPropertyOp7
 70
     1
102
RTVSPropertyOp8
 70
     1
102
RTVSPropertyOp9
 70
     1
102
RTVSPropertyOp10
 70
     1
102
RTVSPropertyOp11
 70
     1
102
RTVSPropertyOp12
 70
     1
102
RTVSPropertyOp13
 70
     1
102
RTVSPropertyOp14
 70
     1
102
RTVSPropertyOp15
 70
     1
102
RTVSPropertyOp16
 70
     1
102
RTVSPropertyOp17
 70
     1
102
RTVSPropertyOp18
 70
     1
102
RTVSPropertyOp19
 70
     1
102
RTVSPropertyOp20
 70
     1
102
RTVSPropertyOp21
 70
     1
102
RTVSPropertyOp22
 70
     1
102
RTVSPropertyOp23
 70
     1
102
RTVSPropertyOp24
 70
     1
102
RTVSPropertyOp25
 70
     1
102
RTVSPropertyOp26
 70
     1
102
RTVSPropertyOp27
 70
     1
102
RTVSPropertyOp28
 70
     1
102
RTVSPropertyOp29
 70
     1
102
RTVSPropertyOp30
 70
     1
102
RTVSPropertyOp31
 70
     1
102
RTVSPropertyOp32
 70
     1
102
RTVSPropertyOp33
 70
     1
102
RTVSPropertyOp34
 70
     1
102
RTVSPropertyOp35
 70
     1
102
RTVSPropertyOp36
 70
     1
102
RTVSPropertyOp37
 70
     1
102
RTVSPropertyOp38
 70
     1
102
RTVSPropertyOp39
 70
     1
102
RTVSPropertyOp40
 70
     1
102
RTVSPropertyOp41
 70
     1
102
RTVSPropertyOp42
 70
     1
102
RTVSPropertyOp43
 70
     1
102
RTVSPropertyOp44
 70
     1
102
RTVSPropertyOp45
 70
     1
102
RTVSPropertyOp46
 70
     1
102
RTVSPropertyOp47
 70
     1
102
RTVSPropertyOp48
 70
     1
102
RTVSPropertyOp49
 70
     1
102
RTVSPropertyOp50
 70
     1
102
RTVSPropertyOp51
 70
     0
102
RTVSPropertyOp52
 70
     0
102
RTVSPropertyOp53
 70
     1
102
RTVSPropertyOp54
 70
     1
102
RTVSPropertyOp55
 70
     1
102
RTVSPropertyOp56
 70
     1
102
RTVSPropertyOp57
 70
     1
102
RTVSPost2010Prop28
280
     0
102
RTVSPost2010PropOp28
 70
     1
102
RTVSPost2010Prop29
280
     1
102
RTVSPost2010PropOp29
 70
     1
102
RTVSPost2010Prop30
280
     1
102
RTVSPost2010PropOp30
 70
     1
102
RTVSPost2010Prop31
280
     0
102
RTVSPost2010PropOp31
 70
     1
102
RTVSPost2010Prop32
280
     0
102
RTVSPost2010PropOp32
 70
     1
102
RTVSPost2010Prop33
280
     0
102
RTVSPost2010PropOp33
 70
     1
102
RTVSPost2010Prop34
280
     0
102
RTVSPost2010PropOp34
 70
     1
102
RTVSPost2010Prop35
280
     0
102
RTVSPost2010PropOp35
 70
     1
102
RTVSPost2010Prop36
280
     0
102
RTVSPost2010PropOp36
 70
     1
102
RTVSPost2010Prop37
 90
       50
102
RTVSPost2010PropOp37
 70
     1
102
RTVSPost2010Prop38
140
0.0
102
RTVSPost2010PropOp38
 70
     1
102
RTVSPost2010Prop39
140
1.0
102
RTVSPost2010PropOp39
 70
     1
102
RTVSPost2010Prop40
 90
        0
102
RTVSPost2010PropOp40
 70
     1
102
RTVSPost2010Prop41ColorIndex
 90
       18
102
RTVSPost2010Prop41ColorRGB
 90
        0
102
RTVSPost2010PropOp41
 70
     1
102
RTVSPost2010Prop42
 90
       50
102
RTVSPost2010PropOp42
 70
     1
102
RTVSPost2010Prop43
 90
        3
102
RTVSPost2010PropOp43
 70
     1
102
RTVSPost2010Prop44ColorIndex
 90
        5
102
RTVSPost2010Prop44ColorRGB
 90
      255
102
RTVSPost2010PropOp44
 70
     1
102
RTVSPost2010Prop45
280
     0
102
RTVSPost2010PropOp45
 70
     1
102
RTVSPost2010Prop46
 90
       50
102
RTVSPost2010PropOp46
 70
     1
102
RTVSPost2010Prop47
 90
       50
102
RTVSPost2010PropOp47
 70
     1
102
RTVSPost2010Prop48
 90
       50
102
RTVSPost2010PropOp48
 70
     1
102
RTVSPost2010Prop49
280
     0
102
RTVSPost2010PropOp49
 70
     1
102
RTVSPost2010Prop50
 90
       50
102
RTVSPost2010PropOp50
 70
     1
102
RTVSPost2010Prop51ColorIndex
 90
      256
102
RTVSPost2010Prop51ColorRGB
 90
-16777216
102
RTVSPost2010PropOp51
 70
     0
102
RTVSPost2010Prop52
140
1.0
102
RTVSPost2010PropOp52
 70
     0
102
RTVSPost2010Prop53
 90
        2
102
RTVSPost2010PropOp53
 70
     1
102
RTVSPost2010Prop54
  1
strokes_ogs.tif
102
RTVSPost2010PropOp54
 70
     1
102
RTVSPost2010Prop55
280
     0
102
RTVSPost2010PropOp55
 70
     1
102
RTVSPost2010Prop56
140
1.0
102
RTVSPost2010PropOp56
 70
     1
102
RTVSPost2010Prop57
140
1.0
102
RTVSPost2010PropOp57
 70
     1
  0
XRECORD
  5
41C
102
{ACAD_REACTORS
330
41B
102
}
330
41B
100
AcDbXrecord
280
     1
102
RTVSPropertyOp0
 70
     1
102
RTVSPropertyOp1
 70
     1
102
RTVSPropertyOp2
 70
     1
102
RTVSPropertyOp3
 70
     1
102
RTVSPropertyOp4
 70
     1
102
RTVSPropertyOp5
 70
     1
102
RTVSPropertyOp6
 70
     1
102
RTVSPropertyOp7
 70
     1
102
RTVSPropertyOp8
 70
     1
102
RTVSPropertyOp9
 70
     1
102
RTVSPropertyOp10
 70
     1
102
RTVSPropertyOp11
 70
     1
102
RTVSPropertyOp12
 70
     1
102
RTVSPropertyOp13
 70
     1
102
RTVSPropertyOp14
 70
     1
102
RTVSPropertyOp15
 70
     1
102
RTVSPropertyOp16
 70
     1
102
RTVSPropertyOp17
 70
     1
102
RTVSPropertyOp18
 70
     1
102
RTVSPropertyOp19
 70
     1
102
RTVSPropertyOp20
 70
     1
102
RTVSPropertyOp21
 70
     1
102
RTVSPropertyOp22
 70
     1
102
RTVSPropertyOp23
 70
     1
102
RTVSPropertyOp24
 70
     1
102
RTVSPropertyOp25
 70
     1
102
RTVSPropertyOp26
 70
     1
102
RTVSPropertyOp27
 70
     1
102
RTVSPropertyOp28
 70
     1
102
RTVSPropertyOp29
 70
     1
102
RTVSPropertyOp30
 70
     1
102
RTVSPropertyOp31
 70
     1
102
RTVSPropertyOp32
 70
     1
102
RTVSPropertyOp33
 70
     1
102
RTVSPropertyOp34
 70
     1
102
RTVSPropertyOp35
 70
     1
102
RTVSPropertyOp36
 70
     1
102
RTVSPropertyOp37
 70
     1
102
RTVSPropertyOp38
 70
     1
102
RTVSPropertyOp39
 70
     1
102
RTVSPropertyOp40
 70
     1
102
RTVSPropertyOp41
 70
     1
102
RTVSPropertyOp42
 70
     1
102
RTVSPropertyOp43
 70
     1
102
RTVSPropertyOp44
 70
     1
102
RTVSPropertyOp45
 70
     1
102
RTVSPropertyOp46
 70
     1
102
RTVSPropertyOp47
 70
     1
102
RTVSPropertyOp48
 70
     1
102
RTVSPropertyOp49
 70
     1
102
RTVSPropertyOp50
 70
     1
102
RTVSPropertyOp51
 70
     0
102
RTVSPropertyOp52
 70
     0
102
RTVSPropertyOp53
 70
     1
102
RTVSPropertyOp54
 70
     1
102
RTVSPropertyOp55
 70
     1
102
RTVSPropertyOp56
 70
     1
102
RTVSPropertyOp57
 70
     1
102
RTVSPost2010Prop28
280
     0
102
RTVSPost2010PropOp28
 70
     1
102
RTVSPost2010Prop29
280
     1
102
RTVSPost2010PropOp29
 70
     1
102
RTVSPost2010Prop30
280
     1
102
RTVSPost2010PropOp30
 70
     1
102
RTVSPost2010Prop31
280
     0
102
RTVSPost2010PropOp31
 70
     1
102
RTVSPost2010Prop32
280
     0
102
RTVSPost2010PropOp32
 70
     1
102
RTVSPost2010Prop33
280
     0
102
RTVSPost2010PropOp33
 70
     1
102
RTVSPost2010Prop34
280
     0
102
RTVSPost2010PropOp34
 70
     1
102
RTVSPost2010Prop35
280
     0
102
RTVSPost2010PropOp35
 70
     1
102
RTVSPost2010Prop36
280
     0
102
RTVSPost2010PropOp36
 70
     1
102
RTVSPost2010Prop37
 90
       50
102
RTVSPost2010PropOp37
 70
     1
102
RTVSPost2010Prop38
140
0.0
102
RTVSPost2010PropOp38
 70
     1
102
RTVSPost2010Prop39
140
1.0
102
RTVSPost2010PropOp39
 70
     1
102
RTVSPost2010Prop40
 90
        0
102
RTVSPost2010PropOp40
 70
     1
102
RTVSPost2010Prop41ColorIndex
 90
       18
102
RTVSPost2010Prop41ColorRGB
 90
        0
102
RTVSPost2010PropOp41
 70
     1
102
RTVSPost2010Prop42
 90
       50
102
RTVSPost2010PropOp42
 70
     1
102
RTVSPost2010Prop43
 90
        3
102
RTVSPost2010PropOp43
 70
     1
102
RTVSPost2010Prop44ColorIndex
 90
        5
102
RTVSPost2010Prop44ColorRGB
 90
      255
102
RTVSPost2010PropOp44
 70
     1
102
RTVSPost2010Prop45
280
     0
102
RTVSPost2010PropOp45
 70
     1
102
RTVSPost2010Prop46
 90
       50
102
RTVSPost2010PropOp46
 70
     1
102
RTVSPost2010Prop47
 90
       50
102
RTVSPost2010PropOp47
 70
     1
102
RTVSPost2010Prop48
 90
       50
102
RTVSPost2010PropOp48
 70
     1
102
RTVSPost2010Prop49
280
     0
102
RTVSPost2010PropOp49
 70
     1
102
RTVSPost2010Prop50
 90
       50
102
RTVSPost2010PropOp50
 70
     1
102
RTVSPost2010Prop51ColorIndex
 90
      256
102
RTVSPost2010Prop51ColorRGB
 90
-16777216
102
RTVSPost2010PropOp51
 70
     0
102
RTVSPost2010Prop52
140
1.0
102
RTVSPost2010PropOp52
 70
     0
102
RTVSPost2010Prop53
 90
        2
102
RTVSPost2010PropOp53
 70
     1
102
RTVSPost2010Prop54
  1
strokes_ogs.tif
102
RTVSPost2010PropOp54
 70
     1
102
RTVSPost2010Prop55
280
     0
102
RTVSPost2010PropOp55
 70
     1
102
RTVSPost2010Prop56
140
1.0
102
RTVSPost2010PropOp56
 70
     1
102
RTVSPost2010Prop57
140
1.0
102
RTVSPost2010PropOp57
 70
     1
  0
XRECORD
  5
42C
102
{ACAD_REACTORS
330
42B
102
}
330
42B
100
AcDbXrecord
280
     1
102
RTVSPropertyOp0
 70
     0
102
RTVSPropertyOp1
 70
     0
102
RTVSPropertyOp2
 70
     0
102
RTVSPropertyOp3
 70
     0
102
RTVSPropertyOp4
 70
     0
102
RTVSPropertyOp5
 70
     0
102
RTVSPropertyOp6
 70
     0
102
RTVSPropertyOp7
 70
     0
102
RTVSPropertyOp8
 70
     0
102
RTVSPropertyOp9
 70
     0
102
RTVSPropertyOp10
 70
     0
102
RTVSPropertyOp11
 70
     0
102
RTVSPropertyOp12
 70
     0
102
RTVSPropertyOp13
 70
     0
102
RTVSPropertyOp14
 70
     2
102
RTVSPropertyOp15
 70
     0
102
RTVSPropertyOp16
 70
     0
102
RTVSPropertyOp17
 70
     0
102
RTVSPropertyOp18
 70
     0
102
RTVSPropertyOp19
 70
     0
102
RTVSPropertyOp20
 70
     0
102
RTVSPropertyOp21
 70
     0
102
RTVSPropertyOp22
 70
     0
102
RTVSPropertyOp23
 70
     0
102
RTVSPropertyOp24
 70
     0
102
RTVSPropertyOp25
 70
     0
102
RTVSPropertyOp26
 70
     0
102
RTVSPropertyOp27
 70
     0
102
RTVSPropertyOp28
 70
     0
102
RTVSPropertyOp29
 70
     0
102
RTVSPropertyOp30
 70
     0
102
RTVSPropertyOp31
 70
     0
102
RTVSPropertyOp32
 70
     0
102
RTVSPropertyOp33
 70
     0
102
RTVSPropertyOp34
 70
     0
102
RTVSPropertyOp35
 70
     0
102
RTVSPropertyOp36
 70
     0
102
RTVSPropertyOp37
 70
     0
102
RTVSPropertyOp38
 70
     0
102
RTVSPropertyOp39
 70
     0
102
RTVSPropertyOp40
 70
     0
102
RTVSPropertyOp41
 70
     0
102
RTVSPropertyOp42
 70
     0
102
RTVSPropertyOp43
 70
     0
102
RTVSPropertyOp44
 70
     0
102
RTVSPropertyOp45
 70
     0
102
RTVSPropertyOp46
 70
     0
102
RTVSPropertyOp47
 70
     0
102
RTVSPropertyOp48
 70
     0
102
RTVSPropertyOp49
 70
     0
102
RTVSPropertyOp50
 70
     0
102
RTVSPropertyOp51
 70
     0
102
RTVSPropertyOp52
 70
     0
102
RTVSPropertyOp53
 70
     0
102
RTVSPropertyOp54
 70
     0
102
RTVSPropertyOp55
 70
     0
102
RTVSPropertyOp56
 70
     0
102
RTVSPropertyOp57
 70
     0
102
RTVSPost2010Prop28
280
     0
102
RTVSPost2010PropOp28
 70
     0
102
RTVSPost2010Prop29
280
     1
102
RTVSPost2010PropOp29
 70
     0
102
RTVSPost2010Prop30
280
     1
102
RTVSPost2010PropOp30
 70
     0
102
RTVSPost2010Prop31
280
     0
102
RTVSPost2010PropOp31
 70
     0
102
RTVSPost2010Prop32
280
     0
102
RTVSPost2010PropOp32
 70
     0
102
RTVSPost2010Prop33
280
     0
102
RTVSPost2010PropOp33
 70
     0
102
RTVSPost2010Prop34
280
     0
102
RTVSPost2010PropOp34
 70
     0
102
RTVSPost2010Prop35
280
     0
102
RTVSPost2010PropOp35
 70
     0
102
RTVSPost2010Prop36
280
     0
102
RTVSPost2010PropOp36
 70
     0
102
RTVSPost2010Prop37
 90
       50
102
RTVSPost2010PropOp37
 70
     0
102
RTVSPost2010Prop38
140
0.0
102
RTVSPost2010PropOp38
 70
     0
102
RTVSPost2010Prop39
140
1.0
102
RTVSPost2010PropOp39
 70
     0
102
RTVSPost2010Prop40
 90
        0
102
RTVSPost2010PropOp40
 70
     0
102
RTVSPost2010Prop41ColorIndex
 90
       18
102
RTVSPost2010Prop41ColorRGB
 90
        0
102
RTVSPost2010PropOp41
 70
     0
102
RTVSPost2010Prop42
 90
       50
102
RTVSPost2010PropOp42
 70
     0
102
RTVSPost2010Prop43
 90
        3
102
RTVSPost2010PropOp43
 70
     0
102
RTVSPost2010Prop44ColorIndex
 90
        5
102
RTVSPost2010Prop44ColorRGB
 90
      255
102
RTVSPost2010PropOp44
 70
     0
102
RTVSPost2010Prop45
280
     0
102
RTVSPost2010PropOp45
 70
     0
102
RTVSPost2010Prop46
 90
       50
102
RTVSPost2010PropOp46
 70
     0
102
RTVSPost2010Prop47
 90
       50
102
RTVSPost2010PropOp47
 70
     0
102
RTVSPost2010Prop48
 90
       50
102
RTVSPost2010PropOp48
 70
     0
102
RTVSPost2010Prop49
280
     0
102
RTVSPost2010PropOp49
 70
     0
102
RTVSPost2010Prop50
 90
       50
102
RTVSPost2010PropOp50
 70
     0
102
RTVSPost2010Prop51ColorIndex
 90
      256
102
RTVSPost2010Prop51ColorRGB
 90
-16777216
102
RTVSPost2010PropOp51
 70
     0
102
RTVSPost2010Prop52
140
1.0
102
RTVSPost2010PropOp52
 70
     0
102
RTVSPost2010Prop53
 90
        2
102
RTVSPost2010PropOp53
 70
     0
102
RTVSPost2010Prop54
  1
strokes_ogs.tif
102
RTVSPost2010PropOp54
 70
     0
102
RTVSPost2010Prop55
280
     0
102
RTVSPost2010PropOp55
 70
     0
102
RTVSPost2010Prop56
140
1.0
102
RTVSPost2010PropOp56
 70
     0
102
RTVSPost2010Prop57
140
1.0
102
RTVSPost2010PropOp57
 70
     0
  0
XRECORD
  5
424
102
{ACAD_REACTORS
330
423
102
}
330
423
100
AcDbXrecord
280
     1
102
RTVSPropertyOp0
 70
     1
102
RTVSPropertyOp1
 70
     1
102
RTVSPropertyOp2
 70
     1
102
RTVSPropertyOp3
 70
     1
102
RTVSPropertyOp4
 70
     1
102
RTVSPropertyOp5
 70
     1
102
RTVSPropertyOp6
 70
     1
102
RTVSPropertyOp7
 70
     1
102
RTVSPropertyOp8
 70
     1
102
RTVSPropertyOp9
 70
     1
102
RTVSPropertyOp10
 70
     1
102
RTVSPropertyOp11
 70
     1
102
RTVSPropertyOp12
 70
     1
102
RTVSPropertyOp13
 70
     1
102
RTVSPropertyOp14
 70
     1
102
RTVSPropertyOp15
 70
     1
102
RTVSPropertyOp16
 70
     1
102
RTVSPropertyOp17
 70
     1
102
RTVSPropertyOp18
 70
     1
102
RTVSPropertyOp19
 70
     1
102
RTVSPropertyOp20
 70
     1
102
RTVSPropertyOp21
 70
     1
102
RTVSPropertyOp22
 70
     1
102
RTVSPropertyOp23
 70
     1
102
RTVSPropertyOp24
 70
     1
102
RTVSPropertyOp25
 70
     1
102
RTVSPropertyOp26
 70
     1
102
RTVSPropertyOp27
 70
     1
102
RTVSPropertyOp28
 70
     1
102
RTVSPropertyOp29
 70
     1
102
RTVSPropertyOp30
 70
     1
102
RTVSPropertyOp31
 70
     1
102
RTVSPropertyOp32
 70
     1
102
RTVSPropertyOp33
 70
     1
102
RTVSPropertyOp34
 70
     1
102
RTVSPropertyOp35
 70
     1
102
RTVSPropertyOp36
 70
     1
102
RTVSPropertyOp37
 70
     1
102
RTVSPropertyOp38
 70
     1
102
RTVSPropertyOp39
 70
     1
102
RTVSPropertyOp40
 70
     1
102
RTVSPropertyOp41
 70
     1
102
RTVSPropertyOp42
 70
     1
102
RTVSPropertyOp43
 70
     1
102
RTVSPropertyOp44
 70
     1
102
RTVSPropertyOp45
 70
     1
102
RTVSPropertyOp46
 70
     1
102
RTVSPropertyOp47
 70
     1
102
RTVSPropertyOp48
 70
     1
102
RTVSPropertyOp49
 70
     1
102
RTVSPropertyOp50
 70
     1
102
RTVSPropertyOp51
 70
     0
102
RTVSPropertyOp52
 70
     0
102
RTVSPropertyOp53
 70
     1
102
RTVSPropertyOp54
 70
     1
102
RTVSPropertyOp55
 70
     1
102
RTVSPropertyOp56
 70
     1
102
RTVSPropertyOp57
 70
     1
102
RTVSPost2010Prop28
280
     0
102
RTVSPost2010PropOp28
 70
     1
102
RTVSPost2010Prop29
280
     1
102
RTVSPost2010PropOp29
 70
     1
102
RTVSPost2010Prop30
280
     1
102
RTVSPost2010PropOp30
 70
     1
102
RTVSPost2010Prop31
280
     0
102
RTVSPost2010PropOp31
 70
     1
102
RTVSPost2010Prop32
280
     0
102
RTVSPost2010PropOp32
 70
     1
102
RTVSPost2010Prop33
280
     0
102
RTVSPost2010PropOp33
 70
     1
102
RTVSPost2010Prop34
280
     0
102
RTVSPost2010PropOp34
 70
     1
102
RTVSPost2010Prop35
280
     0
102
RTVSPost2010PropOp35
 70
     1
102
RTVSPost2010Prop36
280
     0
102
RTVSPost2010PropOp36
 70
     1
102
RTVSPost2010Prop37
 90
       50
102
RTVSPost2010PropOp37
 70
     1
102
RTVSPost2010Prop38
140
0.0
102
RTVSPost2010PropOp38
 70
     1
102
RTVSPost2010Prop39
140
1.0
102
RTVSPost2010PropOp39
 70
     1
102
RTVSPost2010Prop40
 90
        0
102
RTVSPost2010PropOp40
 70
     1
102
RTVSPost2010Prop41ColorIndex
 90
       18
102
RTVSPost2010Prop41ColorRGB
 90
        0
102
RTVSPost2010PropOp41
 70
     1
102
RTVSPost2010Prop42
 90
       50
102
RTVSPost2010PropOp42
 70
     1
102
RTVSPost2010Prop43
 90
        3
102
RTVSPost2010PropOp43
 70
     1
102
RTVSPost2010Prop44ColorIndex
 90
        5
102
RTVSPost2010Prop44ColorRGB
 90
      255
102
RTVSPost2010PropOp44
 70
     1
102
RTVSPost2010Prop45
280
     0
102
RTVSPost2010PropOp45
 70
     1
102
RTVSPost2010Prop46
 90
       50
102
RTVSPost2010PropOp46
 70
     1
102
RTVSPost2010Prop47
 90
       50
102
RTVSPost2010PropOp47
 70
     1
102
RTVSPost2010Prop48
 90
       50
102
RTVSPost2010PropOp48
 70
     1
102
RTVSPost2010Prop49
280
     0
102
RTVSPost2010PropOp49
 70
     1
102
RTVSPost2010Prop50
 90
       50
102
RTVSPost2010PropOp50
 70
     1
102
RTVSPost2010Prop51ColorIndex
 90
      256
102
RTVSPost2010Prop51ColorRGB
 90
-16777216
102
RTVSPost2010PropOp51
 70
     0
102
RTVSPost2010Prop52
140
1.0
102
RTVSPost2010PropOp52
 70
     0
102
RTVSPost2010Prop53
 90
        2
102
RTVSPost2010PropOp53
 70
     1
102
RTVSPost2010Prop54
  1
strokes_ogs.tif
102
RTVSPost2010PropOp54
 70
     1
102
RTVSPost2010Prop55
280
     0
102
RTVSPost2010PropOp55
 70
     1
102
RTVSPost2010Prop56
140
1.0
102
RTVSPost2010PropOp56
 70
     1
102
RTVSPost2010Prop57
140
1.0
102
RTVSPost2010PropOp57
 70
     1
  0
XRECORD
  5
408
102
{ACAD_REACTORS
330
407
102
}
330
407
100
AcDbXrecord
280
     1
102
RTVSPropertyOp0
 70
     1
102
RTVSPropertyOp1
 70
     1
102
RTVSPropertyOp2
 70
     1
102
RTVSPropertyOp3
 70
     1
102
RTVSPropertyOp4
 70
     1
102
RTVSPropertyOp5
 70
     1
102
RTVSPropertyOp6
 70
     1
102
RTVSPropertyOp7
 70
     1
102
RTVSPropertyOp8
 70
     1
102
RTVSPropertyOp9
 70
     1
102
RTVSPropertyOp10
 70
     1
102
RTVSPropertyOp11
 70
     1
102
RTVSPropertyOp12
 70
     1
102
RTVSPropertyOp13
 70
     1
102
RTVSPropertyOp14
 70
     1
102
RTVSPropertyOp15
 70
     1
102
RTVSPropertyOp16
 70
     1
102
RTVSPropertyOp17
 70
     1
102
RTVSPropertyOp18
 70
     1
102
RTVSPropertyOp19
 70
     1
102
RTVSPropertyOp20
 70
     1
102
RTVSPropertyOp21
 70
     1
102
RTVSPropertyOp22
 70
     1
102
RTVSPropertyOp23
 70
     1
102
RTVSPropertyOp24
 70
     1
102
RTVSPropertyOp25
 70
     1
102
RTVSPropertyOp26
 70
     1
102
RTVSPropertyOp27
 70
     1
102
RTVSPropertyOp28
 70
     1
102
RTVSPropertyOp29
 70
     1
102
RTVSPropertyOp30
 70
     1
102
RTVSPropertyOp31
 70
     1
102
RTVSPropertyOp32
 70
     1
102
RTVSPropertyOp33
 70
     1
102
RTVSPropertyOp34
 70
     1
102
RTVSPropertyOp35
 70
     1
102
RTVSPropertyOp36
 70
     1
102
RTVSPropertyOp37
 70
     1
102
RTVSPropertyOp38
 70
     1
102
RTVSPropertyOp39
 70
     1
102
RTVSPropertyOp40
 70
     1
102
RTVSPropertyOp41
 70
     1
102
RTVSPropertyOp42
 70
     1
102
RTVSPropertyOp43
 70
     1
102
RTVSPropertyOp44
 70
     1
102
RTVSPropertyOp45
 70
     1
102
RTVSPropertyOp46
 70
     1
102
RTVSPropertyOp47
 70
     1
102
RTVSPropertyOp48
 70
     1
102
RTVSPropertyOp49
 70
     1
102
RTVSPropertyOp50
 70
     1
102
RTVSPropertyOp51
 70
     0
102
RTVSPropertyOp52
 70
     0
102
RTVSPropertyOp53
 70
     1
102
RTVSPropertyOp54
 70
     1
102
RTVSPropertyOp55
 70
     1
102
RTVSPropertyOp56
 70
     1
102
RTVSPropertyOp57
 70
     1
102
RTVSPost2010Prop28
280
     0
102
RTVSPost2010PropOp28
 70
     1
102
RTVSPost2010Prop29
280
     1
102
RTVSPost2010PropOp29
 70
     1
102
RTVSPost2010Prop30
280
     1
102
RTVSPost2010PropOp30
 70
     1
102
RTVSPost2010Prop31
280
     0
102
RTVSPost2010PropOp31
 70
     1
102
RTVSPost2010Prop32
280
     0
102
RTVSPost2010PropOp32
 70
     1
102
RTVSPost2010Prop33
280
     0
102
RTVSPost2010PropOp33
 70
     1
102
RTVSPost2010Prop34
280
     0
102
RTVSPost2010PropOp34
 70
     1
102
RTVSPost2010Prop35
280
     0
102
RTVSPost2010PropOp35
 70
     1
102
RTVSPost2010Prop36
280
     0
102
RTVSPost2010PropOp36
 70
     1
102
RTVSPost2010Prop37
 90
       50
102
RTVSPost2010PropOp37
 70
     1
102
RTVSPost2010Prop38
140
0.0
102
RTVSPost2010PropOp38
 70
     1
102
RTVSPost2010Prop39
140
1.0
102
RTVSPost2010PropOp39
 70
     1
102
RTVSPost2010Prop40
 90
        0
102
RTVSPost2010PropOp40
 70
     1
102
RTVSPost2010Prop41ColorIndex
 90
       18
102
RTVSPost2010Prop41ColorRGB
 90
        0
102
RTVSPost2010PropOp41
 70
     1
102
RTVSPost2010Prop42
 90
       50
102
RTVSPost2010PropOp42
 70
     1
102
RTVSPost2010Prop43
 90
        3
102
RTVSPost2010PropOp43
 70
     1
102
RTVSPost2010Prop44ColorIndex
 90
        5
102
RTVSPost2010Prop44ColorRGB
 90
      255
102
RTVSPost2010PropOp44
 70
     1
102
RTVSPost2010Prop45
280
     0
102
RTVSPost2010PropOp45
 70
     1
102
RTVSPost2010Prop46
 90
       50
102
RTVSPost2010PropOp46
 70
     1
102
RTVSPost2010Prop47
 90
       50
102
RTVSPost2010PropOp47
 70
     1
102
RTVSPost2010Prop48
 90
       50
102
RTVSPost2010PropOp48
 70
     1
102
RTVSPost2010Prop49
280
     0
102
RTVSPost2010PropOp49
 70
     1
102
RTVSPost2010Prop50
 90
       50
102
RTVSPost2010PropOp50
 70
     1
102
RTVSPost2010Prop51ColorIndex
 90
      256
102
RTVSPost2010Prop51ColorRGB
 90
-16777216
102
RTVSPost2010PropOp51
 70
     0
102
RTVSPost2010Prop52
140
1.0
102
RTVSPost2010PropOp52
 70
     0
102
RTVSPost2010Prop53
 90
        2
102
RTVSPost2010PropOp53
 70
     1
102
RTVSPost2010Prop54
  1
strokes_ogs.tif
102
RTVSPost2010PropOp54
 70
     1
102
RTVSPost2010Prop55
280
     0
102
RTVSPost2010PropOp55
 70
     1
102
RTVSPost2010Prop56
140
1.0
102
RTVSPost2010PropOp56
 70
     1
102
RTVSPost2010Prop57
140
1.0
102
RTVSPost2010PropOp57
 70
     1
  0
XRECORD
  5
40A
102
{ACAD_REACTORS
330
409
102
}
330
409
100
AcDbXrecord
280
     1
102
RTVSPropertyOp0
 70
     1
102
RTVSPropertyOp1
 70
     1
102
RTVSPropertyOp2
 70
     1
102
RTVSPropertyOp3
 70
     1
102
RTVSPropertyOp4
 70
     1
102
RTVSPropertyOp5
 70
     1
102
RTVSPropertyOp6
 70
     1
102
RTVSPropertyOp7
 70
     1
102
RTVSPropertyOp8
 70
     1
102
RTVSPropertyOp9
 70
     1
102
RTVSPropertyOp10
 70
     1
102
RTVSPropertyOp11
 70
     1
102
RTVSPropertyOp12
 70
     1
102
RTVSPropertyOp13
 70
     1
102
RTVSPropertyOp14
 70
     1
102
RTVSPropertyOp15
 70
     1
102
RTVSPropertyOp16
 70
     1
102
RTVSPropertyOp17
 70
     1
102
RTVSPropertyOp18
 70
     1
102
RTVSPropertyOp19
 70
     1
102
RTVSPropertyOp20
 70
     1
102
RTVSPropertyOp21
 70
     1
102
RTVSPropertyOp22
 70
     1
102
RTVSPropertyOp23
 70
     1
102
RTVSPropertyOp24
 70
     1
102
RTVSPropertyOp25
 70
     1
102
RTVSPropertyOp26
 70
     1
102
RTVSPropertyOp27
 70
     1
102
RTVSPropertyOp28
 70
     1
102
RTVSPropertyOp29
 70
     1
102
RTVSPropertyOp30
 70
     1
102
RTVSPropertyOp31
 70
     1
102
RTVSPropertyOp32
 70
     1
102
RTVSPropertyOp33
 70
     1
102
RTVSPropertyOp34
 70
     1
102
RTVSPropertyOp35
 70
     1
102
RTVSPropertyOp36
 70
     1
102
RTVSPropertyOp37
 70
     1
102
RTVSPropertyOp38
 70
     1
102
RTVSPropertyOp39
 70
     1
102
RTVSPropertyOp40
 70
     1
102
RTVSPropertyOp41
 70
     1
102
RTVSPropertyOp42
 70
     1
102
RTVSPropertyOp43
 70
     1
102
RTVSPropertyOp44
 70
     1
102
RTVSPropertyOp45
 70
     1
102
RTVSPropertyOp46
 70
     1
102
RTVSPropertyOp47
 70
     1
102
RTVSPropertyOp48
 70
     1
102
RTVSPropertyOp49
 70
     1
102
RTVSPropertyOp50
 70
     1
102
RTVSPropertyOp51
 70
     0
102
RTVSPropertyOp52
 70
     0
102
RTVSPropertyOp53
 70
     1
102
RTVSPropertyOp54
 70
     1
102
RTVSPropertyOp55
 70
     1
102
RTVSPropertyOp56
 70
     1
102
RTVSPropertyOp57
 70
     1
102
RTVSPost2010Prop28
280
     0
102
RTVSPost2010PropOp28
 70
     1
102
RTVSPost2010Prop29
280
     1
102
RTVSPost2010PropOp29
 70
     1
102
RTVSPost2010Prop30
280
     1
102
RTVSPost2010PropOp30
 70
     1
102
RTVSPost2010Prop31
280
     0
102
RTVSPost2010PropOp31
 70
     1
102
RTVSPost2010Prop32
280
     0
102
RTVSPost2010PropOp32
 70
     1
102
RTVSPost2010Prop33
280
     0
102
RTVSPost2010PropOp33
 70
     1
102
RTVSPost2010Prop34
280
     0
102
RTVSPost2010PropOp34
 70
     1
102
RTVSPost2010Prop35
280
     0
102
RTVSPost2010PropOp35
 70
     1
102
RTVSPost2010Prop36
280
     0
102
RTVSPost2010PropOp36
 70
     1
102
RTVSPost2010Prop37
 90
       50
102
RTVSPost2010PropOp37
 70
     1
102
RTVSPost2010Prop38
140
0.0
102
RTVSPost2010PropOp38
 70
     1
102
RTVSPost2010Prop39
140
1.0
102
RTVSPost2010PropOp39
 70
     1
102
RTVSPost2010Prop40
 90
        0
102
RTVSPost2010PropOp40
 70
     1
102
RTVSPost2010Prop41ColorIndex
 90
       18
102
RTVSPost2010Prop41ColorRGB
 90
        0
102
RTVSPost2010PropOp41
 70
     1
102
RTVSPost2010Prop42
 90
       50
102
RTVSPost2010PropOp42
 70
     1
102
RTVSPost2010Prop43
 90
        3
102
RTVSPost2010PropOp43
 70
     1
102
RTVSPost2010Prop44ColorIndex
 90
        5
102
RTVSPost2010Prop44ColorRGB
 90
      255
102
RTVSPost2010PropOp44
 70
     1
102
RTVSPost2010Prop45
280
     0
102
RTVSPost2010PropOp45
 70
     1
102
RTVSPost2010Prop46
 90
       50
102
RTVSPost2010PropOp46
 70
     1
102
RTVSPost2010Prop47
 90
       50
102
RTVSPost2010PropOp47
 70
     1
102
RTVSPost2010Prop48
 90
       50
102
RTVSPost2010PropOp48
 70
     1
102
RTVSPost2010Prop49
280
     0
102
RTVSPost2010PropOp49
 70
     1
102
RTVSPost2010Prop50
 90
       50
102
RTVSPost2010PropOp50
 70
     1
102
RTVSPost2010Prop51ColorIndex
 90
      256
102
RTVSPost2010Prop51ColorRGB
 90
-16777216
102
RTVSPost2010PropOp51
 70
     0
102
RTVSPost2010Prop52
140
1.0
102
RTVSPost2010PropOp52
 70
     0
102
RTVSPost2010Prop53
 90
        2
102
RTVSPost2010PropOp53
 70
     1
102
RTVSPost2010Prop54
  1
strokes_ogs.tif
102
RTVSPost2010PropOp54
 70
     1
102
RTVSPost2010Prop55
280
     0
102
RTVSPost2010PropOp55
 70
     1
102
RTVSPost2010Prop56
140
1.0
102
RTVSPost2010PropOp56
 70
     1
102
RTVSPost2010Prop57
140
1.0
102
RTVSPost2010PropOp57
 70
     1
  0
XRECORD
  5
40C
102
{ACAD_REACTORS
330
40B
102
}
330
40B
100
AcDbXrecord
280
     1
102
RTVSPropertyOp0
 70
     1
102
RTVSPropertyOp1
 70
     1
102
RTVSPropertyOp2
 70
     1
102
RTVSPropertyOp3
 70
     1
102
RTVSPropertyOp4
 70
     1
102
RTVSPropertyOp5
 70
     1
102
RTVSPropertyOp6
 70
     1
102
RTVSPropertyOp7
 70
     1
102
RTVSPropertyOp8
 70
     1
102
RTVSPropertyOp9
 70
     1
102
RTVSPropertyOp10
 70
     1
102
RTVSPropertyOp11
 70
     1
102
RTVSPropertyOp12
 70
     1
102
RTVSPropertyOp13
 70
     1
102
RTVSPropertyOp14
 70
     1
102
RTVSPropertyOp15
 70
     1
102
RTVSPropertyOp16
 70
     1
102
RTVSPropertyOp17
 70
     1
102
RTVSPropertyOp18
 70
     1
102
RTVSPropertyOp19
 70
     1
102
RTVSPropertyOp20
 70
     1
102
RTVSPropertyOp21
 70
     1
102
RTVSPropertyOp22
 70
     1
102
RTVSPropertyOp23
 70
     1
102
RTVSPropertyOp24
 70
     1
102
RTVSPropertyOp25
 70
     1
102
RTVSPropertyOp26
 70
     1
102
RTVSPropertyOp27
 70
     1
102
RTVSPropertyOp28
 70
     1
102
RTVSPropertyOp29
 70
     1
102
RTVSPropertyOp30
 70
     1
102
RTVSPropertyOp31
 70
     1
102
RTVSPropertyOp32
 70
     1
102
RTVSPropertyOp33
 70
     1
102
RTVSPropertyOp34
 70
     1
102
RTVSPropertyOp35
 70
     1
102
RTVSPropertyOp36
 70
     1
102
RTVSPropertyOp37
 70
     1
102
RTVSPropertyOp38
 70
     1
102
RTVSPropertyOp39
 70
     1
102
RTVSPropertyOp40
 70
     1
102
RTVSPropertyOp41
 70
     1
102
RTVSPropertyOp42
 70
     1
102
RTVSPropertyOp43
 70
     1
102
RTVSPropertyOp44
 70
     1
102
RTVSPropertyOp45
 70
     1
102
RTVSPropertyOp46
 70
     1
102
RTVSPropertyOp47
 70
     1
102
RTVSPropertyOp48
 70
     1
102
RTVSPropertyOp49
 70
     1
102
RTVSPropertyOp50
 70
     1
102
RTVSPropertyOp51
 70
     0
102
RTVSPropertyOp52
 70
     0
102
RTVSPropertyOp53
 70
     1
102
RTVSPropertyOp54
 70
     1
102
RTVSPropertyOp55
 70
     1
102
RTVSPropertyOp56
 70
     1
102
RTVSPropertyOp57
 70
     1
102
RTVSPost2010Prop28
280
     0
102
RTVSPost2010PropOp28
 70
     1
102
RTVSPost2010Prop29
280
     1
102
RTVSPost2010PropOp29
 70
     1
102
RTVSPost2010Prop30
280
     1
102
RTVSPost2010PropOp30
 70
     1
102
RTVSPost2010Prop31
280
     0
102
RTVSPost2010PropOp31
 70
     1
102
RTVSPost2010Prop32
280
     0
102
RTVSPost2010PropOp32
 70
     1
102
RTVSPost2010Prop33
280
     0
102
RTVSPost2010PropOp33
 70
     1
102
RTVSPost2010Prop34
280
     0
102
RTVSPost2010PropOp34
 70
     1
102
RTVSPost2010Prop35
280
     0
102
RTVSPost2010PropOp35
 70
     1
102
RTVSPost2010Prop36
280
     0
102
RTVSPost2010PropOp36
 70
     1
102
RTVSPost2010Prop37
 90
       50
102
RTVSPost2010PropOp37
 70
     1
102
RTVSPost2010Prop38
140
0.0
102
RTVSPost2010PropOp38
 70
     1
102
RTVSPost2010Prop39
140
1.0
102
RTVSPost2010PropOp39
 70
     1
102
RTVSPost2010Prop40
 90
        0
102
RTVSPost2010PropOp40
 70
     1
102
RTVSPost2010Prop41ColorIndex
 90
       18
102
RTVSPost2010Prop41ColorRGB
 90
        0
102
RTVSPost2010PropOp41
 70
     1
102
RTVSPost2010Prop42
 90
       50
102
RTVSPost2010PropOp42
 70
     1
102
RTVSPost2010Prop43
 90
        3
102
RTVSPost2010PropOp43
 70
     1
102
RTVSPost2010Prop44ColorIndex
 90
        5
102
RTVSPost2010Prop44ColorRGB
 90
      255
102
RTVSPost2010PropOp44
 70
     1
102
RTVSPost2010Prop45
280
     0
102
RTVSPost2010PropOp45
 70
     1
102
RTVSPost2010Prop46
 90
       50
102
RTVSPost2010PropOp46
 70
     1
102
RTVSPost2010Prop47
 90
       50
102
RTVSPost2010PropOp47
 70
     1
102
RTVSPost2010Prop48
 90
       50
102
RTVSPost2010PropOp48
 70
     1
102
RTVSPost2010Prop49
280
     0
102
RTVSPost2010PropOp49
 70
     1
102
RTVSPost2010Prop50
 90
       50
102
RTVSPost2010PropOp50
 70
     1
102
RTVSPost2010Prop51ColorIndex
 90
      256
102
RTVSPost2010Prop51ColorRGB
 90
-16777216
102
RTVSPost2010PropOp51
 70
     0
102
RTVSPost2010Prop52
140
1.0
102
RTVSPost2010PropOp52
 70
     0
102
RTVSPost2010Prop53
 90
        2
102
RTVSPost2010PropOp53
 70
     1
102
RTVSPost2010Prop54
  1
strokes_ogs.tif
102
RTVSPost2010PropOp54
 70
     1
102
RTVSPost2010Prop55
280
     0
102
RTVSPost2010PropOp55
 70
     1
102
RTVSPost2010Prop56
140
1.0
102
RTVSPost2010PropOp56
 70
     1
102
RTVSPost2010Prop57
140
1.0
102
RTVSPost2010PropOp57
 70
     1
  0
XRECORD
  5
40E
102
{ACAD_REACTORS
330
40D
102
}
330
40D
100
AcDbXrecord
280
     1
102
RTVSPropertyOp0
 70
     1
102
RTVSPropertyOp1
 70
     1
102
RTVSPropertyOp2
 70
     1
102
RTVSPropertyOp3
 70
     1
102
RTVSPropertyOp4
 70
     1
102
RTVSPropertyOp5
 70
     1
102
RTVSPropertyOp6
 70
     1
102
RTVSPropertyOp7
 70
     1
102
RTVSPropertyOp8
 70
     1
102
RTVSPropertyOp9
 70
     1
102
RTVSPropertyOp10
 70
     1
102
RTVSPropertyOp11
 70
     1
102
RTVSPropertyOp12
 70
     1
102
RTVSPropertyOp13
 70
     1
102
RTVSPropertyOp14
 70
     1
102
RTVSPropertyOp15
 70
     1
102
RTVSPropertyOp16
 70
     1
102
RTVSPropertyOp17
 70
     1
102
RTVSPropertyOp18
 70
     1
102
RTVSPropertyOp19
 70
     1
102
RTVSPropertyOp20
 70
     1
102
RTVSPropertyOp21
 70
     1
102
RTVSPropertyOp22
 70
     1
102
RTVSPropertyOp23
 70
     1
102
RTVSPropertyOp24
 70
     1
102
RTVSPropertyOp25
 70
     1
102
RTVSPropertyOp26
 70
     1
102
RTVSPropertyOp27
 70
     1
102
RTVSPropertyOp28
 70
     1
102
RTVSPropertyOp29
 70
     1
102
RTVSPropertyOp30
 70
     1
102
RTVSPropertyOp31
 70
     1
102
RTVSPropertyOp32
 70
     1
102
RTVSPropertyOp33
 70
     1
102
RTVSPropertyOp34
 70
     1
102
RTVSPropertyOp35
 70
     1
102
RTVSPropertyOp36
 70
     1
102
RTVSPropertyOp37
 70
     1
102
RTVSPropertyOp38
 70
     1
102
RTVSPropertyOp39
 70
     1
102
RTVSPropertyOp40
 70
     1
102
RTVSPropertyOp41
 70
     1
102
RTVSPropertyOp42
 70
     1
102
RTVSPropertyOp43
 70
     1
102
RTVSPropertyOp44
 70
     1
102
RTVSPropertyOp45
 70
     1
102
RTVSPropertyOp46
 70
     1
102
RTVSPropertyOp47
 70
     1
102
RTVSPropertyOp48
 70
     1
102
RTVSPropertyOp49
 70
     1
102
RTVSPropertyOp50
 70
     1
102
RTVSPropertyOp51
 70
     0
102
RTVSPropertyOp52
 70
     0
102
RTVSPropertyOp53
 70
     1
102
RTVSPropertyOp54
 70
     1
102
RTVSPropertyOp55
 70
     1
102
RTVSPropertyOp56
 70
     1
102
RTVSPropertyOp57
 70
     1
102
RTVSPost2010Prop28
280
     0
102
RTVSPost2010PropOp28
 70
     1
102
RTVSPost2010Prop29
280
     1
102
RTVSPost2010PropOp29
 70
     1
102
RTVSPost2010Prop30
280
     1
102
RTVSPost2010PropOp30
 70
     1
102
RTVSPost2010Prop31
280
     0
102
RTVSPost2010PropOp31
 70
     1
102
RTVSPost2010Prop32
280
     0
102
RTVSPost2010PropOp32
 70
     1
102
RTVSPost2010Prop33
280
     0
102
RTVSPost2010PropOp33
 70
     1
102
RTVSPost2010Prop34
280
     0
102
RTVSPost2010PropOp34
 70
     1
102
RTVSPost2010Prop35
280
     0
102
RTVSPost2010PropOp35
 70
     1
102
RTVSPost2010Prop36
280
     0
102
RTVSPost2010PropOp36
 70
     1
102
RTVSPost2010Prop37
 90
       50
102
RTVSPost2010PropOp37
 70
     1
102
RTVSPost2010Prop38
140
0.0
102
RTVSPost2010PropOp38
 70
     1
102
RTVSPost2010Prop39
140
1.0
102
RTVSPost2010PropOp39
 70
     1
102
RTVSPost2010Prop40
 90
        0
102
RTVSPost2010PropOp40
 70
     1
102
RTVSPost2010Prop41ColorIndex
 90
       18
102
RTVSPost2010Prop41ColorRGB
 90
        0
102
RTVSPost2010PropOp41
 70
     1
102
RTVSPost2010Prop42
 90
       50
102
RTVSPost2010PropOp42
 70
     1
102
RTVSPost2010Prop43
 90
        3
102
RTVSPost2010PropOp43
 70
     1
102
RTVSPost2010Prop44ColorIndex
 90
        5
102
RTVSPost2010Prop44ColorRGB
 90
      255
102
RTVSPost2010PropOp44
 70
     1
102
RTVSPost2010Prop45
280
     0
102
RTVSPost2010PropOp45
 70
     1
102
RTVSPost2010Prop46
 90
       50
102
RTVSPost2010PropOp46
 70
     1
102
RTVSPost2010Prop47
 90
       50
102
RTVSPost2010PropOp47
 70
     1
102
RTVSPost2010Prop48
 90
       50
102
RTVSPost2010PropOp48
 70
     1
102
RTVSPost2010Prop49
280
     0
102
RTVSPost2010PropOp49
 70
     1
102
RTVSPost2010Prop50
 90
       50
102
RTVSPost2010PropOp50
 70
     1
102
RTVSPost2010Prop51ColorIndex
 90
      256
102
RTVSPost2010Prop51ColorRGB
 90
-16777216
102
RTVSPost2010PropOp51
 70
     0
102
RTVSPost2010Prop52
140
1.0
102
RTVSPost2010PropOp52
 70
     0
102
RTVSPost2010Prop53
 90
        2
102
RTVSPost2010PropOp53
 70
     1
102
RTVSPost2010Prop54
  1
strokes_ogs.tif
102
RTVSPost2010PropOp54
 70
     1
102
RTVSPost2010Prop55
280
     0
102
RTVSPost2010PropOp55
 70
     1
102
RTVSPost2010Prop56
140
1.0
102
RTVSPost2010PropOp56
 70
     1
102
RTVSPost2010Prop57
140
1.0
102
RTVSPost2010PropOp57
 70
     1
  0
XRECORD
  5
414
102
{ACAD_REACTORS
330
413
102
}
330
413
100
AcDbXrecord
280
     1
102
RTVSPropertyOp0
 70
     1
102
RTVSPropertyOp1
 70
     1
102
RTVSPropertyOp2
 70
     1
102
RTVSPropertyOp3
 70
     1
102
RTVSPropertyOp4
 70
     1
102
RTVSPropertyOp5
 70
     1
102
RTVSPropertyOp6
 70
     1
102
RTVSPropertyOp7
 70
     1
102
RTVSPropertyOp8
 70
     1
102
RTVSPropertyOp9
 70
     1
102
RTVSPropertyOp10
 70
     1
102
RTVSPropertyOp11
 70
     1
102
RTVSPropertyOp12
 70
     1
102
RTVSPropertyOp13
 70
     1
102
RTVSPropertyOp14
 70
     1
102
RTVSPropertyOp15
 70
     1
102
RTVSPropertyOp16
 70
     1
102
RTVSPropertyOp17
 70
     1
102
RTVSPropertyOp18
 70
     1
102
RTVSPropertyOp19
 70
     1
102
RTVSPropertyOp20
 70
     1
102
RTVSPropertyOp21
 70
     1
102
RTVSPropertyOp22
 70
     1
102
RTVSPropertyOp23
 70
     1
102
RTVSPropertyOp24
 70
     1
102
RTVSPropertyOp25
 70
     1
102
RTVSPropertyOp26
 70
     1
102
RTVSPropertyOp27
 70
     1
102
RTVSPropertyOp28
 70
     1
102
RTVSPropertyOp29
 70
     1
102
RTVSPropertyOp30
 70
     1
102
RTVSPropertyOp31
 70
     1
102
RTVSPropertyOp32
 70
     1
102
RTVSPropertyOp33
 70
     1
102
RTVSPropertyOp34
 70
     1
102
RTVSPropertyOp35
 70
     1
102
RTVSPropertyOp36
 70
     1
102
RTVSPropertyOp37
 70
     1
102
RTVSPropertyOp38
 70
     1
102
RTVSPropertyOp39
 70
     1
102
RTVSPropertyOp40
 70
     1
102
RTVSPropertyOp41
 70
     1
102
RTVSPropertyOp42
 70
     1
102
RTVSPropertyOp43
 70
     1
102
RTVSPropertyOp44
 70
     1
102
RTVSPropertyOp45
 70
     1
102
RTVSPropertyOp46
 70
     1
102
RTVSPropertyOp47
 70
     1
102
RTVSPropertyOp48
 70
     1
102
RTVSPropertyOp49
 70
     1
102
RTVSPropertyOp50
 70
     1
102
RTVSPropertyOp51
 70
     0
102
RTVSPropertyOp52
 70
     0
102
RTVSPropertyOp53
 70
     1
102
RTVSPropertyOp54
 70
     1
102
RTVSPropertyOp55
 70
     1
102
RTVSPropertyOp56
 70
     1
102
RTVSPropertyOp57
 70
     1
102
RTVSPost2010Prop28
280
     0
102
RTVSPost2010PropOp28
 70
     1
102
RTVSPost2010Prop29
280
     1
102
RTVSPost2010PropOp29
 70
     1
102
RTVSPost2010Prop30
280
     1
102
RTVSPost2010PropOp30
 70
     1
102
RTVSPost2010Prop31
280
     0
102
RTVSPost2010PropOp31
 70
     1
102
RTVSPost2010Prop32
280
     0
102
RTVSPost2010PropOp32
 70
     1
102
RTVSPost2010Prop33
280
     0
102
RTVSPost2010PropOp33
 70
     1
102
RTVSPost2010Prop34
280
     0
102
RTVSPost2010PropOp34
 70
     1
102
RTVSPost2010Prop35
280
     0
102
RTVSPost2010PropOp35
 70
     1
102
RTVSPost2010Prop36
280
     0
102
RTVSPost2010PropOp36
 70
     1
102
RTVSPost2010Prop37
 90
       50
102
RTVSPost2010PropOp37
 70
     1
102
RTVSPost2010Prop38
140
0.0
102
RTVSPost2010PropOp38
 70
     1
102
RTVSPost2010Prop39
140
1.0
102
RTVSPost2010PropOp39
 70
     1
102
RTVSPost2010Prop40
 90
        0
102
RTVSPost2010PropOp40
 70
     1
102
RTVSPost2010Prop41ColorIndex
 90
       18
102
RTVSPost2010Prop41ColorRGB
 90
        0
102
RTVSPost2010PropOp41
 70
     1
102
RTVSPost2010Prop42
 90
       50
102
RTVSPost2010PropOp42
 70
     1
102
RTVSPost2010Prop43
 90
        3
102
RTVSPost2010PropOp43
 70
     1
102
RTVSPost2010Prop44ColorIndex
 90
        5
102
RTVSPost2010Prop44ColorRGB
 90
      255
102
RTVSPost2010PropOp44
 70
     1
102
RTVSPost2010Prop45
280
     0
102
RTVSPost2010PropOp45
 70
     1
102
RTVSPost2010Prop46
 90
       50
102
RTVSPost2010PropOp46
 70
     1
102
RTVSPost2010Prop47
 90
       50
102
RTVSPost2010PropOp47
 70
     1
102
RTVSPost2010Prop48
 90
       50
102
RTVSPost2010PropOp48
 70
     1
102
RTVSPost2010Prop49
280
     0
102
RTVSPost2010PropOp49
 70
     1
102
RTVSPost2010Prop50
 90
       50
102
RTVSPost2010PropOp50
 70
     1
102
RTVSPost2010Prop51ColorIndex
 90
      256
102
RTVSPost2010Prop51ColorRGB
 90
-16777216
102
RTVSPost2010PropOp51
 70
     0
102
RTVSPost2010Prop52
140
1.0
102
RTVSPost2010PropOp52
 70
     0
102
RTVSPost2010Prop53
 90
        2
102
RTVSPost2010PropOp53
 70
     1
102
RTVSPost2010Prop54
  1
strokes_ogs.tif
102
RTVSPost2010PropOp54
 70
     1
102
RTVSPost2010Prop55
280
     0
102
RTVSPost2010PropOp55
 70
     1
102
RTVSPost2010Prop56
140
1.0
102
RTVSPost2010PropOp56
 70
     1
102
RTVSPost2010Prop57
140
1.0
102
RTVSPost2010PropOp57
 70
     1
  0
XRECORD
  5
428
102
{ACAD_REACTORS
330
427
102
}
330
427
100
AcDbXrecord
280
     1
102
RTVSPropertyOp0
 70
     0
102
RTVSPropertyOp1
 70
     0
102
RTVSPropertyOp2
 70
     0
102
RTVSPropertyOp3
 70
     0
102
RTVSPropertyOp4
 70
     0
102
RTVSPropertyOp5
 70
     0
102
RTVSPropertyOp6
 70
     0
102
RTVSPropertyOp7
 70
     0
102
RTVSPropertyOp8
 70
     0
102
RTVSPropertyOp9
 70
     0
102
RTVSPropertyOp10
 70
     0
102
RTVSPropertyOp11
 70
     0
102
RTVSPropertyOp12
 70
     0
102
RTVSPropertyOp13
 70
     0
102
RTVSPropertyOp14
 70
     2
102
RTVSPropertyOp15
 70
     0
102
RTVSPropertyOp16
 70
     0
102
RTVSPropertyOp17
 70
     0
102
RTVSPropertyOp18
 70
     0
102
RTVSPropertyOp19
 70
     0
102
RTVSPropertyOp20
 70
     0
102
RTVSPropertyOp21
 70
     0
102
RTVSPropertyOp22
 70
     0
102
RTVSPropertyOp23
 70
     0
102
RTVSPropertyOp24
 70
     0
102
RTVSPropertyOp25
 70
     0
102
RTVSPropertyOp26
 70
     0
102
RTVSPropertyOp27
 70
     0
102
RTVSPropertyOp28
 70
     0
102
RTVSPropertyOp29
 70
     0
102
RTVSPropertyOp30
 70
     0
102
RTVSPropertyOp31
 70
     0
102
RTVSPropertyOp32
 70
     0
102
RTVSPropertyOp33
 70
     0
102
RTVSPropertyOp34
 70
     0
102
RTVSPropertyOp35
 70
     0
102
RTVSPropertyOp36
 70
     0
102
RTVSPropertyOp37
 70
     0
102
RTVSPropertyOp38
 70
     0
102
RTVSPropertyOp39
 70
     0
102
RTVSPropertyOp40
 70
     0
102
RTVSPropertyOp41
 70
     0
102
RTVSPropertyOp42
 70
     0
102
RTVSPropertyOp43
 70
     0
102
RTVSPropertyOp44
 70
     0
102
RTVSPropertyOp45
 70
     0
102
RTVSPropertyOp46
 70
     0
102
RTVSPropertyOp47
 70
     0
102
RTVSPropertyOp48
 70
     0
102
RTVSPropertyOp49
 70
     0
102
RTVSPropertyOp50
 70
     0
102
RTVSPropertyOp51
 70
     0
102
RTVSPropertyOp52
 70
     0
102
RTVSPropertyOp53
 70
     0
102
RTVSPropertyOp54
 70
     0
102
RTVSPropertyOp55
 70
     0
102
RTVSPropertyOp56
 70
     0
102
RTVSPropertyOp57
 70
     0
102
RTVSPost2010Prop28
280
     0
102
RTVSPost2010PropOp28
 70
     0
102
RTVSPost2010Prop29
280
     1
102
RTVSPost2010PropOp29
 70
     0
102
RTVSPost2010Prop30
280
     1
102
RTVSPost2010PropOp30
 70
     0
102
RTVSPost2010Prop31
280
     0
102
RTVSPost2010PropOp31
 70
     0
102
RTVSPost2010Prop32
280
     0
102
RTVSPost2010PropOp32
 70
     0
102
RTVSPost2010Prop33
280
     0
102
RTVSPost2010PropOp33
 70
     0
102
RTVSPost2010Prop34
280
     0
102
RTVSPost2010PropOp34
 70
     0
102
RTVSPost2010Prop35
280
     0
102
RTVSPost2010PropOp35
 70
     0
102
RTVSPost2010Prop36
280
     0
102
RTVSPost2010PropOp36
 70
     0
102
RTVSPost2010Prop37
 90
       50
102
RTVSPost2010PropOp37
 70
     0
102
RTVSPost2010Prop38
140
0.0
102
RTVSPost2010PropOp38
 70
     0
102
RTVSPost2010Prop39
140
1.0
102
RTVSPost2010PropOp39
 70
     0
102
RTVSPost2010Prop40
 90
        0
102
RTVSPost2010PropOp40
 70
     0
102
RTVSPost2010Prop41ColorIndex
 90
       18
102
RTVSPost2010Prop41ColorRGB
 90
        0
102
RTVSPost2010PropOp41
 70
     0
102
RTVSPost2010Prop42
 90
       50
102
RTVSPost2010PropOp42
 70
     0
102
RTVSPost2010Prop43
 90
        3
102
RTVSPost2010PropOp43
 70
     0
102
RTVSPost2010Prop44ColorIndex
 90
        5
102
RTVSPost2010Prop44ColorRGB
 90
      255
102
RTVSPost2010PropOp44
 70
     0
102
RTVSPost2010Prop45
280
     0
102
RTVSPost2010PropOp45
 70
     0
102
RTVSPost2010Prop46
 90
       50
102
RTVSPost2010PropOp46
 70
     0
102
RTVSPost2010Prop47
 90
       50
102
RTVSPost2010PropOp47
 70
     0
102
RTVSPost2010Prop48
 90
       50
102
RTVSPost2010PropOp48
 70
     0
102
RTVSPost2010Prop49
280
     0
102
RTVSPost2010PropOp49
 70
     0
102
RTVSPost2010Prop50
 90
       50
102
RTVSPost2010PropOp50
 70
     0
102
RTVSPost2010Prop51ColorIndex
 90
      256
102
RTVSPost2010Prop51ColorRGB
 90
-16777216
102
RTVSPost2010PropOp51
 70
     0
102
RTVSPost2010Prop52
140
1.0
102
RTVSPost2010PropOp52
 70
     0
102
RTVSPost2010Prop53
 90
        2
102
RTVSPost2010PropOp53
 70
     0
102
RTVSPost2010Prop54
  1
strokes_ogs.tif
102
RTVSPost2010PropOp54
 70
     0
102
RTVSPost2010Prop55
280
     0
102
RTVSPost2010PropOp55
 70
     0
102
RTVSPost2010Prop56
140
1.0
102
RTVSPost2010PropOp56
 70
     0
102
RTVSPost2010Prop57
140
1.0
102
RTVSPost2010PropOp57
 70
     0
  0
XRECORD
  5
422
102
{ACAD_REACTORS
330
421
102
}
330
421
100
AcDbXrecord
280
     1
102
RTVSPropertyOp0
 70
     1
102
RTVSPropertyOp1
 70
     1
102
RTVSPropertyOp2
 70
     1
102
RTVSPropertyOp3
 70
     1
102
RTVSPropertyOp4
 70
     1
102
RTVSPropertyOp5
 70
     1
102
RTVSPropertyOp6
 70
     1
102
RTVSPropertyOp7
 70
     1
102
RTVSPropertyOp8
 70
     1
102
RTVSPropertyOp9
 70
     1
102
RTVSPropertyOp10
 70
     1
102
RTVSPropertyOp11
 70
     1
102
RTVSPropertyOp12
 70
     1
102
RTVSPropertyOp13
 70
     1
102
RTVSPropertyOp14
 70
     1
102
RTVSPropertyOp15
 70
     1
102
RTVSPropertyOp16
 70
     1
102
RTVSPropertyOp17
 70
     1
102
RTVSPropertyOp18
 70
     1
102
RTVSPropertyOp19
 70
     1
102
RTVSPropertyOp20
 70
     1
102
RTVSPropertyOp21
 70
     1
102
RTVSPropertyOp22
 70
     1
102
RTVSPropertyOp23
 70
     1
102
RTVSPropertyOp24
 70
     1
102
RTVSPropertyOp25
 70
     1
102
RTVSPropertyOp26
 70
     1
102
RTVSPropertyOp27
 70
     1
102
RTVSPropertyOp28
 70
     1
102
RTVSPropertyOp29
 70
     1
102
RTVSPropertyOp30
 70
     1
102
RTVSPropertyOp31
 70
     1
102
RTVSPropertyOp32
 70
     1
102
RTVSPropertyOp33
 70
     1
102
RTVSPropertyOp34
 70
     1
102
RTVSPropertyOp35
 70
     1
102
RTVSPropertyOp36
 70
     1
102
RTVSPropertyOp37
 70
     1
102
RTVSPropertyOp38
 70
     1
102
RTVSPropertyOp39
 70
     1
102
RTVSPropertyOp40
 70
     1
102
RTVSPropertyOp41
 70
     1
102
RTVSPropertyOp42
 70
     1
102
RTVSPropertyOp43
 70
     1
102
RTVSPropertyOp44
 70
     1
102
RTVSPropertyOp45
 70
     1
102
RTVSPropertyOp46
 70
     1
102
RTVSPropertyOp47
 70
     1
102
RTVSPropertyOp48
 70
     1
102
RTVSPropertyOp49
 70
     1
102
RTVSPropertyOp50
 70
     1
102
RTVSPropertyOp51
 70
     0
102
RTVSPropertyOp52
 70
     0
102
RTVSPropertyOp53
 70
     1
102
RTVSPropertyOp54
 70
     1
102
RTVSPropertyOp55
 70
     1
102
RTVSPropertyOp56
 70
     1
102
RTVSPropertyOp57
 70
     1
102
RTVSPost2010Prop28
280
     0
102
RTVSPost2010PropOp28
 70
     1
102
RTVSPost2010Prop29
280
     1
102
RTVSPost2010PropOp29
 70
     1
102
RTVSPost2010Prop30
280
     1
102
RTVSPost2010PropOp30
 70
     1
102
RTVSPost2010Prop31
280
     0
102
RTVSPost2010PropOp31
 70
     1
102
RTVSPost2010Prop32
280
     0
102
RTVSPost2010PropOp32
 70
     1
102
RTVSPost2010Prop33
280
     0
102
RTVSPost2010PropOp33
 70
     1
102
RTVSPost2010Prop34
280
     0
102
RTVSPost2010PropOp34
 70
     1
102
RTVSPost2010Prop35
280
     0
102
RTVSPost2010PropOp35
 70
     1
102
RTVSPost2010Prop36
280
     0
102
RTVSPost2010PropOp36
 70
     1
102
RTVSPost2010Prop37
 90
       50
102
RTVSPost2010PropOp37
 70
     1
102
RTVSPost2010Prop38
140
0.0
102
RTVSPost2010PropOp38
 70
     1
102
RTVSPost2010Prop39
140
1.0
102
RTVSPost2010PropOp39
 70
     1
102
RTVSPost2010Prop40
 90
        0
102
RTVSPost2010PropOp40
 70
     1
102
RTVSPost2010Prop41ColorIndex
 90
       18
102
RTVSPost2010Prop41ColorRGB
 90
        0
102
RTVSPost2010PropOp41
 70
     1
102
RTVSPost2010Prop42
 90
       50
102
RTVSPost2010PropOp42
 70
     1
102
RTVSPost2010Prop43
 90
        3
102
RTVSPost2010PropOp43
 70
     1
102
RTVSPost2010Prop44ColorIndex
 90
        5
102
RTVSPost2010Prop44ColorRGB
 90
      255
102
RTVSPost2010PropOp44
 70
     1
102
RTVSPost2010Prop45
280
     0
102
RTVSPost2010PropOp45
 70
     1
102
RTVSPost2010Prop46
 90
       50
102
RTVSPost2010PropOp46
 70
     1
102
RTVSPost2010Prop47
 90
       50
102
RTVSPost2010PropOp47
 70
     1
102
RTVSPost2010Prop48
 90
       50
102
RTVSPost2010PropOp48
 70
     1
102
RTVSPost2010Prop49
280
     0
102
RTVSPost2010PropOp49
 70
     1
102
RTVSPost2010Prop50
 90
       50
102
RTVSPost2010PropOp50
 70
     1
102
RTVSPost2010Prop51ColorIndex
 90
      256
102
RTVSPost2010Prop51ColorRGB
 90
-16777216
102
RTVSPost2010PropOp51
 70
     0
102
RTVSPost2010Prop52
140
1.0
102
RTVSPost2010PropOp52
 70
     0
102
RTVSPost2010Prop53
 90
        2
102
RTVSPost2010PropOp53
 70
     1
102
RTVSPost2010Prop54
  1
strokes_ogs.tif
102
RTVSPost2010PropOp54
 70
     1
102
RTVSPost2010Prop55
280
     0
102
RTVSPost2010PropOp55
 70
     1
102
RTVSPost2010Prop56
140
1.0
102
RTVSPost2010PropOp56
 70
     1
102
RTVSPost2010Prop57
140
1.0
102
RTVSPost2010PropOp57
 70
     1
  0
XRECORD
  5
42A
102
{ACAD_REACTORS
330
429
102
}
330
429
100
AcDbXrecord
280
     1
102
RTVSPropertyOp0
 70
     0
102
RTVSPropertyOp1
 70
     0
102
RTVSPropertyOp2
 70
     0
102
RTVSPropertyOp3
 70
     0
102
RTVSPropertyOp4
 70
     0
102
RTVSPropertyOp5
 70
     0
102
RTVSPropertyOp6
 70
     0
102
RTVSPropertyOp7
 70
     0
102
RTVSPropertyOp8
 70
     0
102
RTVSPropertyOp9
 70
     0
102
RTVSPropertyOp10
 70
     0
102
RTVSPropertyOp11
 70
     0
102
RTVSPropertyOp12
 70
     0
102
RTVSPropertyOp13
 70
     0
102
RTVSPropertyOp14
 70
     2
102
RTVSPropertyOp15
 70
     0
102
RTVSPropertyOp16
 70
     0
102
RTVSPropertyOp17
 70
     0
102
RTVSPropertyOp18
 70
     0
102
RTVSPropertyOp19
 70
     0
102
RTVSPropertyOp20
 70
     0
102
RTVSPropertyOp21
 70
     0
102
RTVSPropertyOp22
 70
     0
102
RTVSPropertyOp23
 70
     0
102
RTVSPropertyOp24
 70
     0
102
RTVSPropertyOp25
 70
     0
102
RTVSPropertyOp26
 70
     0
102
RTVSPropertyOp27
 70
     0
102
RTVSPropertyOp28
 70
     0
102
RTVSPropertyOp29
 70
     0
102
RTVSPropertyOp30
 70
     0
102
RTVSPropertyOp31
 70
     0
102
RTVSPropertyOp32
 70
     0
102
RTVSPropertyOp33
 70
     0
102
RTVSPropertyOp34
 70
     0
102
RTVSPropertyOp35
 70
     0
102
RTVSPropertyOp36
 70
     0
102
RTVSPropertyOp37
 70
     0
102
RTVSPropertyOp38
 70
     0
102
RTVSPropertyOp39
 70
     0
102
RTVSPropertyOp40
 70
     0
102
RTVSPropertyOp41
 70
     0
102
RTVSPropertyOp42
 70
     0
102
RTVSPropertyOp43
 70
     0
102
RTVSPropertyOp44
 70
     0
102
RTVSPropertyOp45
 70
     0
102
RTVSPropertyOp46
 70
     0
102
RTVSPropertyOp47
 70
     0
102
RTVSPropertyOp48
 70
     0
102
RTVSPropertyOp49
 70
     0
102
RTVSPropertyOp50
 70
     0
102
RTVSPropertyOp51
 70
     0
102
RTVSPropertyOp52
 70
     0
102
RTVSPropertyOp53
 70
     0
102
RTVSPropertyOp54
 70
     0
102
RTVSPropertyOp55
 70
     0
102
RTVSPropertyOp56
 70
     0
102
RTVSPropertyOp57
 70
     0
102
RTVSPost2010Prop28
280
     0
102
RTVSPost2010PropOp28
 70
     0
102
RTVSPost2010Prop29
280
     1
102
RTVSPost2010PropOp29
 70
     0
102
RTVSPost2010Prop30
280
     1
102
RTVSPost2010PropOp30
 70
     0
102
RTVSPost2010Prop31
280
     0
102
RTVSPost2010PropOp31
 70
     0
102
RTVSPost2010Prop32
280
     0
102
RTVSPost2010PropOp32
 70
     0
102
RTVSPost2010Prop33
280
     0
102
RTVSPost2010PropOp33
 70
     0
102
RTVSPost2010Prop34
280
     0
102
RTVSPost2010PropOp34
 70
     0
102
RTVSPost2010Prop35
280
     0
102
RTVSPost2010PropOp35
 70
     0
102
RTVSPost2010Prop36
280
     0
102
RTVSPost2010PropOp36
 70
     0
102
RTVSPost2010Prop37
 90
       50
102
RTVSPost2010PropOp37
 70
     0
102
RTVSPost2010Prop38
140
0.0
102
RTVSPost2010PropOp38
 70
     0
102
RTVSPost2010Prop39
140
1.0
102
RTVSPost2010PropOp39
 70
     0
102
RTVSPost2010Prop40
 90
        0
102
RTVSPost2010PropOp40
 70
     0
102
RTVSPost2010Prop41ColorIndex
 90
       18
102
RTVSPost2010Prop41ColorRGB
 90
        0
102
RTVSPost2010PropOp41
 70
     0
102
RTVSPost2010Prop42
 90
       50
102
RTVSPost2010PropOp42
 70
     0
102
RTVSPost2010Prop43
 90
        3
102
RTVSPost2010PropOp43
 70
     0
102
RTVSPost2010Prop44ColorIndex
 90
        5
102
RTVSPost2010Prop44ColorRGB
 90
      255
102
RTVSPost2010PropOp44
 70
     0
102
RTVSPost2010Prop45
280
     0
102
RTVSPost2010PropOp45
 70
     0
102
RTVSPost2010Prop46
 90
       50
102
RTVSPost2010PropOp46
 70
     0
102
RTVSPost2010Prop47
 90
       50
102
RTVSPost2010PropOp47
 70
     0
102
RTVSPost2010Prop48
 90
       50
102
RTVSPost2010PropOp48
 70
     0
102
RTVSPost2010Prop49
280
     0
102
RTVSPost2010PropOp49
 70
     0
102
RTVSPost2010Prop50
 90
       50
102
RTVSPost2010PropOp50
 70
     0
102
RTVSPost2010Prop51ColorIndex
 90
      256
102
RTVSPost2010Prop51ColorRGB
 90
-16777216
102
RTVSPost2010PropOp51
 70
     0
102
RTVSPost2010Prop52
140
1.0
102
RTVSPost2010PropOp52
 70
     0
102
RTVSPost2010Prop53
 90
        2
102
RTVSPost2010PropOp53
 70
     0
102
RTVSPost2010Prop54
  1
strokes_ogs.tif
102
RTVSPost2010PropOp54
 70
     0
102
RTVSPost2010Prop55
280
     0
102
RTVSPost2010PropOp55
 70
     0
102
RTVSPost2010Prop56
140
1.0
102
RTVSPost2010PropOp56
 70
     0
102
RTVSPost2010Prop57
140
1.0
102
RTVSPost2010PropOp57
 70
     0
  0
XRECORD
  5
418
102
{ACAD_REACTORS
330
417
102
}
330
417
100
AcDbXrecord
280
     1
102
RTVSPropertyOp0
 70
     1
102
RTVSPropertyOp1
 70
     1
102
RTVSPropertyOp2
 70
     1
102
RTVSPropertyOp3
 70
     1
102
RTVSPropertyOp4
 70
     1
102
RTVSPropertyOp5
 70
     1
102
RTVSPropertyOp6
 70
     1
102
RTVSPropertyOp7
 70
     1
102
RTVSPropertyOp8
 70
     1
102
RTVSPropertyOp9
 70
     1
102
RTVSPropertyOp10
 70
     1
102
RTVSPropertyOp11
 70
     1
102
RTVSPropertyOp12
 70
     1
102
RTVSPropertyOp13
 70
     1
102
RTVSPropertyOp14
 70
     1
102
RTVSPropertyOp15
 70
     1
102
RTVSPropertyOp16
 70
     1
102
RTVSPropertyOp17
 70
     1
102
RTVSPropertyOp18
 70
     1
102
RTVSPropertyOp19
 70
     1
102
RTVSPropertyOp20
 70
     1
102
RTVSPropertyOp21
 70
     1
102
RTVSPropertyOp22
 70
     1
102
RTVSPropertyOp23
 70
     1
102
RTVSPropertyOp24
 70
     1
102
RTVSPropertyOp25
 70
     1
102
RTVSPropertyOp26
 70
     1
102
RTVSPropertyOp27
 70
     1
102
RTVSPropertyOp28
 70
     1
102
RTVSPropertyOp29
 70
     1
102
RTVSPropertyOp30
 70
     1
102
RTVSPropertyOp31
 70
     1
102
RTVSPropertyOp32
 70
     1
102
RTVSPropertyOp33
 70
     1
102
RTVSPropertyOp34
 70
     1
102
RTVSPropertyOp35
 70
     1
102
RTVSPropertyOp36
 70
     1
102
RTVSPropertyOp37
 70
     1
102
RTVSPropertyOp38
 70
     1
102
RTVSPropertyOp39
 70
     1
102
RTVSPropertyOp40
 70
     1
102
RTVSPropertyOp41
 70
     1
102
RTVSPropertyOp42
 70
     1
102
RTVSPropertyOp43
 70
     1
102
RTVSPropertyOp44
 70
     1
102
RTVSPropertyOp45
 70
     1
102
RTVSPropertyOp46
 70
     1
102
RTVSPropertyOp47
 70
     1
102
RTVSPropertyOp48
 70
     1
102
RTVSPropertyOp49
 70
     1
102
RTVSPropertyOp50
 70
     1
102
RTVSPropertyOp51
 70
     0
102
RTVSPropertyOp52
 70
     0
102
RTVSPropertyOp53
 70
     1
102
RTVSPropertyOp54
 70
     1
102
RTVSPropertyOp55
 70
     1
102
RTVSPropertyOp56
 70
     1
102
RTVSPropertyOp57
 70
     1
102
RTVSPost2010Prop28
280
     0
102
RTVSPost2010PropOp28
 70
     1
102
RTVSPost2010Prop29
280
     1
102
RTVSPost2010PropOp29
 70
     1
102
RTVSPost2010Prop30
280
     1
102
RTVSPost2010PropOp30
 70
     1
102
RTVSPost2010Prop31
280
     0
102
RTVSPost2010PropOp31
 70
     1
102
RTVSPost2010Prop32
280
     0
102
RTVSPost2010PropOp32
 70
     1
102
RTVSPost2010Prop33
280
     0
102
RTVSPost2010PropOp33
 70
     1
102
RTVSPost2010Prop34
280
     0
102
RTVSPost2010PropOp34
 70
     1
102
RTVSPost2010Prop35
280
     0
102
RTVSPost2010PropOp35
 70
     1
102
RTVSPost2010Prop36
280
     0
102
RTVSPost2010PropOp36
 70
     1
102
RTVSPost2010Prop37
 90
       50
102
RTVSPost2010PropOp37
 70
     1
102
RTVSPost2010Prop38
140
0.0
102
RTVSPost2010PropOp38
 70
     1
102
RTVSPost2010Prop39
140
1.0
102
RTVSPost2010PropOp39
 70
     1
102
RTVSPost2010Prop40
 90
        0
102
RTVSPost2010PropOp40
 70
     1
102
RTVSPost2010Prop41ColorIndex
 90
       18
102
RTVSPost2010Prop41ColorRGB
 90
        0
102
RTVSPost2010PropOp41
 70
     1
102
RTVSPost2010Prop42
 90
       50
102
RTVSPost2010PropOp42
 70
     1
102
RTVSPost2010Prop43
 90
        3
102
RTVSPost2010PropOp43
 70
     1
102
RTVSPost2010Prop44ColorIndex
 90
        5
102
RTVSPost2010Prop44ColorRGB
 90
      255
102
RTVSPost2010PropOp44
 70
     1
102
RTVSPost2010Prop45
280
     0
102
RTVSPost2010PropOp45
 70
     1
102
RTVSPost2010Prop46
 90
       50
102
RTVSPost2010PropOp46
 70
     1
102
RTVSPost2010Prop47
 90
       50
102
RTVSPost2010PropOp47
 70
     1
102
RTVSPost2010Prop48
 90
       50
102
RTVSPost2010PropOp48
 70
     1
102
RTVSPost2010Prop49
280
     0
102
RTVSPost2010PropOp49
 70
     1
102
RTVSPost2010Prop50
 90
       50
102
RTVSPost2010PropOp50
 70
     1
102
RTVSPost2010Prop51ColorIndex
 90
      256
102
RTVSPost2010Prop51ColorRGB
 90
-16777216
102
RTVSPost2010PropOp51
 70
     0
102
RTVSPost2010Prop52
140
1.0
102
RTVSPost2010PropOp52
 70
     0
102
RTVSPost2010Prop53
 90
        2
102
RTVSPost2010PropOp53
 70
     1
102
RTVSPost2010Prop54
  1
strokes_ogs.tif
102
RTVSPost2010PropOp54
 70
     1
102
RTVSPost2010Prop55
280
     0
102
RTVSPost2010PropOp55
 70
     1
102
RTVSPost2010Prop56
140
1.0
102
RTVSPost2010PropOp56
 70
     1
102
RTVSPost2010Prop57
140
1.0
102
RTVSPost2010PropOp57
 70
     1
  0
XRECORD
  5
436
102
{ACAD_REACTORS
330
435
102
}
330
435
100
AcDbXrecord
280
     1
102
RTVSPropertyOp0
 70
     1
102
RTVSPropertyOp1
 70
     1
102
RTVSPropertyOp2
 70
     1
102
RTVSPropertyOp3
 70
     1
102
RTVSPropertyOp4
 70
     1
102
RTVSPropertyOp5
 70
     1
102
RTVSPropertyOp6
 70
     1
102
RTVSPropertyOp7
 70
     1
102
RTVSPropertyOp8
 70
     1
102
RTVSPropertyOp9
 70
     1
102
RTVSPropertyOp10
 70
     1
102
RTVSPropertyOp11
 70
     1
102
RTVSPropertyOp12
 70
     1
102
RTVSPropertyOp13
 70
     1
102
RTVSPropertyOp14
 70
     1
102
RTVSPropertyOp15
 70
     1
102
RTVSPropertyOp16
 70
     1
102
RTVSPropertyOp17
 70
     1
102
RTVSPropertyOp18
 70
     1
102
RTVSPropertyOp19
 70
     1
102
RTVSPropertyOp20
 70
     1
102
RTVSPropertyOp21
 70
     1
102
RTVSPropertyOp22
 70
     1
102
RTVSPropertyOp23
 70
     1
102
RTVSPropertyOp24
 70
     1
102
RTVSPropertyOp25
 70
     1
102
RTVSPropertyOp26
 70
     1
102
RTVSPropertyOp27
 70
     1
102
RTVSPropertyOp28
 70
     1
102
RTVSPropertyOp29
 70
     1
102
RTVSPropertyOp30
 70
     1
102
RTVSPropertyOp31
 70
     1
102
RTVSPropertyOp32
 70
     1
102
RTVSPropertyOp33
 70
     1
102
RTVSPropertyOp34
 70
     1
102
RTVSPropertyOp35
 70
     1
102
RTVSPropertyOp36
 70
     1
102
RTVSPropertyOp37
 70
     1
102
RTVSPropertyOp38
 70
     1
102
RTVSPropertyOp39
 70
     1
102
RTVSPropertyOp40
 70
     1
102
RTVSPropertyOp41
 70
     1
102
RTVSPropertyOp42
 70
     1
102
RTVSPropertyOp43
 70
     1
102
RTVSPropertyOp44
 70
     1
102
RTVSPropertyOp45
 70
     1
102
RTVSPropertyOp46
 70
     1
102
RTVSPropertyOp47
 70
     1
102
RTVSPropertyOp48
 70
     1
102
RTVSPropertyOp49
 70
     1
102
RTVSPropertyOp50
 70
     1
102
RTVSPropertyOp51
 70
     0
102
RTVSPropertyOp52
 70
     0
102
RTVSPropertyOp53
 70
     1
102
RTVSPropertyOp54
 70
     1
102
RTVSPropertyOp55
 70
     1
102
RTVSPropertyOp56
 70
     1
102
RTVSPropertyOp57
 70
     1
102
RTVSPost2010Prop28
280
     0
102
RTVSPost2010PropOp28
 70
     1
102
RTVSPost2010Prop29
280
     1
102
RTVSPost2010PropOp29
 70
     1
102
RTVSPost2010Prop30
280
     1
102
RTVSPost2010PropOp30
 70
     1
102
RTVSPost2010Prop31
280
     0
102
RTVSPost2010PropOp31
 70
     1
102
RTVSPost2010Prop32
280
     0
102
RTVSPost2010PropOp32
 70
     1
102
RTVSPost2010Prop33
280
     0
102
RTVSPost2010PropOp33
 70
     1
102
RTVSPost2010Prop34
280
     0
102
RTVSPost2010PropOp34
 70
     1
102
RTVSPost2010Prop35
280
     0
102
RTVSPost2010PropOp35
 70
     1
102
RTVSPost2010Prop36
280
     0
102
RTVSPost2010PropOp36
 70
     1
102
RTVSPost2010Prop37
 90
       50
102
RTVSPost2010PropOp37
 70
     1
102
RTVSPost2010Prop38
140
0.0
102
RTVSPost2010PropOp38
 70
     1
102
RTVSPost2010Prop39
140
1.0
102
RTVSPost2010PropOp39
 70
     1
102
RTVSPost2010Prop40
 90
        0
102
RTVSPost2010PropOp40
 70
     1
102
RTVSPost2010Prop41ColorIndex
 90
       18
102
RTVSPost2010Prop41ColorRGB
 90
        0
102
RTVSPost2010PropOp41
 70
     1
102
RTVSPost2010Prop42
 90
       50
102
RTVSPost2010PropOp42
 70
     1
102
RTVSPost2010Prop43
 90
        3
102
RTVSPost2010PropOp43
 70
     1
102
RTVSPost2010Prop44ColorIndex
 90
        5
102
RTVSPost2010Prop44ColorRGB
 90
      255
102
RTVSPost2010PropOp44
 70
     1
102
RTVSPost2010Prop45
280
     0
102
RTVSPost2010PropOp45
 70
     1
102
RTVSPost2010Prop46
 90
       50
102
RTVSPost2010PropOp46
 70
     1
102
RTVSPost2010Prop47
 90
       50
102
RTVSPost2010PropOp47
 70
     1
102
RTVSPost2010Prop48
 90
       50
102
RTVSPost2010PropOp48
 70
     1
102
RTVSPost2010Prop49
280
     0
102
RTVSPost2010PropOp49
 70
     1
102
RTVSPost2010Prop50
 90
       50
102
RTVSPost2010PropOp50
 70
     1
102
RTVSPost2010Prop51ColorIndex
 90
      256
102
RTVSPost2010Prop51ColorRGB
 90
-16777216
102
RTVSPost2010PropOp51
 70
     0
102
RTVSPost2010Prop52
140
1.0
102
RTVSPost2010PropOp52
 70
     0
102
RTVSPost2010Prop53
 90
        2
102
RTVSPost2010PropOp53
 70
     1
102
RTVSPost2010Prop54
  1
strokes_ogs.tif
102
RTVSPost2010PropOp54
 70
     1
102
RTVSPost2010Prop55
280
     0
102
RTVSPost2010PropOp55
 70
     1
102
RTVSPost2010Prop56
140
1.0
102
RTVSPost2010PropOp56
 70
     1
102
RTVSPost2010Prop57
140
1.0
102
RTVSPost2010PropOp57
 70
     1
  0
XRECORD
  5
434
102
{ACAD_REACTORS
330
433
102
}
330
433
100
AcDbXrecord
280
     1
102
RTVSPropertyOp0
 70
     1
102
RTVSPropertyOp1
 70
     1
102
RTVSPropertyOp2
 70
     1
102
RTVSPropertyOp3
 70
     1
102
RTVSPropertyOp4
 70
     1
102
RTVSPropertyOp5
 70
     1
102
RTVSPropertyOp6
 70
     1
102
RTVSPropertyOp7
 70
     1
102
RTVSPropertyOp8
 70
     1
102
RTVSPropertyOp9
 70
     1
102
RTVSPropertyOp10
 70
     1
102
RTVSPropertyOp11
 70
     1
102
RTVSPropertyOp12
 70
     1
102
RTVSPropertyOp13
 70
     1
102
RTVSPropertyOp14
 70
     1
102
RTVSPropertyOp15
 70
     1
102
RTVSPropertyOp16
 70
     1
102
RTVSPropertyOp17
 70
     1
102
RTVSPropertyOp18
 70
     1
102
RTVSPropertyOp19
 70
     1
102
RTVSPropertyOp20
 70
     1
102
RTVSPropertyOp21
 70
     1
102
RTVSPropertyOp22
 70
     1
102
RTVSPropertyOp23
 70
     1
102
RTVSPropertyOp24
 70
     1
102
RTVSPropertyOp25
 70
     1
102
RTVSPropertyOp26
 70
     1
102
RTVSPropertyOp27
 70
     1
102
RTVSPropertyOp28
 70
     1
102
RTVSPropertyOp29
 70
     1
102
RTVSPropertyOp30
 70
     1
102
RTVSPropertyOp31
 70
     1
102
RTVSPropertyOp32
 70
     1
102
RTVSPropertyOp33
 70
     1
102
RTVSPropertyOp34
 70
     1
102
RTVSPropertyOp35
 70
     1
102
RTVSPropertyOp36
 70
     1
102
RTVSPropertyOp37
 70
     1
102
RTVSPropertyOp38
 70
     1
102
RTVSPropertyOp39
 70
     1
102
RTVSPropertyOp40
 70
     1
102
RTVSPropertyOp41
 70
     1
102
RTVSPropertyOp42
 70
     1
102
RTVSPropertyOp43
 70
     1
102
RTVSPropertyOp44
 70
     1
102
RTVSPropertyOp45
 70
     1
102
RTVSPropertyOp46
 70
     1
102
RTVSPropertyOp47
 70
     1
102
RTVSPropertyOp48
 70
     1
102
RTVSPropertyOp49
 70
     1
102
RTVSPropertyOp50
 70
     1
102
RTVSPropertyOp51
 70
     0
102
RTVSPropertyOp52
 70
     0
102
RTVSPropertyOp53
 70
     1
102
RTVSPropertyOp54
 70
     1
102
RTVSPropertyOp55
 70
     1
102
RTVSPropertyOp56
 70
     1
102
RTVSPropertyOp57
 70
     1
102
RTVSPost2010Prop28
280
     0
102
RTVSPost2010PropOp28
 70
     1
102
RTVSPost2010Prop29
280
     1
102
RTVSPost2010PropOp29
 70
     1
102
RTVSPost2010Prop30
280
     1
102
RTVSPost2010PropOp30
 70
     1
102
RTVSPost2010Prop31
280
     0
102
RTVSPost2010PropOp31
 70
     1
102
RTVSPost2010Prop32
280
     0
102
RTVSPost2010PropOp32
 70
     1
102
RTVSPost2010Prop33
280
     0
102
RTVSPost2010PropOp33
 70
     1
102
RTVSPost2010Prop34
280
     0
102
RTVSPost2010PropOp34
 70
     1
102
RTVSPost2010Prop35
280
     0
102
RTVSPost2010PropOp35
 70
     1
102
RTVSPost2010Prop36
280
     0
102
RTVSPost2010PropOp36
 70
     1
102
RTVSPost2010Prop37
 90
       50
102
RTVSPost2010PropOp37
 70
     1
102
RTVSPost2010Prop38
140
0.0
102
RTVSPost2010PropOp38
 70
     1
102
RTVSPost2010Prop39
140
1.0
102
RTVSPost2010PropOp39
 70
     1
102
RTVSPost2010Prop40
 90
        0
102
RTVSPost2010PropOp40
 70
     1
102
RTVSPost2010Prop41ColorIndex
 90
       18
102
RTVSPost2010Prop41ColorRGB
 90
        0
102
RTVSPost2010PropOp41
 70
     1
102
RTVSPost2010Prop42
 90
       50
102
RTVSPost2010PropOp42
 70
     1
102
RTVSPost2010Prop43
 90
        3
102
RTVSPost2010PropOp43
 70
     1
102
RTVSPost2010Prop44ColorIndex
 90
        5
102
RTVSPost2010Prop44ColorRGB
 90
      255
102
RTVSPost2010PropOp44
 70
     1
102
RTVSPost2010Prop45
280
     0
102
RTVSPost2010PropOp45
 70
     1
102
RTVSPost2010Prop46
 90
       50
102
RTVSPost2010PropOp46
 70
     1
102
RTVSPost2010Prop47
 90
       50
102
RTVSPost2010PropOp47
 70
     1
102
RTVSPost2010Prop48
 90
       50
102
RTVSPost2010PropOp48
 70
     1
102
RTVSPost2010Prop49
280
     0
102
RTVSPost2010PropOp49
 70
     1
102
RTVSPost2010Prop50
 90
       50
102
RTVSPost2010PropOp50
 70
     1
102
RTVSPost2010Prop51ColorIndex
 90
      256
102
RTVSPost2010Prop51ColorRGB
 90
-16777216
102
RTVSPost2010PropOp51
 70
     0
102
RTVSPost2010Prop52
140
1.0
102
RTVSPost2010PropOp52
 70
     0
102
RTVSPost2010Prop53
 90
        2
102
RTVSPost2010PropOp53
 70
     1
102
RTVSPost2010Prop54
  1
strokes_ogs.tif
102
RTVSPost2010PropOp54
 70
     1
102
RTVSPost2010Prop55
280
     0
102
RTVSPost2010PropOp55
 70
     1
102
RTVSPost2010Prop56
140
1.0
102
RTVSPost2010PropOp56
 70
     1
102
RTVSPost2010Prop57
140
1.0
102
RTVSPost2010PropOp57
 70
     1
  0
XRECORD
  5
42E
102
{ACAD_REACTORS
330
42D
102
}
330
42D
100
AcDbXrecord
280
     1
102
RTVSPropertyOp0
 70
     1
102
RTVSPropertyOp1
 70
     1
102
RTVSPropertyOp2
 70
     1
102
RTVSPropertyOp3
 70
     1
102
RTVSPropertyOp4
 70
     1
102
RTVSPropertyOp5
 70
     1
102
RTVSPropertyOp6
 70
     1
102
RTVSPropertyOp7
 70
     1
102
RTVSPropertyOp8
 70
     1
102
RTVSPropertyOp9
 70
     1
102
RTVSPropertyOp10
 70
     1
102
RTVSPropertyOp11
 70
     1
102
RTVSPropertyOp12
 70
     1
102
RTVSPropertyOp13
 70
     1
102
RTVSPropertyOp14
 70
     1
102
RTVSPropertyOp15
 70
     1
102
RTVSPropertyOp16
 70
     1
102
RTVSPropertyOp17
 70
     1
102
RTVSPropertyOp18
 70
     1
102
RTVSPropertyOp19
 70
     1
102
RTVSPropertyOp20
 70
     1
102
RTVSPropertyOp21
 70
     1
102
RTVSPropertyOp22
 70
     1
102
RTVSPropertyOp23
 70
     1
102
RTVSPropertyOp24
 70
     1
102
RTVSPropertyOp25
 70
     1
102
RTVSPropertyOp26
 70
     1
102
RTVSPropertyOp27
 70
     1
102
RTVSPropertyOp28
 70
     1
102
RTVSPropertyOp29
 70
     1
102
RTVSPropertyOp30
 70
     1
102
RTVSPropertyOp31
 70
     1
102
RTVSPropertyOp32
 70
     1
102
RTVSPropertyOp33
 70
     1
102
RTVSPropertyOp34
 70
     1
102
RTVSPropertyOp35
 70
     1
102
RTVSPropertyOp36
 70
     1
102
RTVSPropertyOp37
 70
     1
102
RTVSPropertyOp38
 70
     1
102
RTVSPropertyOp39
 70
     1
102
RTVSPropertyOp40
 70
     1
102
RTVSPropertyOp41
 70
     1
102
RTVSPropertyOp42
 70
     1
102
RTVSPropertyOp43
 70
     1
102
RTVSPropertyOp44
 70
     1
102
RTVSPropertyOp45
 70
     1
102
RTVSPropertyOp46
 70
     1
102
RTVSPropertyOp47
 70
     1
102
RTVSPropertyOp48
 70
     1
102
RTVSPropertyOp49
 70
     1
102
RTVSPropertyOp50
 70
     1
102
RTVSPropertyOp51
 70
     0
102
RTVSPropertyOp52
 70
     0
102
RTVSPropertyOp53
 70
     1
102
RTVSPropertyOp54
 70
     1
102
RTVSPropertyOp55
 70
     1
102
RTVSPropertyOp56
 70
     1
102
RTVSPropertyOp57
 70
     1
102
RTVSPost2010Prop28
280
     0
102
RTVSPost2010PropOp28
 70
     1
102
RTVSPost2010Prop29
280
     1
102
RTVSPost2010PropOp29
 70
     1
102
RTVSPost2010Prop30
280
     1
102
RTVSPost2010PropOp30
 70
     1
102
RTVSPost2010Prop31
280
     0
102
RTVSPost2010PropOp31
 70
     1
102
RTVSPost2010Prop32
280
     0
102
RTVSPost2010PropOp32
 70
     1
102
RTVSPost2010Prop33
280
     0
102
RTVSPost2010PropOp33
 70
     1
102
RTVSPost2010Prop34
280
     0
102
RTVSPost2010PropOp34
 70
     1
102
RTVSPost2010Prop35
280
     0
102
RTVSPost2010PropOp35
 70
     1
102
RTVSPost2010Prop36
280
     0
102
RTVSPost2010PropOp36
 70
     1
102
RTVSPost2010Prop37
 90
       50
102
RTVSPost2010PropOp37
 70
     1
102
RTVSPost2010Prop38
140
0.0
102
RTVSPost2010PropOp38
 70
     1
102
RTVSPost2010Prop39
140
1.0
102
RTVSPost2010PropOp39
 70
     1
102
RTVSPost2010Prop40
 90
        0
102
RTVSPost2010PropOp40
 70
     1
102
RTVSPost2010Prop41ColorIndex
 90
       18
102
RTVSPost2010Prop41ColorRGB
 90
        0
102
RTVSPost2010PropOp41
 70
     1
102
RTVSPost2010Prop42
 90
       50
102
RTVSPost2010PropOp42
 70
     1
102
RTVSPost2010Prop43
 90
        3
102
RTVSPost2010PropOp43
 70
     1
102
RTVSPost2010Prop44ColorIndex
 90
        5
102
RTVSPost2010Prop44ColorRGB
 90
      255
102
RTVSPost2010PropOp44
 70
     1
102
RTVSPost2010Prop45
280
     0
102
RTVSPost2010PropOp45
 70
     1
102
RTVSPost2010Prop46
 90
       50
102
RTVSPost2010PropOp46
 70
     1
102
RTVSPost2010Prop47
 90
       50
102
RTVSPost2010PropOp47
 70
     1
102
RTVSPost2010Prop48
 90
       50
102
RTVSPost2010PropOp48
 70
     1
102
RTVSPost2010Prop49
280
     0
102
RTVSPost2010PropOp49
 70
     1
102
RTVSPost2010Prop50
 90
       50
102
RTVSPost2010PropOp50
 70
     1
102
RTVSPost2010Prop51ColorIndex
 90
      256
102
RTVSPost2010Prop51ColorRGB
 90
-16777216
102
RTVSPost2010PropOp51
 70
     0
102
RTVSPost2010Prop52
140
1.0
102
RTVSPost2010PropOp52
 70
     0
102
RTVSPost2010Prop53
 90
        2
102
RTVSPost2010PropOp53
 70
     1
102
RTVSPost2010Prop54
  1
strokes_ogs.tif
102
RTVSPost2010PropOp54
 70
     1
102
RTVSPost2010Prop55
280
     0
102
RTVSPost2010PropOp55
 70
     1
102
RTVSPost2010Prop56
140
1.0
102
RTVSPost2010PropOp56
 70
     1
102
RTVSPost2010Prop57
140
1.0
102
RTVSPost2010PropOp57
 70
     1
  0
XRECORD
  5
430
102
{ACAD_REACTORS
330
42F
102
}
330
42F
100
AcDbXrecord
280
     1
102
RTVSPropertyOp0
 70
     1
102
RTVSPropertyOp1
 70
     1
102
RTVSPropertyOp2
 70
     1
102
RTVSPropertyOp3
 70
     1
102
RTVSPropertyOp4
 70
     1
102
RTVSPropertyOp5
 70
     1
102
RTVSPropertyOp6
 70
     1
102
RTVSPropertyOp7
 70
     1
102
RTVSPropertyOp8
 70
     1
102
RTVSPropertyOp9
 70
     1
102
RTVSPropertyOp10
 70
     1
102
RTVSPropertyOp11
 70
     1
102
RTVSPropertyOp12
 70
     1
102
RTVSPropertyOp13
 70
     1
102
RTVSPropertyOp14
 70
     1
102
RTVSPropertyOp15
 70
     1
102
RTVSPropertyOp16
 70
     1
102
RTVSPropertyOp17
 70
     1
102
RTVSPropertyOp18
 70
     1
102
RTVSPropertyOp19
 70
     1
102
RTVSPropertyOp20
 70
     1
102
RTVSPropertyOp21
 70
     1
102
RTVSPropertyOp22
 70
     1
102
RTVSPropertyOp23
 70
     1
102
RTVSPropertyOp24
 70
     1
102
RTVSPropertyOp25
 70
     1
102
RTVSPropertyOp26
 70
     1
102
RTVSPropertyOp27
 70
     1
102
RTVSPropertyOp28
 70
     1
102
RTVSPropertyOp29
 70
     1
102
RTVSPropertyOp30
 70
     1
102
RTVSPropertyOp31
 70
     1
102
RTVSPropertyOp32
 70
     1
102
RTVSPropertyOp33
 70
     1
102
RTVSPropertyOp34
 70
     1
102
RTVSPropertyOp35
 70
     1
102
RTVSPropertyOp36
 70
     1
102
RTVSPropertyOp37
 70
     1
102
RTVSPropertyOp38
 70
     1
102
RTVSPropertyOp39
 70
     1
102
RTVSPropertyOp40
 70
     1
102
RTVSPropertyOp41
 70
     1
102
RTVSPropertyOp42
 70
     1
102
RTVSPropertyOp43
 70
     1
102
RTVSPropertyOp44
 70
     1
102
RTVSPropertyOp45
 70
     1
102
RTVSPropertyOp46
 70
     1
102
RTVSPropertyOp47
 70
     1
102
RTVSPropertyOp48
 70
     1
102
RTVSPropertyOp49
 70
     1
102
RTVSPropertyOp50
 70
     1
102
RTVSPropertyOp51
 70
     0
102
RTVSPropertyOp52
 70
     0
102
RTVSPropertyOp53
 70
     1
102
RTVSPropertyOp54
 70
     1
102
RTVSPropertyOp55
 70
     1
102
RTVSPropertyOp56
 70
     1
102
RTVSPropertyOp57
 70
     1
102
RTVSPost2010Prop28
280
     0
102
RTVSPost2010PropOp28
 70
     1
102
RTVSPost2010Prop29
280
     1
102
RTVSPost2010PropOp29
 70
     1
102
RTVSPost2010Prop30
280
     1
102
RTVSPost2010PropOp30
 70
     1
102
RTVSPost2010Prop31
280
     0
102
RTVSPost2010PropOp31
 70
     1
102
RTVSPost2010Prop32
280
     0
102
RTVSPost2010PropOp32
 70
     1
102
RTVSPost2010Prop33
280
     0
102
RTVSPost2010PropOp33
 70
     1
102
RTVSPost2010Prop34
280
     0
102
RTVSPost2010PropOp34
 70
     1
102
RTVSPost2010Prop35
280
     0
102
RTVSPost2010PropOp35
 70
     1
102
RTVSPost2010Prop36
280
     0
102
RTVSPost2010PropOp36
 70
     1
102
RTVSPost2010Prop37
 90
       50
102
RTVSPost2010PropOp37
 70
     1
102
RTVSPost2010Prop38
140
0.0
102
RTVSPost2010PropOp38
 70
     1
102
RTVSPost2010Prop39
140
1.0
102
RTVSPost2010PropOp39
 70
     1
102
RTVSPost2010Prop40
 90
        0
102
RTVSPost2010PropOp40
 70
     1
102
RTVSPost2010Prop41ColorIndex
 90
       18
102
RTVSPost2010Prop41ColorRGB
 90
        0
102
RTVSPost2010PropOp41
 70
     1
102
RTVSPost2010Prop42
 90
       50
102
RTVSPost2010PropOp42
 70
     1
102
RTVSPost2010Prop43
 90
        3
102
RTVSPost2010PropOp43
 70
     1
102
RTVSPost2010Prop44ColorIndex
 90
        5
102
RTVSPost2010Prop44ColorRGB
 90
      255
102
RTVSPost2010PropOp44
 70
     1
102
RTVSPost2010Prop45
280
     0
102
RTVSPost2010PropOp45
 70
     1
102
RTVSPost2010Prop46
 90
       50
102
RTVSPost2010PropOp46
 70
     1
102
RTVSPost2010Prop47
 90
       50
102
RTVSPost2010PropOp47
 70
     1
102
RTVSPost2010Prop48
 90
       50
102
RTVSPost2010PropOp48
 70
     1
102
RTVSPost2010Prop49
280
     0
102
RTVSPost2010PropOp49
 70
     1
102
RTVSPost2010Prop50
 90
       50
102
RTVSPost2010PropOp50
 70
     1
102
RTVSPost2010Prop51ColorIndex
 90
      256
102
RTVSPost2010Prop51ColorRGB
 90
-16777216
102
RTVSPost2010PropOp51
 70
     0
102
RTVSPost2010Prop52
140
1.0
102
RTVSPost2010PropOp52
 70
     0
102
RTVSPost2010Prop53
 90
        2
102
RTVSPost2010PropOp53
 70
     1
102
RTVSPost2010Prop54
  1
strokes_ogs.tif
102
RTVSPost2010PropOp54
 70
     1
102
RTVSPost2010Prop55
280
     0
102
RTVSPost2010PropOp55
 70
     1
102
RTVSPost2010Prop56
140
1.0
102
RTVSPost2010PropOp56
 70
     1
102
RTVSPost2010Prop57
140
1.0
102
RTVSPost2010PropOp57
 70
     1
  0
XRECORD
  5
420
102
{ACAD_REACTORS
330
41F
102
}
330
41F
100
AcDbXrecord
280
     1
102
RTVSPropertyOp0
 70
     1
102
RTVSPropertyOp1
 70
     1
102
RTVSPropertyOp2
 70
     1
102
RTVSPropertyOp3
 70
     1
102
RTVSPropertyOp4
 70
     1
102
RTVSPropertyOp5
 70
     1
102
RTVSPropertyOp6
 70
     1
102
RTVSPropertyOp7
 70
     1
102
RTVSPropertyOp8
 70
     1
102
RTVSPropertyOp9
 70
     1
102
RTVSPropertyOp10
 70
     1
102
RTVSPropertyOp11
 70
     1
102
RTVSPropertyOp12
 70
     1
102
RTVSPropertyOp13
 70
     1
102
RTVSPropertyOp14
 70
     1
102
RTVSPropertyOp15
 70
     1
102
RTVSPropertyOp16
 70
     1
102
RTVSPropertyOp17
 70
     1
102
RTVSPropertyOp18
 70
     1
102
RTVSPropertyOp19
 70
     1
102
RTVSPropertyOp20
 70
     1
102
RTVSPropertyOp21
 70
     1
102
RTVSPropertyOp22
 70
     1
102
RTVSPropertyOp23
 70
     1
102
RTVSPropertyOp24
 70
     1
102
RTVSPropertyOp25
 70
     1
102
RTVSPropertyOp26
 70
     1
102
RTVSPropertyOp27
 70
     1
102
RTVSPropertyOp28
 70
     1
102
RTVSPropertyOp29
 70
     1
102
RTVSPropertyOp30
 70
     1
102
RTVSPropertyOp31
 70
     1
102
RTVSPropertyOp32
 70
     1
102
RTVSPropertyOp33
 70
     1
102
RTVSPropertyOp34
 70
     1
102
RTVSPropertyOp35
 70
     1
102
RTVSPropertyOp36
 70
     1
102
RTVSPropertyOp37
 70
     1
102
RTVSPropertyOp38
 70
     1
102
RTVSPropertyOp39
 70
     1
102
RTVSPropertyOp40
 70
     1
102
RTVSPropertyOp41
 70
     1
102
RTVSPropertyOp42
 70
     1
102
RTVSPropertyOp43
 70
     1
102
RTVSPropertyOp44
 70
     1
102
RTVSPropertyOp45
 70
     1
102
RTVSPropertyOp46
 70
     1
102
RTVSPropertyOp47
 70
     1
102
RTVSPropertyOp48
 70
     1
102
RTVSPropertyOp49
 70
     1
102
RTVSPropertyOp50
 70
     1
102
RTVSPropertyOp51
 70
     0
102
RTVSPropertyOp52
 70
     0
102
RTVSPropertyOp53
 70
     1
102
RTVSPropertyOp54
 70
     1
102
RTVSPropertyOp55
 70
     1
102
RTVSPropertyOp56
 70
     1
102
RTVSPropertyOp57
 70
     1
102
RTVSPost2010Prop28
280
     0
102
RTVSPost2010PropOp28
 70
     1
102
RTVSPost2010Prop29
280
     1
102
RTVSPost2010PropOp29
 70
     1
102
RTVSPost2010Prop30
280
     1
102
RTVSPost2010PropOp30
 70
     1
102
RTVSPost2010Prop31
280
     0
102
RTVSPost2010PropOp31
 70
     1
102
RTVSPost2010Prop32
280
     0
102
RTVSPost2010PropOp32
 70
     1
102
RTVSPost2010Prop33
280
     0
102
RTVSPost2010PropOp33
 70
     1
102
RTVSPost2010Prop34
280
     0
102
RTVSPost2010PropOp34
 70
     1
102
RTVSPost2010Prop35
280
     0
102
RTVSPost2010PropOp35
 70
     1
102
RTVSPost2010Prop36
280
     0
102
RTVSPost2010PropOp36
 70
     1
102
RTVSPost2010Prop37
 90
       50
102
RTVSPost2010PropOp37
 70
     1
102
RTVSPost2010Prop38
140
0.0
102
RTVSPost2010PropOp38
 70
     1
102
RTVSPost2010Prop39
140
1.0
102
RTVSPost2010PropOp39
 70
     1
102
RTVSPost2010Prop40
 90
        0
102
RTVSPost2010PropOp40
 70
     1
102
RTVSPost2010Prop41ColorIndex
 90
       18
102
RTVSPost2010Prop41ColorRGB
 90
        0
102
RTVSPost2010PropOp41
 70
     1
102
RTVSPost2010Prop42
 90
       50
102
RTVSPost2010PropOp42
 70
     1
102
RTVSPost2010Prop43
 90
        3
102
RTVSPost2010PropOp43
 70
     1
102
RTVSPost2010Prop44ColorIndex
 90
        5
102
RTVSPost2010Prop44ColorRGB
 90
      255
102
RTVSPost2010PropOp44
 70
     1
102
RTVSPost2010Prop45
280
     0
102
RTVSPost2010PropOp45
 70
     1
102
RTVSPost2010Prop46
 90
       50
102
RTVSPost2010PropOp46
 70
     1
102
RTVSPost2010Prop47
 90
       50
102
RTVSPost2010PropOp47
 70
     1
102
RTVSPost2010Prop48
 90
       50
102
RTVSPost2010PropOp48
 70
     1
102
RTVSPost2010Prop49
280
     0
102
RTVSPost2010PropOp49
 70
     1
102
RTVSPost2010Prop50
 90
       50
102
RTVSPost2010PropOp50
 70
     1
102
RTVSPost2010Prop51ColorIndex
 90
      256
102
RTVSPost2010Prop51ColorRGB
 90
-16777216
102
RTVSPost2010PropOp51
 70
     0
102
RTVSPost2010Prop52
140
1.0
102
RTVSPost2010PropOp52
 70
     0
102
RTVSPost2010Prop53
 90
        2
102
RTVSPost2010PropOp53
 70
     1
102
RTVSPost2010Prop54
  1
strokes_ogs.tif
102
RTVSPost2010PropOp54
 70
     1
102
RTVSPost2010Prop55
280
     0
102
RTVSPost2010PropOp55
 70
     1
102
RTVSPost2010Prop56
140
1.0
102
RTVSPost2010PropOp56
 70
     1
102
RTVSPost2010Prop57
140
1.0
102
RTVSPost2010PropOp57
 70
     1
  0
XRECORD
  5
412
102
{ACAD_REACTORS
330
411
102
}
330
411
100
AcDbXrecord
280
     1
102
RTVSPropertyOp0
 70
     1
102
RTVSPropertyOp1
 70
     1
102
RTVSPropertyOp2
 70
     1
102
RTVSPropertyOp3
 70
     1
102
RTVSPropertyOp4
 70
     1
102
RTVSPropertyOp5
 70
     1
102
RTVSPropertyOp6
 70
     1
102
RTVSPropertyOp7
 70
     1
102
RTVSPropertyOp8
 70
     1
102
RTVSPropertyOp9
 70
     1
102
RTVSPropertyOp10
 70
     1
102
RTVSPropertyOp11
 70
     1
102
RTVSPropertyOp12
 70
     1
102
RTVSPropertyOp13
 70
     1
102
RTVSPropertyOp14
 70
     1
102
RTVSPropertyOp15
 70
     1
102
RTVSPropertyOp16
 70
     1
102
RTVSPropertyOp17
 70
     1
102
RTVSPropertyOp18
 70
     1
102
RTVSPropertyOp19
 70
     1
102
RTVSPropertyOp20
 70
     1
102
RTVSPropertyOp21
 70
     1
102
RTVSPropertyOp22
 70
     1
102
RTVSPropertyOp23
 70
     1
102
RTVSPropertyOp24
 70
     1
102
RTVSPropertyOp25
 70
     1
102
RTVSPropertyOp26
 70
     1
102
RTVSPropertyOp27
 70
     1
102
RTVSPropertyOp28
 70
     1
102
RTVSPropertyOp29
 70
     1
102
RTVSPropertyOp30
 70
     1
102
RTVSPropertyOp31
 70
     1
102
RTVSPropertyOp32
 70
     1
102
RTVSPropertyOp33
 70
     1
102
RTVSPropertyOp34
 70
     1
102
RTVSPropertyOp35
 70
     1
102
RTVSPropertyOp36
 70
     1
102
RTVSPropertyOp37
 70
     1
102
RTVSPropertyOp38
 70
     1
102
RTVSPropertyOp39
 70
     1
102
RTVSPropertyOp40
 70
     1
102
RTVSPropertyOp41
 70
     1
102
RTVSPropertyOp42
 70
     1
102
RTVSPropertyOp43
 70
     1
102
RTVSPropertyOp44
 70
     1
102
RTVSPropertyOp45
 70
     1
102
RTVSPropertyOp46
 70
     1
102
RTVSPropertyOp47
 70
     1
102
RTVSPropertyOp48
 70
     1
102
RTVSPropertyOp49
 70
     1
102
RTVSPropertyOp50
 70
     1
102
RTVSPropertyOp51
 70
     0
102
RTVSPropertyOp52
 70
     0
102
RTVSPropertyOp53
 70
     1
102
RTVSPropertyOp54
 70
     1
102
RTVSPropertyOp55
 70
     1
102
RTVSPropertyOp56
 70
     1
102
RTVSPropertyOp57
 70
     1
102
RTVSPost2010Prop28
280
     0
102
RTVSPost2010PropOp28
 70
     1
102
RTVSPost2010Prop29
280
     1
102
RTVSPost2010PropOp29
 70
     1
102
RTVSPost2010Prop30
280
     1
102
RTVSPost2010PropOp30
 70
     1
102
RTVSPost2010Prop31
280
     0
102
RTVSPost2010PropOp31
 70
     1
102
RTVSPost2010Prop32
280
     0
102
RTVSPost2010PropOp32
 70
     1
102
RTVSPost2010Prop33
280
     0
102
RTVSPost2010PropOp33
 70
     1
102
RTVSPost2010Prop34
280
     0
102
RTVSPost2010PropOp34
 70
     1
102
RTVSPost2010Prop35
280
     0
102
RTVSPost2010PropOp35
 70
     1
102
RTVSPost2010Prop36
280
     0
102
RTVSPost2010PropOp36
 70
     1
102
RTVSPost2010Prop37
 90
       50
102
RTVSPost2010PropOp37
 70
     1
102
RTVSPost2010Prop38
140
0.0
102
RTVSPost2010PropOp38
 70
     1
102
RTVSPost2010Prop39
140
1.0
102
RTVSPost2010PropOp39
 70
     1
102
RTVSPost2010Prop40
 90
        0
102
RTVSPost2010PropOp40
 70
     1
102
RTVSPost2010Prop41ColorIndex
 90
       18
102
RTVSPost2010Prop41ColorRGB
 90
        0
102
RTVSPost2010PropOp41
 70
     1
102
RTVSPost2010Prop42
 90
       50
102
RTVSPost2010PropOp42
 70
     1
102
RTVSPost2010Prop43
 90
        3
102
RTVSPost2010PropOp43
 70
     1
102
RTVSPost2010Prop44ColorIndex
 90
        5
102
RTVSPost2010Prop44ColorRGB
 90
      255
102
RTVSPost2010PropOp44
 70
     1
102
RTVSPost2010Prop45
280
     0
102
RTVSPost2010PropOp45
 70
     1
102
RTVSPost2010Prop46
 90
       50
102
RTVSPost2010PropOp46
 70
     1
102
RTVSPost2010Prop47
 90
       50
102
RTVSPost2010PropOp47
 70
     1
102
RTVSPost2010Prop48
 90
       50
102
RTVSPost2010PropOp48
 70
     1
102
RTVSPost2010Prop49
280
     0
102
RTVSPost2010PropOp49
 70
     1
102
RTVSPost2010Prop50
 90
       50
102
RTVSPost2010PropOp50
 70
     1
102
RTVSPost2010Prop51ColorIndex
 90
      256
102
RTVSPost2010Prop51ColorRGB
 90
-16777216
102
RTVSPost2010PropOp51
 70
     0
102
RTVSPost2010Prop52
140
1.0
102
RTVSPost2010PropOp52
 70
     0
102
RTVSPost2010Prop53
 90
        2
102
RTVSPost2010PropOp53
 70
     1
102
RTVSPost2010Prop54
  1
strokes_ogs.tif
102
RTVSPost2010PropOp54
 70
     1
102
RTVSPost2010Prop55
280
     0
102
RTVSPost2010PropOp55
 70
     1
102
RTVSPost2010Prop56
140
1.0
102
RTVSPost2010PropOp56
 70
     1
102
RTVSPost2010Prop57
140
1.0
102
RTVSPost2010PropOp57
 70
     1
  0
XRECORD
  5
432
102
{ACAD_REACTORS
330
431
102
}
330
431
100
AcDbXrecord
280
     1
102
RTVSPropertyOp0
 70
     1
102
RTVSPropertyOp1
 70
     1
102
RTVSPropertyOp2
 70
     1
102
RTVSPropertyOp3
 70
     1
102
RTVSPropertyOp4
 70
     1
102
RTVSPropertyOp5
 70
     1
102
RTVSPropertyOp6
 70
     1
102
RTVSPropertyOp7
 70
     1
102
RTVSPropertyOp8
 70
     1
102
RTVSPropertyOp9
 70
     1
102
RTVSPropertyOp10
 70
     1
102
RTVSPropertyOp11
 70
     1
102
RTVSPropertyOp12
 70
     1
102
RTVSPropertyOp13
 70
     1
102
RTVSPropertyOp14
 70
     1
102
RTVSPropertyOp15
 70
     1
102
RTVSPropertyOp16
 70
     1
102
RTVSPropertyOp17
 70
     1
102
RTVSPropertyOp18
 70
     1
102
RTVSPropertyOp19
 70
     1
102
RTVSPropertyOp20
 70
     1
102
RTVSPropertyOp21
 70
     1
102
RTVSPropertyOp22
 70
     1
102
RTVSPropertyOp23
 70
     1
102
RTVSPropertyOp24
 70
     1
102
RTVSPropertyOp25
 70
     1
102
RTVSPropertyOp26
 70
     1
102
RTVSPropertyOp27
 70
     1
102
RTVSPropertyOp28
 70
     1
102
RTVSPropertyOp29
 70
     1
102
RTVSPropertyOp30
 70
     1
102
RTVSPropertyOp31
 70
     1
102
RTVSPropertyOp32
 70
     1
102
RTVSPropertyOp33
 70
     1
102
RTVSPropertyOp34
 70
     1
102
RTVSPropertyOp35
 70
     1
102
RTVSPropertyOp36
 70
     1
102
RTVSPropertyOp37
 70
     1
102
RTVSPropertyOp38
 70
     1
102
RTVSPropertyOp39
 70
     1
102
RTVSPropertyOp40
 70
     1
102
RTVSPropertyOp41
 70
     1
102
RTVSPropertyOp42
 70
     1
102
RTVSPropertyOp43
 70
     1
102
RTVSPropertyOp44
 70
     1
102
RTVSPropertyOp45
 70
     1
102
RTVSPropertyOp46
 70
     1
102
RTVSPropertyOp47
 70
     1
102
RTVSPropertyOp48
 70
     1
102
RTVSPropertyOp49
 70
     1
102
RTVSPropertyOp50
 70
     1
102
RTVSPropertyOp51
 70
     0
102
RTVSPropertyOp52
 70
     0
102
RTVSPropertyOp53
 70
     1
102
RTVSPropertyOp54
 70
     1
102
RTVSPropertyOp55
 70
     1
102
RTVSPropertyOp56
 70
     1
102
RTVSPropertyOp57
 70
     1
102
RTVSPost2010Prop28
280
     0
102
RTVSPost2010PropOp28
 70
     1
102
RTVSPost2010Prop29
280
     1
102
RTVSPost2010PropOp29
 70
     1
102
RTVSPost2010Prop30
280
     1
102
RTVSPost2010PropOp30
 70
     1
102
RTVSPost2010Prop31
280
     0
102
RTVSPost2010PropOp31
 70
     1
102
RTVSPost2010Prop32
280
     0
102
RTVSPost2010PropOp32
 70
     1
102
RTVSPost2010Prop33
280
     0
102
RTVSPost2010PropOp33
 70
     1
102
RTVSPost2010Prop34
280
     0
102
RTVSPost2010PropOp34
 70
     1
102
RTVSPost2010Prop35
280
     0
102
RTVSPost2010PropOp35
 70
     1
102
RTVSPost2010Prop36
280
     0
102
RTVSPost2010PropOp36
 70
     1
102
RTVSPost2010Prop37
 90
       50
102
RTVSPost2010PropOp37
 70
     1
102
RTVSPost2010Prop38
140
0.0
102
RTVSPost2010PropOp38
 70
     1
102
RTVSPost2010Prop39
140
1.0
102
RTVSPost2010PropOp39
 70
     1
102
RTVSPost2010Prop40
 90
        0
102
RTVSPost2010PropOp40
 70
     1
102
RTVSPost2010Prop41ColorIndex
 90
       18
102
RTVSPost2010Prop41ColorRGB
 90
        0
102
RTVSPost2010PropOp41
 70
     1
102
RTVSPost2010Prop42
 90
       50
102
RTVSPost2010PropOp42
 70
     1
102
RTVSPost2010Prop43
 90
        3
102
RTVSPost2010PropOp43
 70
     1
102
RTVSPost2010Prop44ColorIndex
 90
        5
102
RTVSPost2010Prop44ColorRGB
 90
      255
102
RTVSPost2010PropOp44
 70
     1
102
RTVSPost2010Prop45
280
     0
102
RTVSPost2010PropOp45
 70
     1
102
RTVSPost2010Prop46
 90
       50
102
RTVSPost2010PropOp46
 70
     1
102
RTVSPost2010Prop47
 90
       50
102
RTVSPost2010PropOp47
 70
     1
102
RTVSPost2010Prop48
 90
       50
102
RTVSPost2010PropOp48
 70
     1
102
RTVSPost2010Prop49
280
     0
102
RTVSPost2010PropOp49
 70
     1
102
RTVSPost2010Prop50
 90
       50
102
RTVSPost2010PropOp50
 70
     1
102
RTVSPost2010Prop51ColorIndex
 90
      256
102
RTVSPost2010Prop51ColorRGB
 90
-16777216
102
RTVSPost2010PropOp51
 70
     0
102
RTVSPost2010Prop52
140
1.0
102
RTVSPost2010PropOp52
 70
     0
102
RTVSPost2010Prop53
 90
        2
102
RTVSPost2010PropOp53
 70
     1
102
RTVSPost2010Prop54
  1
strokes_ogs.tif
102
RTVSPost2010PropOp54
 70
     1
102
RTVSPost2010Prop55
280
     0
102
RTVSPost2010PropOp55
 70
     1
102
RTVSPost2010Prop56
140
1.0
102
RTVSPost2010PropOp56
 70
     1
102
RTVSPost2010Prop57
140
1.0
102
RTVSPost2010PropOp57
 70
     1
  0
ENDSEC
  0
EOF
